osu file format v14

[General]
AudioFilename: CloZee - Koto.mp3
AudioLeadIn: 0
PreviewTime: 115995
Countdown: 0
SampleSet: Soft
StackLeniency: 0.7
Mode: 0
LetterboxInBreaks: 0
WidescreenStoryboard: 1

[Editor]
DistanceSpacing: 1.3
BeatDivisor: 8
GridSize: 4
TimelineZoom: 1.7

[Metadata]
Title:Koto
TitleUnicode:Koto
Artist:CloZee
ArtistUnicode:CloZee
Creator:galvenize
Version:Hard
Source:
Tags:japan electronic chill trap chill downtempo japanese mid-tempo tribal trap trip hop world bass Toulouse h4d0uk3n1 Paradogi CircleChu
BeatmapID:1291618
BeatmapSetID:517055

[Difficulty]
HPDrainRate:5
CircleSize:4
OverallDifficulty:6
ApproachRate:7.5
SliderMultiplier:1.5
SliderTickRate:1

[Events]
//Background and Video events
0,0,"koto2.jpg",0,0
//Break Periods
2,77795,86342
2,173795,179942
//Storyboard Layer 0 (Background)
//Storyboard Layer 1 (Fail)
//Storyboard Layer 2 (Pass)
//Storyboard Layer 3 (Foreground)
//Storyboard Layer 4 (Overlay)
//Storyboard Sound Samples

[TimingPoints]
795,600,4,2,0,40,1,0
19835,-55.5555555555556,4,2,1,60,0,0
39935,-100,4,2,0,60,0,0
41485,-55.5555555555556,4,2,1,60,0,0
46316,-55.5555555555556,4,2,0,40,0,0
48691,-100,4,2,0,40,0,0
49685,-100,4,2,0,60,0,0
51035,-55.5555555555556,4,2,1,60,0,0
53541,-55.5555555555556,4,2,0,40,0,0
58341,-55.5555555555556,4,2,1,40,0,0
87116,-133.333333333333,4,2,1,40,0,0
96635,-100,4,2,1,30,0,0
113516,-100,4,2,1,30,0,0
115841,-55.5555555555556,4,2,1,60,0,0
115995,-52.6315789473684,4,2,1,60,0,1
151995,-55.5555555555556,4,2,0,60,0,0
154235,-55.5555555555556,4,2,1,60,0,0
180716,-133.333333333333,4,2,1,60,0,0
182141,-55.5555555555556,4,2,1,60,0,0
204116,-66.6666666666667,4,2,1,60,0,0
204716,-50,4,2,1,60,0,0

[Colours]
Combo1 : 97,103,105
Combo2 : 163,7,31
Combo3 : 221,228,240

[HitObjects]
128,120,19995,6,0,L|220:112,1,67.4999979400635,4|0,1:3|0:0,0:0:0:0:
280,133,20295,2,0,P|304:173|300:221,1,67.4999979400635,0|0,0:0|0:0,0:0:0:0:
228,235,20595,2,0,P|188:159|212:83,1,134.999995880127,8|0,0:0|0:0,0:0:0:0:
257,50,21045,2,0,B|349:74|349:74|429:54,1,134.999995880127,4|0,0:3|0:0,0:0:0:0:
444,131,21495,2,0,L|348:155,1,67.4999979400635,4|0,0:3|0:0,0:0:0:0:
290,143,21795,2,0,B|199:117|199:117|143:127,1,134.999995880127,8|0,0:0|0:0,0:0:0:0:
68,156,22245,1,0,0:0:0:0:
117,228,22395,6,0,P|141:264|153:312,1,67.4999979400635,4|0,0:3|0:0,0:0:0:0:
61,297,22695,2,0,P|37:261|25:213,1,67.4999979400635,0|0,0:0|0:0,0:0:0:0:
68,156,22995,2,0,P|144:144|204:204,1,134.999995880127,8|0,0:0|0:0,0:0:0:0:
235,249,23445,2,0,P|292:293|364:280,1,134.999995880127,4|0,0:3|0:0,0:0:0:0:
310,209,23895,2,0,P|298:169|314:121,1,67.4999979400635,4|0,0:3|0:0,0:0:0:0:
386,165,24195,2,0,L|470:157,1,67.4999979400635,8|0,0:0|0:0,0:0:0:0:
452,246,24495,2,0,L|368:254,1,67.4999979400635,0|0,0:0|0:0,0:0:0:0:
310,209,24795,6,0,P|298:161|322:109,1,67.4999979400635,4|0,0:3|0:0,0:0:0:0:
319,57,25095,2,0,P|280:60|239:94,1,67.4999979400635,0|0,0:0|0:0,0:0:0:0:
214,151,25395,2,0,P|126:167|82:119,1,134.999995880127,8|0,0:0|0:0,0:0:0:0:
19,97,25845,2,0,P|77:54|146:75,1,134.999995880127,4|0,0:3|0:0,0:0:0:0:
94,142,26295,2,0,P|58:166|2:166,1,67.4999979400635,4|0,0:3|0:0,0:0:0:0:
78,246,26595,2,0,P|86:330|94:410,1,134.999995880127,8|0,0:0|0:0,0:0:0:0:
165,334,27045,1,0,0:0:0:0:
250,353,27195,6,0,P|294:353|346:345,1,67.4999979400635,4|0,0:3|0:0,0:0:0:0:
348,268,27495,2,0,L|336:188,1,67.4999979400635,0|0,0:0|0:0,0:0:0:0:
411,153,27795,2,0,P|439:225|427:301,1,134.999995880127,8|0,0:0|0:0,0:0:0:0:
348,268,28245,2,0,B|276:252|276:252|196:276,1,134.999995880127,4|0,0:3|0:0,0:0:0:0:
143,221,28695,2,0,P|119:181|127:133,1,67.4999979400635,4|0,0:3|0:0,0:0:0:0:
152,80,28995,2,0,P|192:56|240:64,1,67.4999979400635,8|0,0:0|0:0,0:0:0:0:
296,77,29295,2,0,P|320:117|312:165,1,67.4999979400635,0|0,0:0|0:0,0:0:0:0:
237,162,29595,6,0,L|45:178,1,134.999995880127,4|0,1:1|0:0,0:0:0:0:
44,240,30045,1,0,0:0:0:0:
103,304,30195,2,0,P|173:268|250:281,1,134.999995880127,8|0,0:0|0:0,0:0:0:0:
290,333,30645,2,0,L|371:326,1,67.4999979400635,4|0,0:3|0:0,0:0:0:0:
409,256,30945,1,0,0:0:0:0:
359,183,31095,2,0,L|278:190,1,67.4999979400635,4|0,0:3|0:0,0:0:0:0:
230,126,31395,1,8,0:0:0:0:
55,112,31695,1,0,0:0:0:0:
172,152,31995,6,0,L|180:240,1,67.4999979400635,4|0,0:3|0:0,0:0:0:0:
232,300,32295,2,0,P|184:320|128:296,1,67.4999979400635,0|0,0:0|0:0,0:0:0:0:
96,256,32595,2,0,P|63:238|-33:281,1,134.999995880127,8|0,0:0|0:0,0:0:0:0:
44,322,33045,2,0,P|87:341|146:319,1,67.4999979400635,4|0,0:3|0:0,0:0:0:0:
184,298,33345,1,0,0:0:0:0:
261,339,33495,2,0,P|272:289|246:239,1,67.4999979400635,4|0,0:3|0:0,0:0:0:0:
203,215,33795,2,0,P|163:211|119:195,1,67.4999979400635,8|0,0:0|0:0,0:0:0:0:
49,207,34095,1,0,0:0:0:0:
152,64,34395,6,0,L|224:20,1,67.4999979400635,4|0,0:3|0:0,0:0:0:0:
296,24,34695,2,0,L|360:64,1,67.4999979400635,0|0,0:0|0:0,0:0:0:0:
324,136,34995,2,0,P|308:176|324:224,1,67.4999979400635,8|0,0:0|0:0,0:0:0:0:
198,206,35295,2,0,P|203:169|188:136,1,67.4999979400635,0|4,0:0|0:3,0:0:0:0:
120,192,35595,2,0,P|124:244|164:276,1,67.4999979400635,0|0,0:0|0:0,0:0:0:0:
222,287,35895,2,0,B|304:286|305:314|382:302,2,134.999995880127,4|8|0,0:3|0:0|0:0,0:0:0:0:
143,331,36645,1,0,0:0:0:0:
55,309,36795,6,0,L|49:231,1,67.4999979400635,4|0,0:3|0:0,0:0:0:0:
123,183,37095,2,0,P|136:142|127:106,1,67.4999979400635,0|0,0:0|0:0,0:0:0:0:
58,54,37395,2,0,P|45:95|54:131,1,67.4999979400635,8|0,0:0|0:0,0:0:0:0:
123,183,37695,2,0,L|277:178,1,134.999995880127,0|0,0:0|0:0,0:0:0:0:
354,143,38145,1,0,0:0:0:0:
359,232,38295,2,0,L|354:321,1,67.4999979400635,4|0,0:3|0:0,0:0:0:0:
442,285,38595,2,0,P|453:243|438:206,1,67.4999979400635,8|0,0:0|0:0,0:0:0:0:
404,132,38895,1,0,0:0:0:0:
239,67,39195,6,0,L|80:80,2,134.999995880127,4|2|2,0:3|0:0|0:0,0:0:0:0:
332,92,40095,5,2,0:0:0:0:
332,92,40245,2,0,P|287:140|286:194,1,112.5,4|4,0:3|0:3,0:0:0:0:
217,245,40995,1,10,0:0:0:0:
217,245,41295,1,0,0:0:0:0:
217,245,41595,6,0,P|282:257|299:258,1,67.4999979400635,4|0,0:3|0:0,0:0:0:0:
364,222,41895,2,0,P|379:174|372:124,1,67.4999979400635,0|0,0:0|0:0,0:0:0:0:
294,134,42195,2,0,P|224:140|145:104,1,134.999995880127,8|0,0:0|0:0,0:0:0:0:
123,39,42645,2,0,P|78:92|99:164,1,134.999995880127,4|0,0:3|0:0,0:0:0:0:
173,181,43095,2,0,P|176:144|159:112,1,67.4999979400635,4|0,0:3|0:0,0:0:0:0:
89,152,43395,2,0,L|78:235,1,67.4999979400635,8|0,0:0|0:0,0:0:0:0:
146,260,43695,2,0,L|166:354,1,67.4999979400635,0|0,0:0|0:0,0:0:0:0:
239,288,43995,6,0,P|282:274|319:282,1,67.4999979400635,4|0,0:3|0:0,0:0:0:0:
381,235,44295,2,0,P|354:204|350:157,1,67.4999979400635,2|0,0:0|0:0,0:0:0:0:
404,110,44595,2,0,P|431:141|435:188,1,67.4999979400635,2|0,0:0|0:0,0:0:0:0:
381,235,44895,2,0,B|302:223|308:270|218:266,1,134.999995880127,2|2,0:0|0:0,0:0:0:0:
164,265,45345,1,2,0:0:0:0:
192,182,45495,2,0,L|200:106,1,67.4999979400635,4|0,0:3|0:0,0:0:0:0:
125,66,45795,2,0,L|117:142,1,67.4999979400635,10|0,0:0|0:0,0:0:0:0:
57,198,46095,1,0,0:0:0:0:
338,210,46395,6,0,P|289:240|263:250,1,67.4999979400635,2|2,0:0|0:0,0:0:0:0:
203,201,46695,2,0,P|178:156|178:98,1,67.4999979400635,2|2,0:0|0:0,0:0:0:0:
209,59,46995,1,10,0:0:0:0:
271,121,47145,2,0,P|320:125|369:95,2,67.4999979400635,2|2|2,0:0|0:0|0:0,0:0:0:0:
209,59,47595,6,0,P|162:55|123:76,1,67.4999979400635,2|2,0:0|0:0,0:0:0:0:
81,124,47895,2,0,P|70:160|77:205,1,67.4999979400635,2|2,0:0|0:0,0:0:0:0:
149,231,48195,2,0,P|196:235|235:214,1,67.4999979400635,10|2,0:0|0:0,0:0:0:0:
295,193,48495,1,2,0:0:0:0:
81,124,48795,5,4,0:0:0:0:
84,126,49095,1,0,0:0:0:0:
90,215,49395,1,0,0:0:0:0:
168,259,49695,1,0,0:0:0:0:
168,259,49845,2,0,P|208:260|291:235,1,112.5,4|4,0:3|0:3,0:0:0:0:
277,241,50595,1,8,0:0:0:0:
58,314,50895,1,0,0:0:0:0:
58,314,51195,6,0,L|49:224,1,67.4999979400635,4|0,0:3|0:0,0:0:0:0:
124,198,51495,2,0,L|133:288,1,67.4999979400635,0|0,0:0|0:0,0:0:0:0:
165,345,51795,2,0,B|234:322|236:369|315:335,1,134.999995880127,8|0,0:0|0:0,0:0:0:0:
267,259,52245,2,0,P|251:191|271:147,1,67.4999979400635,4|0,0:3|0:0,0:0:0:0:
314,134,52545,1,0,0:0:0:0:
398,158,52695,2,0,P|414:226|394:270,1,67.4999979400635,4|0,0:3|0:0,0:0:0:0:
360,291,52995,1,8,0:0:0:0:
265,156,53295,1,0,0:0:0:0:
265,156,53595,6,0,P|215:167|165:147,1,67.4999979400635,2|2,0:0|0:0,0:0:0:0:
124,210,53895,2,0,P|172:251|215:254,1,67.4999979400635,2|2,0:0|0:0,0:0:0:0:
200,336,54195,2,0,P|132:352|94:345,1,67.4999979400635,10|2,0:0|0:0,0:0:0:0:
65,297,54495,2,0,P|89:206|84:127,1,134.999995880127,2|2,0:0|0:0,0:0:0:0:
25,104,54945,2,0,P|19:64|24:16,2,67.4999979400635,2|2|2,0:0|0:0|0:0,0:0:0:0:
89,165,55395,2,0,L|172:155,1,67.4999979400635,2|2,0:0|0:0,0:0:0:0:
217,93,55695,2,0,P|255:158|274:237,1,134.999995880127,2|2,0:0|0:0,0:0:0:0:
211,271,56145,5,2,0:0:0:0:
284,323,56295,2,0,L|363:339,1,67.4999979400635,2|2,0:0|0:0,0:0:0:0:
385,251,56595,2,0,P|322:229|246:167,1,134.999995880127,2|2,0:0|0:0,0:0:0:0:
199,109,57045,1,2,0:0:0:0:
134,171,57195,2,0,L|149:247,1,67.4999979400635,2|2,0:0|0:0,0:0:0:0:
244,249,57495,2,0,L|256:175,1,67.4999979400635,2|2,0:0|0:0,0:0:0:0:
327,120,57795,2,0,P|345:154|391:207,1,67.4999979400635,10|2,0:0|0:0,0:0:0:0:
424,124,58095,1,2,0:0:0:0:
204,40,58395,5,4,0:0:0:0:
204,40,58695,2,0,P|200:92|204:136,1,67.4999979400635,0|0,0:0|0:0,0:0:0:0:
184,188,58995,2,0,P|142:220|40:207,2,134.999995880127,8|4|0,0:0|0:0|0:0,0:0:0:0:
244,128,59745,1,0,0:0:0:0:
322,171,59895,1,8,0:0:0:0:
214,315,60195,1,8,0:0:0:0:
117,163,60495,2,0,L|110:76,1,67.4999979400635,0|0,0:0|0:0,0:0:0:0:
198,81,60795,6,0,P|239:87|291:69,1,67.4999979400635,4|0,0:3|0:0,0:0:0:0:
358,111,61095,2,0,P|333:149|321:211,1,67.4999979400635,0|0,0:0|0:0,0:0:0:0:
371,244,61395,2,0,P|396:206|408:144,1,67.4999979400635,8|0,0:0|0:0,0:0:0:0:
358,111,61695,2,0,L|267:106,1,67.4999979400635,0|0,0:0|0:0,0:0:0:0:
269,192,61995,2,0,P|346:197|415:181,1,134.999995880127,0|4,0:0|0:3,0:0:0:0:
450,259,62445,1,0,0:0:0:0:
450,259,62595,2,0,L|429:348,1,67.4999979400635,8|0,0:0|0:0,0:0:0:0:
348,341,62895,1,0,0:0:0:0:
183,260,63195,6,0,P|222:247|277:251,1,67.4999979400635,4|0,0:3|0:0,0:0:0:0:
216,163,63495,2,0,P|157:170|112:160,1,67.4999979400635,0|0,0:0|0:0,0:0:0:0:
62,151,63795,1,8,0:0:0:0:
201,44,64095,1,0,0:0:0:0:
170,216,64395,2,0,P|147:155|132:67,1,134.999995880127,0|4,0:0|0:3,0:0:0:0:
221,93,64845,1,0,0:0:0:0:
284,157,64995,2,0,P|326:142|374:139,1,67.4999979400635,8|0,0:0|0:0,0:0:0:0:
421,187,65295,1,0,0:0:0:0:
159,276,65595,6,0,P|140:222|180:130,1,134.999995880127,4|0,0:3|0:0,0:0:0:0:
238,107,66045,1,0,0:0:0:0:
238,107,66195,2,0,P|265:145|288:186,1,67.4999979400635,8|0,0:0|0:0,0:0:0:0:
275,251,66495,1,0,0:0:0:0:
70,178,66795,6,0,P|58:105|125:48,1,134.999995880127,0|4,0:0|0:3,0:0:0:0:
155,121,67245,1,0,0:0:0:0:
148,208,67395,2,0,P|140:250|153:300,1,67.4999979400635,8|0,0:0|0:0,0:0:0:0:
223,238,67695,2,0,P|231:196|218:146,1,67.4999979400635,0|0,0:0|0:0,0:0:0:0:
155,121,67995,5,4,0:0:0:0:
78,265,68295,1,0,0:0:0:0:
143,323,68445,1,0,0:0:0:0:
222,285,68595,2,0,P|263:273|386:264,2,134.999995880127,8|4|0,0:0|0:0|0:0,0:0:0:0:
153,229,69345,1,0,0:0:0:0:
165,143,69495,2,0,P|168:96|153:50,1,67.4999979400635,8|0,0:0|0:0,0:0:0:0:
89,29,69795,1,8,0:0:0:0:
78,192,70095,1,0,0:0:0:0:
78,192,70395,6,0,L|163:180,1,67.4999979400635,4|0,0:3|0:0,0:0:0:0:
217,233,70695,2,0,P|172:263|145:295,1,67.4999979400635,0|0,0:0|0:0,0:0:0:0:
229,329,70995,2,0,P|279:309|382:301,1,134.999995880127,8|0,0:0|0:0,0:0:0:0:
435,256,71445,1,4,0:3:0:0:
377,189,71595,2,0,L|286:202,1,67.4999979400635,0|0,0:0|0:0,0:0:0:0:
327,112,71895,2,0,L|418:99,1,67.4999979400635,4|0,0:3|0:0,0:0:0:0:
468,150,72195,2,0,P|430:188|318:201,1,134.999995880127,8|0,0:0|0:0,0:0:0:0:
268,183,72645,1,0,0:0:0:0:
186,150,72795,6,0,P|126:151|89:168,1,67.4999979400635,4|0,0:3|0:0,0:0:0:0:
35,177,73095,2,0,L|47:266,1,67.4999979400635,0|0,0:0|0:0,0:0:0:0:
99,312,73395,1,8,0:0:0:0:
146,142,73695,1,0,0:0:0:0:
212,304,73995,2,0,P|220:255|238:135,1,134.999995880127,0|4,0:0|0:3,0:0:0:0:
291,105,74445,1,0,0:0:0:0:
328,184,74595,2,0,P|320:227|332:288,1,67.4999979400635,8|0,0:0|0:0,0:0:0:0:
372,330,74895,1,0,0:0:0:0:
406,153,75195,6,0,P|332:142|251:143,1,134.999995880127,4|0,0:3|0:0,0:0:0:0:
172,172,75645,1,0,0:0:0:0:
223,243,75795,2,0,P|252:268|254:317,1,67.4999979400635,8|0,0:0|0:0,0:0:0:0:
198,359,76095,1,0,0:0:0:0:
172,172,76395,6,0,P|111:173|59:252,1,134.999995880127,0|4,0:0|0:3,0:0:0:0:
88,308,76845,1,0,0:0:0:0:
170,277,76995,2,0,L|260:258,1,67.4999979400635,8|0,0:0|0:0,0:0:0:0:
314,302,77295,1,0,0:0:0:0:
256,56,77595,5,4,0:1:0:0:
256,192,87195,5,0,0:0:0:0:
180,84,87495,2,0,L|176:140,1,56.2500021457673,8|0,0:0|0:0,0:0:0:0:
332,300,88095,2,0,L|336:244,1,56.2500021457673,8|0,0:0|0:0,0:0:0:0:
176,244,88695,2,0,L|180:300,1,56.2500021457673,8|0,0:0|0:0,0:0:0:0:
336,140,89295,2,0,L|332:84,1,56.2500021457673,8|0,0:0|0:0,0:0:0:0:
200,120,89895,6,0,P|176:128|136:140,1,56.2500021457673,8|0,0:0|0:0,0:0:0:0:
312,264,90495,2,0,P|336:256|376:244,1,56.2500021457673,8|0,0:0|0:0,0:0:0:0:
320,76,91095,2,0,P|312:112|308:136,1,56.2500021457673,8|0,0:0|0:0,0:0:0:0:
192,308,91695,2,0,P|200:272|204:248,1,56.2500021457673,8|0,0:0|0:0,0:0:0:0:
256,192,92295,5,8,0:0:0:0:
124,88,92895,1,8,0:0:0:0:
388,296,93495,1,8,0:0:0:0:
344,132,94095,1,8,0:0:0:0:
168,252,94695,1,8,0:0:0:0:
256,44,95295,1,8,0:0:0:0:
256,340,95895,1,8,0:0:0:0:
256,192,96495,1,10,0:0:0:0:
256,192,96795,1,4,0:3:0:0:
144,204,97095,6,0,P|136:172|136:152,1,37.5,8|0,0:0|0:0,0:0:0:0:
184,108,97395,2,0,P|192:80|200:64,1,37.5,8|0,0:0|0:0,0:0:0:0:
272,76,97695,2,0,P|300:60|316:56,1,37.5,8|0,0:0|0:0,0:0:0:0:
372,92,97995,2,0,P|404:96|416:100,1,37.5,8|0,0:0|0:0,0:0:0:0:
440,168,98295,2,0,P|452:184|456:204,1,37.5,8|0,0:0|0:0,0:0:0:0:
400,252,98595,2,0,P|384:276|376:284,1,37.5,8|0,0:0|0:0,0:0:0:0:
304,268,98895,2,0,P|272:272|256:272,1,37.5,8|0,0:0|0:0,0:0:0:0:
220,212,99195,1,8,0:3:0:0:
136,88,99495,6,0,P|120:104|104:120,1,37.5,8|8,0:0|0:3,0:0:0:0:
88,232,99795,2,0,P|80:212|80:192,1,37.5,0|8,0:0|0:0,0:0:0:0:
188,184,100095,2,0,P|168:176|148:176,1,37.5,8|0,0:0|0:0,0:0:0:0:
152,252,100395,2,0,P|188:264|304:268,2,150,8|8|12,0:0|0:0|0:3,0:0:0:0:
120,104,101895,5,8,0:0:0:0:
256,164,102195,1,8,0:0:0:0:
392,104,102495,1,8,0:0:0:0:
256,44,102795,2,0,L|256:124,1,75,8|8,0:0|0:0,0:0:0:0:
256,192,103245,2,0,L|256:240,2,37.5,0|8|0,0:0|0:0|0:0,0:0:0:0:
256,119,103695,1,8,0:0:0:0:
132,308,103995,6,0,P|184:328|256:332,2,112.5,12|4|8,0:3|0:3|0:0,0:0:0:0:
76,168,105195,1,8,0:0:0:0:
216,220,105495,2,0,L|264:216,1,37.5,12|8,0:3|0:0,0:0:0:0:
316,176,105795,1,8,0:0:0:0:
456,232,106095,1,8,0:0:0:0:
444,84,106395,5,12,0:3:0:0:
304,36,106695,1,8,0:0:0:0:
164,92,106995,2,8,L|120:88,2,37.5,8|8|8,0:0|0:0|0:0,0:0:0:0:
220,232,107595,1,8,0:0:0:0:
76,280,107895,2,8,L|64:240,2,37.5,8|8|8,0:0|0:0|0:0,0:0:0:0:
212,340,108495,1,8,0:0:0:0:
292,212,108795,5,12,0:3:0:0:
152,164,109095,2,0,L|136:128,1,37.5,0|12,0:0|0:3,0:0:0:0:
196,84,109395,2,0,L|228:104,1,37.5,8|0,0:0|0:0,0:0:0:0:
296,76,109695,2,0,L|296:28,1,37.5,8|0,0:0|0:0,0:0:0:0:
364,124,109995,2,0,L|348:280,2,150,8|8|4,0:0|0:0|0:3,0:0:0:0:
440,116,111345,1,0,0:0:0:0:
472,184,111495,6,8,L|464:232,1,37.5,8|4,0:0|0:3,0:0:0:0:
405,265,111795,2,8,L|397:217,1,37.5,8|0,0:0|0:0,0:0:0:0:
325,213,112095,2,8,L|317:261,1,37.5,8|0,0:0|0:0,0:0:0:0:
249,279,112395,2,8,L|241:231,1,37.5,8|0,0:0|0:0,0:0:0:0:
171,217,112695,2,8,L|163:265,1,37.5,12|0,0:3|0:0,0:0:0:0:
137,323,112995,2,8,L|143:340,7,18.75,0|0|0|0|8|8|8|8,0:0|0:0|0:0|0:0|0:0|0:0|0:0|0:0,0:0:0:0:
84,350,113595,6,2,P|64:361|43:364,2,37.5,4|0|0,0:3|0:0|0:0,0:0:0:0:
137,297,114045,1,0,0:0:0:0:
156,224,114195,2,2,P|196:192|232:180,1,75,0|0,0:0|0:0,0:0:0:0:
287,211,114645,1,0,0:0:0:0:
358,188,114795,2,2,P|353:171|350:148,1,37.5,0|0,0:0|0:0,0:0:0:0:
422,129,115095,2,2,P|424:110|429:92,1,37.5,0|0,0:0|0:0,0:0:0:0:
368,48,115395,2,2,P|316:28|288:24,1,75,0|2,0:0|0:0,0:0:0:0:
104,57,115995,6,0,P|57:119|120:205,1,142.49999619484,4|0,1:0|0:0,0:0:0:0:
139,230,116445,1,4,0:3:0:0:
219,200,116595,2,0,P|263:180|298:183,1,71.2499980974198,8|0,0:0|0:0,0:0:0:0:
346,240,116895,2,0,P|371:165|311:100,1,142.49999619484,4|0,0:3|0:0,0:0:0:0:
254,110,117345,1,0,0:0:0:0:
176,146,117495,2,0,P|170:110|175:75,1,71.2499980974198,4|0,0:3|0:0,0:0:0:0:
254,110,117795,2,0,P|259:145|254:180,1,71.2499980974198,8|0,0:0|0:0,0:0:0:0:
193,239,118095,2,0,B|121:214|116:257|14:224,1,142.49999619484,0|4,0:0|0:3,0:0:0:0:
46,319,118545,5,0,0:0:0:0:
122,356,118695,2,0,L|214:344,1,71.2499980974198,0|4,0:0|0:3,0:0:0:0:
275,324,118995,2,0,P|288:291|282:242,1,71.2499980974198,8|0,0:0|0:0,0:0:0:0:
248,178,119295,2,0,P|235:145|241:96,1,71.2499980974198,4|0,0:3|0:0,0:0:0:0:
318,132,119595,2,0,P|389:146|459:131,2,142.49999619484,0|4|8,0:0|0:3|0:0,0:0:0:0:
155,78,120495,1,0,0:0:0:0:
155,78,120795,6,0,P|171:117|167:162,1,71.2499980974198,4|0,0:3|0:0,0:0:0:0:
122,216,121095,2,0,P|75:234|42:228,1,71.2499980974198,0|4,0:0|0:3,0:0:0:0:
76,149,121395,2,0,P|156:113|217:117,1,142.49999619484,8|4,0:0|0:3,0:0:0:0:
291,139,121845,1,0,0:0:0:0:
347,203,121995,2,0,P|372:172|389:136,1,71.2499980974198,0|0,0:0|0:0,0:0:0:0:
370,282,122295,2,0,P|332:312|308:314,1,71.2499980974198,4|0,0:3|0:0,0:0:0:0:
224,314,122595,1,8,0:0:0:0:
120,178,122895,1,4,0:3:0:0:
360,192,123195,6,0,P|372:232|380:276,2,71.2499980974198,2|2|2,0:0|0:0|0:0,0:0:0:0:
281,157,123645,1,2,0:0:0:0:
200,129,123795,2,0,P|256:69|344:85,1,142.49999619484,10|2,0:0|0:0,0:0:0:0:
281,157,124245,1,2,0:0:0:0:
212,208,124395,2,0,P|172:204|132:160,2,71.2499980974198,2|2|2,0:0|0:0|0:0,0:0:0:0:
280,157,124845,1,2,0:0:0:0:
352,108,124995,2,0,B|416:120|420:80|500:104,1,142.49999619484,10|2,0:0|0:0,0:0:0:0:
472,184,125445,1,2,0:0:0:0:
436,260,125595,6,0,P|360:276|288:240,1,142.49999619484,4|0,1:0|0:0,0:0:0:0:
268,172,126045,1,4,0:3:0:0:
204,232,126195,2,0,P|152:248|116:252,1,71.2499980974198,8|0,0:0|0:0,0:0:0:0:
52,228,126495,2,0,B|72:148|24:148|72:80,1,142.49999619484,4|0,0:3|0:0,0:0:0:0:
152,96,126945,1,0,0:0:0:0:
208,160,127095,2,0,P|272:152|312:148,1,71.2499980974198,4|0,0:3|0:0,0:0:0:0:
300,68,127395,2,0,P|252:60|208:52,1,71.2499980974198,8|0,0:0|0:0,0:0:0:0:
152,96,127695,1,4,0:3:0:0:
216,252,127995,6,0,P|140:292|72:268,1,142.49999619484,4|0,0:3|0:0,0:0:0:0:
48,204,128445,1,4,0:3:0:0:
104,140,128595,2,0,P|148:144|204:136,1,71.2499980974198,8|0,0:0|0:0,0:0:0:0:
248,100,128895,1,4,0:3:0:0:
280,180,129045,1,0,0:0:0:0:
328,252,129195,2,0,P|396:280|476:248,1,142.49999619484,0|4,0:0|0:3,0:0:0:0:
460,176,129645,1,0,0:0:0:0:
376,176,129795,2,0,L|396:344,1,142.49999619484,10|2,0:0|0:0,0:0:0:0:
252,220,130395,6,0,L|267:108,1,71.2499980974198,4|0,0:3|0:0,0:0:0:0:
188,104,130695,1,0,0:0:0:0:
128,168,130845,1,4,0:3:0:0:
152,252,130995,2,0,P|200:236|260:232,1,71.2499980974198,8|0,0:0|0:0,0:0:0:0:
276,168,131295,2,0,P|232:152|196:128,1,71.2499980974198,4|0,0:3|0:0,0:0:0:0:
272,80,131595,2,0,P|356:56|428:48,1,142.49999619484,0|4,0:0|0:3,0:0:0:0:
432,132,132045,1,0,0:0:0:0:
396,208,132195,2,0,P|384:256|392:296,1,71.2499980974198,8|0,0:0|0:0,0:0:0:0:
472,268,132495,2,0,P|484:220|476:180,1,71.2499980974198,0|0,0:0|0:0,0:0:0:0:
432,132,132795,6,0,L|424:36,2,71.2499980974198,2|2|2,0:0|0:0|0:0,0:0:0:0:
360,184,133245,1,2,0:0:0:0:
292,132,133395,2,0,P|208:132|160:200,1,142.49999619484,10|2,0:0|0:0,0:0:0:0:
244,212,133845,1,2,0:0:0:0:
172,272,133995,2,0,P|124:272|92:252,2,71.2499980974198,2|2|2,0:0|0:0|0:0,0:0:0:0:
244,212,134445,1,2,0:0:0:0:
208,128,134595,2,0,L|36:148,1,142.49999619484,10|2,0:0|0:0,0:0:0:0:
28,220,135045,1,2,0:0:0:0:
84,284,135195,6,0,P|164:268|236:288,1,142.49999619484,4|0,1:0|0:0,0:0:0:0:
296,324,135645,1,4,0:3:0:0:
368,276,135795,2,0,L|356:192,1,71.2499980974198,8|0,0:0|0:0,0:0:0:0:
428,156,136095,2,0,P|452:188|452:236,1,71.2499980974198,4|0,0:3|0:0,0:0:0:0:
452,304,136395,1,0,0:0:0:0:
368,276,136545,1,0,0:0:0:0:
296,324,136695,2,0,P|256:340|196:336,1,71.2499980974198,4|0,0:3|0:0,0:0:0:0:
192,264,136995,2,0,L|204:100,1,142.49999619484,8|0,0:0|0:0,0:0:0:0:
32,120,137595,6,0,P|24:168|28:208,1,71.2499980974198,4|0,0:3|0:0,0:0:0:0:
60,268,137895,1,0,0:0:0:0:
140,240,138045,1,4,0:3:0:0:
199,300,138195,2,0,P|247:312|283:296,1,71.2499980974198,8|0,0:0|0:0,0:0:0:0:
312,232,138495,2,0,P|264:220|228:236,1,71.2499980974198,4|0,0:3|0:0,0:0:0:0:
266,306,138795,1,0,0:0:0:0:
352,312,138945,1,0,0:0:0:0:
396,236,139095,2,0,P|412:184|352:88,2,142.49999619484,4|8|2,0:3|0:0|0:0,0:0:0:0:
312,220,139845,1,2,0:0:0:0:
280,300,139995,6,0,P|200:332|184:332,1,71.2499980974198,4|0,0:3|0:0,0:0:0:0:
176,256,140295,2,0,P|200:208|240:172,1,71.2499980974198,0|4,0:0|0:3,0:0:0:0:
172,120,140595,2,0,P|124:132|72:132,1,71.2499980974198,8|0,0:0|0:0,0:0:0:0:
56,60,140895,1,4,0:3:0:0:
24,140,141045,1,0,0:0:0:0:
72,216,141195,2,0,P|104:252|124:296,1,71.2499980974198,0|0,0:0|0:0,0:0:0:0:
108,356,141495,1,4,0:3:0:0:
46,297,141645,1,0,0:0:0:0:
72,216,141795,2,0,P|92:160|92:120,1,71.2499980974198,8|0,0:0|0:0,0:0:0:0:
104,64,142095,1,0,0:0:0:0:
264,188,142395,6,0,P|320:176|356:164,2,71.2499980974198,2|2|2,0:0|0:0|0:0,0:0:0:0:
212,256,142845,1,2,0:0:0:0:
264,324,142995,2,0,P|368:320|428:316,1,142.49999619484,10|2,0:0|0:0,0:0:0:0:
452,244,143445,1,2,0:0:0:0:
408,172,143595,2,0,P|420:128|416:88,2,71.2499980974198,2|2|2,0:0|0:0|0:0,0:0:0:0:
328,200,144045,1,2,0:0:0:0:
272,136,144195,2,0,P|248:172|288:276,1,142.49999619484,10|2,0:0|0:0,0:0:0:0:
328,200,144645,1,2,0:0:0:0:
356,120,144795,6,0,P|312:56|228:60,1,142.49999619484,4|0,1:0|0:0,0:0:0:0:
172,84,145245,1,4,0:3:0:0:
236,140,145395,2,0,P|248:184|248:220,1,71.2499980974198,8|0,0:0|0:0,0:0:0:0:
164,192,145695,2,0,B|92:180|96:220|8:204,1,142.49999619484,4|0,0:3|0:0,0:0:0:0:
24,292,146145,1,0,0:0:0:0:
108,284,146295,2,0,P|92:340|44:352,1,71.2499980974198,4|0,0:3|0:0,0:0:0:0:
24,292,146595,2,0,P|4:248|16:200,1,71.2499980974198,8|0,0:0|0:0,0:0:0:0:
32,144,146895,1,0,0:0:0:0:
188,76,147195,6,0,P|216:144|216:232,1,142.49999619484,4|0,0:3|0:0,0:0:0:0:
188,292,147645,1,4,0:3:0:0:
268,320,147795,2,0,L|352:284,1,71.2499980974198,8|0,0:0|0:0,0:0:0:0:
348,208,148095,2,0,L|436:224,1,71.2499980974198,4|0,0:3|0:0,0:0:0:0:
492,180,148395,2,0,P|504:92|512:20,2,142.49999619484,0|4|10,0:0|0:3|0:0,0:0:0:0:
436,244,149145,1,2,0:0:0:0:
464,324,149295,1,4,2:3:0:0:
292,336,149595,6,0,P|276:284|296:244,1,71.2499980974198,4|0,0:3|0:0,0:0:0:0:
324,196,149895,2,0,P|280:184|228:200,1,71.2499980974198,0|4,0:0|0:3,0:0:0:0:
184,236,150195,1,8,0:0:0:0:
208,68,150495,1,4,0:3:0:0:
324,196,150795,2,0,P|376:200|420:172,1,71.2499980974198,0|0,0:3|0:0,0:0:0:0:
440,264,151095,2,0,P|404:312|400:348,1,71.2499980974198,4|0,0:3|0:0,0:0:0:0:
316,324,151395,2,0,P|300:284|260:264,1,71.2499980974198,8|0,0:0|0:0,0:0:0:0:
232,341,151695,1,0,0:0:0:0:
260,181,151995,1,4,1:0:0:0:
256,192,152145,12,0,153945,0:0:0:0:
420,56,154395,6,0,P|416:116|404:212,1,134.999995880127,4|0,0:3|0:0,0:0:0:0:
328,188,154845,1,0,0:0:0:0:
328,188,154995,2,0,P|260:160|188:208,1,134.999995880127,8|0,0:0|0:0,0:0:0:0:
200,344,155595,1,0,0:0:0:0:
80,232,155895,2,0,L|68:84,2,134.999995880127,4|8|0,0:3|0:0|0:0,0:0:0:0:
248,256,156795,6,0,P|276:204|292:120,1,134.999995880127,4|0,0:3|0:0,0:0:0:0:
228,80,157245,1,0,0:0:0:0:
148,100,157395,1,8,0:0:0:0:
116,264,157695,1,0,0:0:0:0:
280,304,157995,1,0,0:0:0:0:
412,200,158295,1,4,0:3:0:0:
296,76,158595,2,0,P|264:128|240:200,1,134.999995880127,8|0,0:0|0:0,0:0:0:0:
360,308,159195,6,0,P|328:328|288:332,1,67.4999979400635,4|0,0:3|0:0,0:0:0:0:
232,284,159495,2,0,P|216:248|216:204,1,67.4999979400635,0|0,0:0|0:0,0:0:0:0:
256,152,159795,2,0,P|292:136|336:136,1,67.4999979400635,8|0,0:0|0:0,0:0:0:0:
324,216,160095,2,0,P|288:232|244:232,1,67.4999979400635,0|0,0:0|0:0,0:0:0:0:
184,208,160395,2,0,P|144:204|92:220,1,67.4999979400635,0|0,0:0|0:0,0:0:0:0:
120,292,160695,2,0,P|160:296|212:280,1,67.4999979400635,4|0,0:3|0:0,0:0:0:0:
260,256,160995,2,0,P|276:188|232:128,1,134.999995880127,8|0,0:0|0:0,0:0:0:0:
92,80,161595,6,0,L|96:168,1,67.4999979400635,4|0,0:3|0:0,0:0:0:0:
176,136,161895,2,0,L|208:224,1,67.4999979400635,0|0,0:0|0:0,0:0:0:0:
272,236,162195,1,8,0:0:0:0:
268,156,162345,2,0,L|236:68,2,67.4999979400635,0|0|0,0:0|0:0|0:0,0:0:0:0:
348,176,162795,2,0,P|366:211|390:240,1,67.4999979400635,0|0,0:0|0:0,0:0:0:0:
452,272,163095,2,0,P|430:322|423:347,1,67.4999979400635,4|0,0:3|0:0,0:0:0:0:
344,332,163395,2,0,P|315:307|292:290,1,67.4999979400635,8|0,0:0|0:0,0:0:0:0:
228,236,163695,2,0,P|191:257|164:279,1,67.4999979400635,0|0,0:0|0:0,0:0:0:0:
108,324,163995,6,0,B|96:264|136:264|124:168,1,134.999995880127,4|0,1:0|0:0,0:0:0:0:
124,112,164445,1,0,0:0:0:0:
124,112,164595,2,0,P|176:90|264:104,2,134.999995880127,8|0|0,0:0|0:0|0:0,0:0:0:0:
264,196,165495,1,4,0:3:0:0:
200,44,165795,2,0,L|188:188,1,134.999995880127,8|0,0:0|0:0,0:0:0:0:
312,340,166395,6,0,L|324:192,1,134.999995880127,4|0,0:3|0:0,0:0:0:0:
404,212,166845,1,0,0:0:0:0:
404,212,166995,2,0,P|440:196|460:160,1,67.4999979400635,8|0,0:0|0:0,0:0:0:0:
444,92,167295,2,0,P|372:72|300:116,2,134.999995880127,0|0|4,0:0|0:0|0:3,0:0:0:0:
324,204,168195,2,0,B|256:212|260:264|164:224,1,134.999995880127,8|0,0:0|0:0,0:0:0:0:
80,324,168795,6,0,P|68:296|68:248,1,67.4999979400635,4|0,0:3|0:0,0:0:0:0:
116,196,169095,2,0,P|136:160|132:112,1,67.4999979400635,0|0,0:0|0:0,0:0:0:0:
176,62,169395,2,0,P|260:98|360:78,1,134.999995880127,8|0,0:0|0:0,0:0:0:0:
339,169,169845,1,0,0:0:0:0:
273,217,169995,2,0,P|241:233|205:245,1,67.4999979400635,0|0,0:0|0:0,0:0:0:0:
130,233,170295,2,0,P|94:221|70:205,1,67.4999979400635,4|0,0:3|0:0,0:0:0:0:
47,126,170595,2,0,P|75:114|115:80,1,67.4999979400635,8|0,0:0|0:0,0:0:0:0:
158,31,170895,1,0,0:0:0:0:
172,172,171195,6,0,P|228:172|268:192,1,67.4999979400635,4|0,0:3|0:0,0:0:0:0:
312,208,171495,2,0,P|352:192|384:188,1,67.4999979400635,0|0,0:0|0:0,0:0:0:0:
412,120,171795,2,0,P|400:88|392:48,2,67.4999979400635,0|0|0,0:0|0:0|0:0,0:0:0:0:
460,188,172245,1,0,0:0:0:0:
448,272,172395,2,0,P|408:272|376:280,1,67.4999979400635,0|0,0:0|0:0,0:0:0:0:
312,308,172695,2,0,P|280:320|248:320,1,67.4999979400635,0|0,0:0|0:0,0:0:0:0:
168,332,172995,2,0,P|132:284|152:212,1,134.999995880127,0|0,0:0|0:0,0:0:0:0:
148,215,173595,1,4,0:3:0:0:
133,206,180795,6,0,P|121:158|105:118,2,84.3750032186509,0|0|0,0:0|0:0|0:0,0:0:0:0:
162,285,181995,1,0,0:0:0:0:
260,82,182295,1,4,0:3:0:0:
375,275,182595,1,8,0:0:0:0:
375,275,183195,6,0,L|289:289,2,67.4999979400635,4|0|0,0:3|0:0|0:0,0:0:0:0:
416,200,183645,1,2,0:0:0:0:
330,179,183795,2,0,P|269:174|222:186,1,67.4999979400635,8|0,0:0|0:0,0:0:0:0:
188,220,184095,2,0,P|200:279|215:373,2,134.999995880127,2|2|4,0:0|0:0|0:3,0:0:0:0:
104,68,184995,2,0,P|14:85|86:148,1,202.499993820191,10|0,0:0|0:0,0:0:0:0:
144,152,185595,6,0,P|162:186|180:233,1,67.4999979400635,4|0,0:3|0:0,0:0:0:0:
108,272,185895,1,0,0:0:0:0:
160,344,186045,1,2,0:0:0:0:
228,288,186195,2,0,P|270:272|322:264,1,67.4999979400635,8|0,0:0|0:0,0:0:0:0:
352,204,186495,2,0,P|382:247|343:340,2,134.999995880127,2|2|4,0:0|0:0|0:3,0:0:0:0:
36,248,187395,6,0,P|74:346|111:285,1,202.499993820191,10|0,0:0|0:0,0:0:0:0:
132,232,187995,2,0,L|118:154,1,67.4999979400635,4|0,0:3|0:0,0:0:0:0:
196,116,188295,2,0,L|197:36,1,67.4999979400635,0|2,0:0|0:0,0:0:0:0:
284,48,188595,2,0,L|285:123,1,67.4999979400635,8|0,0:0|0:0,0:0:0:0:
368,140,188895,2,0,L|355:214,1,67.4999979400635,2|0,0:0|0:0,0:0:0:0:
400,284,189195,2,0,P|338:289|305:269,1,67.4999979400635,0|2,0:0|0:0,0:0:0:0:
248,264,189495,2,0,P|211:256|175:264,2,67.4999979400635,4|2|8,0:3|0:0|0:0,0:0:0:0:
204,340,189945,1,0,0:0:0:0:
120,320,190095,2,0,P|99:242|144:197,1,134.999995880127,2|4,0:0|0:3,0:0:0:0:
204,156,190545,5,0,0:0:0:0:
280,200,190695,2,0,L|264:279,2,67.4999979400635,0|2|8,0:0|0:0|0:0,0:0:0:0:
328,128,191145,1,0,0:0:0:0:
260,72,191295,2,0,P|209:87|164:86,1,67.4999979400635,0|2,0:0|0:0,0:0:0:0:
132,140,191595,2,0,P|156:184|168:224,1,67.4999979400635,2|0,0:0|0:0,0:0:0:0:
144,280,191895,1,4,0:3:0:0:
64,292,192045,1,2,0:0:0:0:
104,364,192195,2,0,L|224:376,1,67.4999979400635,8|0,0:0|0:0,0:0:0:0:
244,336,192495,1,2,0:0:0:0:
244,336,192795,6,0,P|236:260|312:208,1,134.999995880127,4|2,0:1|0:0,0:0:0:0:
344,184,193245,1,4,0:3:0:0:
344,184,193395,2,0,P|382:169|436:173,1,67.4999979400635,8|0,0:0|0:0,0:0:0:0:
400,248,193695,2,0,P|362:263|308:259,1,67.4999979400635,2|0,0:0|0:0,0:0:0:0:
271,218,193995,2,0,P|259:173|264:136,1,67.4999979400635,2|0,0:0|0:0,0:0:0:0:
264,72,194295,1,4,0:3:0:0:
264,72,194595,2,0,P|195:138|122:50,1,202.499993820191,8|0,0:0|0:0,0:0:0:0:
68,24,195195,6,0,P|41:63|-5:159,1,134.999995880127,4|0,0:3|0:0,0:0:0:0:
40,212,195645,1,2,0:0:0:0:
40,212,195795,2,0,P|80:212|124:216,1,67.4999979400635,8|0,0:0|0:0,0:0:0:0:
188,200,196095,2,0,P|197:249|210:292,1,67.4999979400635,2|0,0:0|0:0,0:0:0:0:
276,296,196395,2,0,P|323:289|354:273,1,67.4999979400635,2|0,0:0|0:0,0:0:0:0:
400,224,196695,1,4,0:3:0:0:
400,224,196995,6,0,B|265:180|286:273|149:218,1,202.499993820191,8|0,0:0|0:0,0:0:0:0:
164,164,197595,6,0,P|144:125|153:79,1,67.4999979400635,4|0,0:3|0:0,0:0:0:0:
232,96,197895,2,0,P|258:51|305:40,1,67.4999979400635,0|2,0:0|0:0,0:0:0:0:
336,104,198195,2,0,P|376:112|404:144,1,67.4999979400635,8|0,0:0|0:0,0:0:0:0:
340,196,198495,2,0,P|337:249|311:279,1,67.4999979400635,2|0,0:0|0:0,0:0:0:0:
244,240,198795,2,0,P|194:246|166:231,1,67.4999979400635,2|0,0:0|0:0,0:0:0:0:
180,152,199095,2,0,P|179:93|203:57,1,67.4999979400635,4|2,0:3|0:0,0:0:0:0:
252,136,199395,2,0,P|129:170|32:110,1,202.499993820191,8|0,0:0|0:0,0:0:0:0:
108,64,199995,6,0,L|112:170,1,67.4999979400635,4|0,0:3|0:0,0:0:0:0:
176,192,200295,2,0,P|150:245|152:284,1,67.4999979400635,0|2,0:0|0:0,0:0:0:0:
237,263,200595,1,8,0:0:0:0:
324,244,200745,2,0,P|375:237|422:260,2,67.4999979400635,0|2|0,0:0|0:0|0:0,0:0:0:0:
296,328,201195,6,0,P|252:353|199:347,1,67.4999979400635,2|0,0:0|0:0,0:0:0:0:
177,289,201495,2,0,P|221:264|274:270,1,67.4999979400635,4|2,0:3|0:0,0:0:0:0:
324,244,201795,1,8,0:0:0:0:
404,280,201945,2,0,L|396:368,2,67.4999979400635,0|2|0,0:0|0:0|0:0,0:0:0:0:
420,192,202395,5,6,0:0:0:0:
236,4,202845,1,2,0:0:0:0:
179,259,203295,1,2,0:0:0:0:
179,259,203595,1,2,0:0:0:0:
48,225,203895,1,4,0:3:0:0:
48,225,204195,2,0,B|34:154|34:154|63:125|63:125|48:55,1,168.750006437302,8|0,0:0|0:0,0:0:0:0:
51,70,204795,6,0,P|119:80|154:74,1,75,4|0,0:1|0:0,0:0:0:0:
219,63,205095,2,0,P|222:106|250:147,1,75,0|2,0:0|0:0,0:0:0:0:
324,152,205395,2,0,P|321:109|293:68,1,75,8|0,0:0|0:0,0:0:0:0:
237,134,205695,2,0,P|189:154|149:150,1,75,2|0,0:0|0:0,0:0:0:0:
100,216,205995,2,0,P|172:204|256:228,1,150,2|4,0:0|0:3,0:0:0:0:
328,260,206445,1,2,0:0:0:0:
288,340,206595,2,0,P|212:360|124:332,1,150,8|0,0:0|0:0,0:0:0:0:
128,164,207195,6,0,L|220:160,1,75,4|0,0:3|0:0,0:0:0:0:
204,252,207495,2,0,L|112:256,1,75,0|2,0:0|0:0,0:0:0:0:
48,216,207795,2,0,P|33:157|46:121,1,75,8|0,0:0|0:0,0:0:0:0:
108,92,208095,2,0,L|200:90,1,75,2|0,0:0|0:0,0:0:0:0:
268,56,208395,2,0,P|309:66|360:46,1,75,2|0,0:0|0:0,0:0:0:0:
424,92,208695,2,0,P|396:132|392:161,1,75,4|2,0:3|0:0,0:0:0:0:
448,228,208995,2,0,P|378:248|308:148,1,150,8|2,0:0|0:0,0:0:0:0:
164,140,209595,6,0,P|150:188|122:214,1,75,4|0,0:3|0:0,0:0:0:0:
64,264,209895,1,0,0:0:0:0:
140,312,210045,2,0,P|186:302|222:303,1,75,2|8,0:0|0:0,0:0:0:0:
296,340,210345,1,0,0:0:0:0:
336,260,210495,2,0,P|328:252|313:213|325:161,1,75,2|0,0:0|0:0,0:0:0:0:
408,140,210795,2,0,P|425:189|408:229,1,75,2|0,0:0|0:0,0:0:0:0:
336,260,211095,1,4,0:3:0:0:
252,232,211245,2,0,L|158:236,1,75,2|8,0:0|0:0,0:0:0:0:
116,168,211545,2,0,L|41:171,2,75,0|2|0,0:0|0:0|0:0,0:0:0:0:
168,96,211995,6,0,P|242:69|312:104,1,150,4|0,0:1|0:0,0:0:0:0:
384,132,212445,1,4,0:3:0:0:
384,132,212595,2,0,L|366:217,1,75,8|0,0:0|0:0,0:0:0:0:
344,292,212895,2,0,P|272:268|180:312,2,150,2|2|4,0:0|0:0|0:3,0:0:0:0:
168,336,213795,6,0,B|130:228|201:227|142:97,1,225,8|0,0:0|0:0,0:0:0:0:
112,36,214395,1,4,0:3:0:0:
112,36,214695,6,0,L|198:33,1,75,0|4,0:0|0:3,0:0:0:0:
224,116,214995,2,0,L|140:116,1,75,8|0,0:0|0:0,0:0:0:0:
144,204,215295,2,0,P|197:218|247:201,1,75,2|0,0:0|0:0,0:0:0:0:
304,192,215595,2,0,P|304:277|251:317,1,150,2|4,0:0|0:3,0:0:0:0:
168,308,216045,1,2,0:0:0:0:
168,308,216195,2,0,P|81:289|27:324,2,150,8|2|4,0:0|0:0|0:3,0:0:0:0:
248,352,216945,1,0,0:0:0:0:
336,328,217095,6,0,P|351:286|346:250,1,75,0|4,0:0|0:3,0:0:0:0:
300,180,217395,2,0,P|258:161|208:173,1,75,8|0,0:0|0:0,0:0:0:0:
188,244,217695,2,0,P|230:263|280:251,1,75,2|0,0:0|0:0,0:0:0:0:
348,256,217995,2,0,P|380:238|417:239,2,75,2|0|4,0:0|0:0|0:3,0:0:0:0:
356,348,218445,1,2,0:0:0:0:
442,323,218595,2,0,L|456:188,1,75,8|0,0:0|0:0,0:0:0:0:
461,159,218895,1,2,0:0:0:0:
256,56,219195,6,0,P|213:69|183:71,1,75,4|0,0:3|0:0,0:0:0:0:
92,88,219495,1,0,0:0:0:0:
80,176,219645,2,0,P|36:192|-12:186,2,75,2|8|0,0:0|0:0|0:0,0:0:0:0:
168,152,220095,2,0,P|225:141|270:147,1,75,2|0,0:0|0:0,0:0:0:0:
288,220,220395,6,0,L|277:307,1,75,2|0,0:0|0:0,0:0:0:0:
200,336,220695,1,4,0:3:0:0:
144,264,220845,2,0,L|153:189,2,75,2|8|0,0:0|0:0|0:0,0:0:0:0:
57,287,221295,2,0,P|36:208|42:182,1,75,2|0,0:0|0:0,0:0:0:0:
32,126,221595,1,4,0:0:0:0:
