osu file format v14

[General]
AudioFilename: CloZee - Koto.mp3
AudioLeadIn: 0
PreviewTime: 115995
Countdown: 0
SampleSet: Soft
StackLeniency: 0.8
Mode: 0
LetterboxInBreaks: 0
WidescreenStoryboard: 1

[Editor]
Bookmarks: 44596,119296
DistanceSpacing: 1.3
BeatDivisor: 16
GridSize: 4
TimelineZoom: 3.299999

[Metadata]
Title:Koto
TitleUnicode:Koto
Artist:CloZee
ArtistUnicode:CloZee
Creator:galvenize
Version:Extra
Source:
Tags:japan electronic chill trap chill downtempo japanese mid-tempo tribal trap trip hop world bass Toulouse h4d0uk3n1 Paradogi CircleChu
BeatmapID:1098833
BeatmapSetID:517055

[Difficulty]
HPDrainRate:7
CircleSize:4
OverallDifficulty:8.5
ApproachRate:9.3
SliderMultiplier:1.8
SliderTickRate:1

[Events]
//Background and Video events
0,0,"koto2.jpg",0,0
//Break Periods
2,77795,86596
2,173795,180241
//Storyboard Layer 0 (Background)
//Storyboard Layer 1 (Fail)
//Storyboard Layer 2 (Pass)
//Storyboard Layer 3 (Foreground)
//Storyboard Layer 4 (Overlay)
//Storyboard Sound Samples

[TimingPoints]
795,600,4,2,0,40,1,0
19835,-50,4,2,1,60,0,0
39935,-100,4,2,0,60,0,0
41485,-50,4,2,1,60,0,0
46316,-50,4,2,0,40,0,0
48691,-100,4,2,0,40,0,0
49685,-100,4,2,0,60,0,0
51035,-50,4,2,1,60,0,0
53541,-50,4,2,0,40,0,0
58341,-50,4,2,1,40,0,0
96635,-100,4,2,1,30,0,0
115841,-50,4,2,1,60,0,0
115995,-50,4,2,1,60,0,1
151995,-50,4,2,0,60,0,0
154235,-66.6666666666667,4,2,1,60,0,0
180716,-100,4,2,1,60,0,0
182141,-50,4,2,1,60,0,0

[Colours]
Combo1 : 97,103,105
Combo2 : 163,7,31
Combo3 : 221,228,240

[HitObjects]
300,224,795,6,0,P|286:255|271:272,1,56.25,2|0,0:0|0:0,0:0:0:0:
218,330,1095,1,2,0:0:0:0:
122,281,1395,1,2,0:0:0:0:
416,248,1695,1,0,0:0:0:0:
308,260,1995,1,2,0:0:0:0:
460,144,2295,2,0,L|460:84,1,56.25
404,33,2595,1,2,0:0:0:0:
183,78,2895,1,2,0:0:0:0:
172,308,3195,5,2,0:0:0:0:
136,140,3495,2,0,P|104:184|84:232,1,90,0|2,0:0|0:0,0:0:0:0:
292,272,4095,2,0,P|336:304|384:324,1,90,0|2,0:0|0:0,0:0:0:0:
396,116,4695,2,0,P|348:96|304:64,1,90,0|2,0:0|0:0,0:0:0:0:
316,74,5295,1,0,0:0:0:0:
212,224,5595,6,0,L|246:273,1,56.25,2|0,0:0|0:0,0:0:0:0:
292,332,5895,1,2,0:0:0:0:
384,304,6195,1,2,0:0:0:0:
104,240,6495,1,0,0:0:0:0:
208,264,6795,1,2,0:0:0:0:
76,72,7095,2,0,L|108:112,1,45,2|0,0:0|0:0,0:0:0:0:
36,168,7395,1,2,0:0:0:0:
312,72,7695,1,2,0:0:0:0:
340,308,7995,5,2,0:0:0:0:
340,308,8295,2,0,P|288:304|232:312,1,90,0|2,0:0|0:0,0:0:0:0:
112,216,8895,2,0,P|108:152|112:116,1,90,0|2,0:0|0:0,0:0:0:0:
212,48,9495,2,0,L|264:68,1,45,2|0,0:0|0:0,0:0:0:0:
344,56,9795,2,0,L|392:76,1,45,2|0,0:0|0:0,0:0:0:0:
476,56,10095,1,2,0:0:0:0:
304,256,10395,6,0,P|275:229|262:215,1,56.25,2|0,0:0|0:0,0:0:0:0:
256,132,10695,1,2,0:0:0:0:
88,104,10995,2,0,P|40:160|28:196,1,90,2|0,0:0|0:0,0:0:0:0:
88,336,11595,1,0,0:0:0:0:
364,328,11895,2,0,L|360:272,1,45,2|0,0:0|0:0,0:0:0:0:
312,208,12195,1,2,0:0:0:0:
200,312,12495,1,2,0:0:0:0:
172,76,12795,5,0,0:0:0:0:
224,148,13095,1,0,0:0:0:0:
272,224,13395,2,0,P|248:272|240:308,1,90,2|0,0:0|0:0,0:0:0:0:
416,264,13995,2,0,P|392:204|388:188,1,45,2|0,0:0|0:0,0:0:0:0:
376,136,14295,2,0,P|376:92|388:40,2,90,2|2|2,0:0|0:0|0:0,0:0:0:0:
212,160,15195,6,0,P|246:138|260:120,1,56.25,2|0,0:0|0:0,0:0:0:0:
277,50,15495,1,2,0:0:0:0:
380,72,15795,1,2,0:0:0:0:
104,144,16095,1,0,0:0:0:0:
208,112,16395,1,2,0:0:0:0:
76,312,16695,2,0,L|108:272,1,45,2|0,0:0|0:0,0:0:0:0:
180,232,16995,1,2,0:0:0:0:
380,280,17295,1,2,0:0:0:0:
340,76,17595,5,2,0:0:0:0:
256,192,17745,12,0,18795,0:0:0:0:
176,168,19095,6,0,L|244:168,1,45,2|2,0:0|0:0,0:0:0:0:
408,144,19395,2,0,L|340:144,1,45,2|0,0:0|0:0,0:0:0:0:
224,168,19695,1,2,0:0:0:0:
224,168,19995,6,0,P|196:212|212:268,1,90,4|0,1:3|0:0,0:0:0:0:
304,216,20295,2,0,P|332:172|316:116,1,90
120,292,20595,2,0,P|212:344|272:300,1,180,8|0,0:0|0:0,0:0:0:0:
408,100,21045,2,0,P|316:48|256:92,1,180,4|0,0:3|0:0,0:0:0:0:
192,152,21495,2,0,L|76:136,1,90,4|0,0:3|0:0,0:0:0:0:
262,82,21795,2,0,P|292:184|220:240,1,180,8|0,0:0|0:0,0:0:0:0:
152,264,22245,1,0,0:0:0:0:
228,340,22395,6,0,L|324:352,1,90,4|0,0:3|0:0,0:0:0:0:
152,264,22695,2,0,B|108:260|108:260|64:296,1,90
248,231,22995,2,0,P|356:247|420:183,1,180,8|0,0:0|0:0,0:0:0:0:
224,124,23445,2,0,P|164:152|148:192,1,90,4|0,0:3|0:0,0:0:0:0:
192,272,23745,1,0,0:0:0:0:
68,224,23895,2,0,L|76:120,1,90,4|0,0:3|0:0,0:0:0:0:
202,92,24195,2,0,B|196:172|196:172|200:200|200:200|192:272,1,180,8|0,0:0|0:0,0:0:0:0:
108,308,24645,1,0,0:0:0:0:
188,188,24795,6,0,P|236:172|276:180,1,90,4|0,0:3|0:0,0:0:0:0:
376,208,25095,2,0,P|424:224|464:216,1,90
240,337,25395,2,0,B|220:246|220:246|272:216|280:153,1,180,8|0,0:0|0:0,0:0:0:0:
48,164,25845,2,0,B|96:144|124:108|124:108|152:152|200:172,1,180,4|0,0:3|0:0,0:0:0:0:
272,96,26295,2,0,B|224:76|224:76|200:16,1,90,4|0,0:3|0:0,0:0:0:0:
383,83,26595,2,0,P|343:175|247:163,1,180,8|0,0:0|0:0,0:0:0:0:
164,164,27045,1,0,0:0:0:0:
272,96,27195,6,0,P|300:52|284:0,1,90,4|0,0:3|0:0,0:0:0:0:
164,164,27495,2,0,L|155:272,1,90
364,280,27795,2,0,B|328:192|328:192|380:72,1,180,8|0,0:0|0:0,0:0:0:0:
164,164,28245,2,0,B|200:252|200:252|148:372,1,180,4|0,0:3|0:0,0:0:0:0:
20,272,28695,2,0,P|68:252|124:256,1,90,4|0,0:3|0:0,0:0:0:0:
352,292,28995,2,0,P|304:312|248:308,1,90,8|0,0:0|0:0,0:0:0:0:
207,219,29295,2,0,P|188:178|187:134,1,90
452,96,29595,6,0,P|405:143|353:147,1,90,4|0,1:1|0:0,0:0:0:0:
275,137,29895,2,0,P|211:129|155:149,1,90
80,304,30195,2,0,P|184:312|224:244,1,180,8|0,0:0|0:0,0:0:0:0:
116,64,30645,2,0,B|120:140|120:140|136:172|136:172|140:256,1,180,4|0,0:3|0:0,0:0:0:0:
204,88,31095,2,0,L|312:84,1,90,4|0,0:3|0:0,0:0:0:0:
464,156,31395,2,0,P|360:204|312:152,1,180,8|0,0:0|0:0,0:0:0:0:
388,84,31845,1,0,0:0:0:0:
468,156,31995,6,0,L|456:264,1,90,4|0,0:3|0:0,0:0:0:0:
309,253,32295,2,0,B|298:206|298:206|321:169,1,90
468,156,32595,2,0,L|452:344,1,180,8|0,0:0|0:0,0:0:0:0:
352,292,33045,2,0,P|256:284|204:356,1,180,4|0,0:3|0:0,0:0:0:0:
92,252,33495,2,0,L|100:148,1,90,4|0,0:3|0:0,0:0:0:0:
164,300,33795,2,0,P|68:332|8:256,1,180,8|0,0:0|0:0,0:0:0:0:
28,176,34245,1,0,0:0:0:0:
260,176,34395,6,0,P|276:128|256:80,1,90,4|0,0:3|0:0,0:0:0:0:
164,136,34695,2,0,P|148:184|168:232,1,90
260,176,34995,2,0,P|304:160|360:172,1,90,8|0,0:0|0:0,0:0:0:0:
464,308,35295,2,0,P|420:324|364:312,1,90,0|4,0:0|0:3,0:0:0:0:
292,252,35595,1,0,0:0:0:0:
396,228,35745,1,0,0:0:0:0:
500,204,35895,2,0,L|496:100,1,90,4|0,0:3|0:0,0:0:0:0:
320,102,36195,2,0,P|264:190|320:270,1,180,8|0,0:0|0:0,0:0:0:0:
384,312,36645,1,0,0:0:0:0:
384,312,36795,5,4,0:3:0:0:
288,340,36945,1,0,0:0:0:0:
208,284,37095,1,0,0:0:0:0:
228,188,37245,1,0,0:0:0:0:
320,152,37395,2,0,P|364:156|428:164,1,90,8|0,0:0|0:0,0:0:0:0:
140,224,37695,2,0,P|96:220|32:212,1,90,0|4,0:0|0:3,0:0:0:0:
0,144,37995,5,0,0:0:0:0:
100,132,38145,1,0,0:0:0:0:
148,220,38295,1,4,0:3:0:0:
50,214,38445,1,0,0:0:0:0:
68,312,38595,2,0,P|112:332|168:328,1,90,8|0,0:0|0:0,0:0:0:0:
185,112,38895,2,0,P|136:113|88:141,1,90
336,248,39195,5,4,0:3:0:0:
244,216,39495,1,2,0:0:0:0:
440,156,39795,1,2,0:0:0:0:
8,188,40095,5,2,0:0:0:0:
8,188,40245,2,0,P|38:226|60:272,1,90,4|0,0:3|0:0,0:0:0:0:
60,268,40695,1,4,0:3:0:0:
60,268,40995,2,0,P|124:228|200:220,1,135,10|0,0:0|0:0,0:0:0:0:
181,218,41595,6,0,P|243:239|291:239,1,90,4|0,0:3|0:0,0:0:0:0:
376,228,41895,2,0,P|440:196|460:168,1,90
352,40,42195,2,0,P|248:36|192:100,1,180,8|0,0:0|0:0,0:0:0:0:
48,296,42645,2,0,B|56:208|56:208|64:184|64:184|72:112,1,180,4|0,0:3|0:0,0:0:0:0:
248,272,43095,2,0,P|204:288|140:264,1,90,4|0,0:3|0:0,0:0:0:0:
384,92,43395,2,0,P|336:176|392:216,1,180,8|0,0:0|0:0,0:0:0:0:
380,304,43845,1,0,0:0:0:0:
380,304,43995,6,0,P|348:312|284:308,1,90,4|0,0:3|0:0,0:0:0:0:
132,80,44295,2,0,P|164:72|228:76,1,90,2|0,0:0|0:0,0:0:0:0:
422,222,44595,2,0,P|436:180|432:136,1,90,2|0,0:0|0:0,0:0:0:0:
128,192,44895,2,0,P|113:234|118:278,1,90,2|4,0:0|0:3,0:0:0:0:
308,232,45195,1,2,0:0:0:0:
292,124,45345,1,2,0:0:0:0:
220,204,45495,2,0,P|204:236|224:300,1,90,4|0,0:3|0:0,0:0:0:0:
292,124,45795,2,0,B|204:84|204:160|104:112,1,180,10|0,0:0|0:0,0:0:0:0:
36,80,46245,1,0,0:0:0:0:
36,80,46395,5,2,0:0:0:0:
52,168,46545,1,2,0:0:0:0:
140,192,46695,1,2,0:0:0:0:
208,132,46845,1,2,0:0:0:0:
116,116,46995,5,10,0:0:0:0:
184,56,47145,1,2,0:0:0:0:
272,72,47295,1,2,0:0:0:0:
296,160,47445,1,2,0:0:0:0:
208,132,47595,5,2,0:0:0:0:
140,192,47745,1,2,0:0:0:0:
148,276,47895,1,2,0:0:0:0:
228,316,48045,1,2,0:0:0:0:
220,228,48195,5,10,0:0:0:0:
68,232,48345,1,2,0:0:0:0:
148,276,48495,1,2,0:0:0:0:
8,296,48645,1,2,0:0:0:0:
140,188,48795,6,0,P|144:144|132:92,2,90,4|0|0,0:0|0:0|0:0,0:0:0:0:
144,192,49695,1,0,0:0:0:0:
144,192,49845,2,0,P|200:200|264:188,1,90,4|0,0:3|0:0,0:0:0:0:
404,124,50295,1,4,0:3:0:0:
404,124,50595,2,0,P|388:168|396:260,1,135,8|0,0:0|0:0,0:0:0:0:
394,254,51195,6,0,P|360:280|298:278,1,90,4|0,0:3|0:0,0:0:0:0:
216,236,51495,2,0,P|182:210|120:212,1,90
163,328,51795,2,0,P|263:336|319:268,1,180,8|0,0:0|0:0,0:0:0:0:
201,56,52245,2,0,P|208:141|216:236,1,180,4|0,0:3|0:0,0:0:0:0:
116,140,52695,2,0,B|76:120|76:120|12:128,1,90,4|0,0:3|0:0,0:0:0:0:
320,188,52995,2,0,B|360:208|360:208|424:200,1,90,8|0,0:0|0:0,0:0:0:0:
120,230,53295,2,0,L|116:135,1,90
92,320,53595,5,2,0:0:0:0:
180,324,53745,1,2,0:0:0:0:
208,236,53895,1,2,0:0:0:0:
120,230,54045,1,2,0:0:0:0:
164,152,54195,1,10,0:0:0:0:
256,152,54345,1,2,0:0:0:0:
232,64,54495,1,2,0:0:0:0:
144,64,54645,1,2,0:0:0:0:
103,145,54795,6,0,P|103:201|131:241,1,90,2|2,0:0|0:0,0:0:0:0:
365,179,55095,2,0,L|276:188,1,90,2|2,0:0|0:0,0:0:0:0:
352,328,55395,2,0,P|404:344|448:316,1,90,2|2,0:0|0:0,0:0:0:0:
385,91,55695,2,0,L|366:180,1,90,2|0,0:0|0:0,0:0:0:0:
160,288,55995,5,2,0:0:0:0:
180,200,56145,1,2,0:0:0:0:
196,112,56295,1,2,0:0:0:0:
276,156,56445,1,2,0:0:0:0:
180,200,56595,1,2,0:0:0:0:
112,140,56745,1,2,0:0:0:0:
132,52,56895,1,2,0:0:0:0:
220,32,57045,1,2,0:0:0:0:
196,112,57195,5,2,0:0:0:0:
268,168,57345,1,2,0:0:0:0:
248,256,57495,1,2,0:0:0:0:
164,288,57645,1,2,0:0:0:0:
176,200,57795,1,10,0:0:0:0:
92,232,57945,1,2,0:0:0:0:
80,320,58095,1,2,0:0:0:0:
152,372,58245,1,2,0:0:0:0:
396,172,58395,5,4,0:0:0:0:
405,180,58695,5,0,0:0:0:0:
405,180,58845,1,0,0:0:0:0:
405,180,58995,2,0,L|249:180,1,90,8|0,0:0|0:0,0:0:0:0:
56,140,59295,2,0,P|-16:216|76:240,1,180,4|0,0:0|0:0,0:0:0:0:
244,216,59745,1,0,0:0:0:0:
136,236,59895,1,8,0:0:0:0:
136,236,60195,1,8,0:0:0:0:
136,236,60495,2,0,L|240:224,1,90
304,304,60795,6,0,P|388:304|440:216,1,180,4|0,0:3|0:0,0:0:0:0:
432,124,61245,1,0,0:0:0:0:
244,116,61395,2,0,P|220:80|232:24,1,90,8|0,0:0|0:0,0:0:0:0:
328,64,61695,2,0,P|352:100|340:156,1,90
120,248,61995,2,0,L|140:140,1,90
432,132,62295,1,4,0:3:0:0:
432,132,62445,1,0,0:0:0:0:
432,132,62595,2,0,L|412:240,1,90,8|0,0:0|0:0,0:0:0:0:
272,140,62895,2,0,P|260:88|292:44,1,90
376,224,63195,6,0,P|320:268|264:256,1,90,4|0,0:3|0:0,0:0:0:0:
200,240,63495,1,0,0:0:0:0:
224,344,63645,1,0,0:0:0:0:
304,268,63795,2,0,L|292:160,1,90,8|0,0:0|0:0,0:0:0:0:
376,108,64095,2,0,P|412:120|476:104,1,90
244,72,64395,2,0,P|208:60|144:76,1,90
140,272,64695,1,4,0:3:0:0:
140,272,64845,1,0,0:0:0:0:
140,272,64995,2,0,L|128:160,1,90,8|0,0:0|0:0,0:0:0:0:
40,116,65295,2,0,P|12:156|20:208,1,90
229,258,65595,6,0,L|140:272,1,90,4|0,0:3|0:0,0:0:0:0:
64,352,65895,1,0,0:0:0:0:
64,352,66045,1,0,0:0:0:0:
12,260,66195,2,0,P|20:216|24:156,1,90,8|0,0:0|0:0,0:0:0:0:
128,48,66495,2,0,P|129:95|140:152,1,90
280,256,66795,2,0,P|272:304|236:236,1,180,0|4,0:0|0:3,0:0:0:0:
376,96,67245,1,0,0:0:0:0:
376,96,67395,2,0,P|440:80|476:84,1,90,8|0,0:0|0:0,0:0:0:0:
236,48,67695,2,0,P|172:32|136:36,1,90
16,56,67995,5,4,0:0:0:0:
496,328,68295,1,0,0:0:0:0:
244,96,68595,2,0,L|260:256,1,90,8|0,0:0|0:0,0:0:0:0:
272,320,68895,1,4,0:0:0:0:
464,40,69195,1,0,0:0:0:0:
48,344,69495,2,0,L|28:236,1,90,8|0,0:0|0:0,0:0:0:0:
60,68,69795,2,0,B|48:136|48:136|112:152|120:216,1,180,8|0,0:0|0:0,0:0:0:0:
119,211,70245,1,0,0:0:0:0:
168,344,70395,6,0,P|220:340|268:216,1,180,4|0,0:3|0:0,0:0:0:0:
252,116,70845,1,0,0:0:0:0:
500,168,70995,2,0,L|384:152,1,90,8|0,0:0|0:0,0:0:0:0:
340,52,71295,2,0,L|456:68,1,90,0|4,0:0|0:3,0:0:0:0:
192,64,71595,2,0,B|156:96|156:96|160:148,1,90
88,328,71895,1,4,0:3:0:0:
88,328,72045,1,0,0:0:0:0:
88,328,72195,2,0,L|75:239,1,90,8|0,0:0|0:0,0:0:0:0:
114,65,72495,2,0,P|150:98|158:146,1,90
256,216,72795,6,0,L|252:108,1,90,4|0,0:3|0:0,0:0:0:0:
76,140,73095,1,0,0:0:0:0:
72,248,73245,1,0,0:0:0:0:
252,124,73395,2,0,P|328:96|376:120,1,90,8|0,0:0|0:0,0:0:0:0:
440,240,73695,2,0,P|395:237|358:212,1,90
128,348,73995,2,0,L|256:336,1,90
252,124,74295,1,4,0:3:0:0:
272,228,74445,1,0,0:0:0:0:
144,124,74595,2,0,L|136:24,1,90,8|0,0:0|0:0,0:0:0:0:
36,192,74895,2,0,L|44:292,1,90
256,128,75195,6,0,P|324:116|268:168,1,180,4|0,0:3|0:0,0:0:0:0:
192,232,75645,1,0,0:0:0:0:
216,92,75795,2,0,P|268:60|340:72,1,90,8|0,0:0|0:0,0:0:0:0:
296,292,76095,2,0,P|244:324|172:312,1,90
480,156,76395,2,0,P|520:176|452:184,1,180,0|4,0:0|0:3,0:0:0:0:
388,100,76845,1,0,0:0:0:0:
116,76,76995,2,0,L|56:156,1,90,8|0,0:0|0:0,0:0:0:0:
328,236,77295,2,0,L|308:124,1,90
120,328,77595,5,4,0:1:0:0:
108,96,87195,5,0,0:0:0:0:
108,96,87495,1,8,0:0:0:0:
140,116,88095,1,8,0:0:0:0:
172,136,88695,1,8,0:0:0:0:
156,168,89295,1,8,0:0:0:0:
136,196,89895,1,8,0:0:0:0:
116,228,90495,1,8,0:0:0:0:
96,256,91095,1,8,0:0:0:0:
76,284,91695,1,8,0:0:0:0:
436,240,91995,5,0,0:0:0:0:
436,240,92295,1,8,0:0:0:0:
404,224,92895,1,8,0:0:0:0:
376,208,93495,1,8,0:0:0:0:
396,176,94095,1,8,0:0:0:0:
416,148,94695,1,8,0:0:0:0:
440,120,95295,1,8,0:0:0:0:
464,96,95895,1,8,0:0:0:0:
488,72,96495,1,10,0:0:0:0:
152,216,96795,5,4,0:3:0:0:
152,216,97095,2,0,L|144:132,1,45,8|0,0:0|0:0,0:0:0:0:
48,156,97395,2,0,L|40:72,1,45,8|0,0:0|0:0,0:0:0:0:
132,68,97695,2,0,L|124:4,1,45,8|0,0:0|0:0,0:0:0:0:
288,108,97995,2,0,L|224:124,1,45,8|0,0:0|0:0,0:0:0:0:
332,188,98295,2,0,L|396:172,1,45,8|0,0:0|0:0,0:0:0:0:
404,68,98595,2,0,L|392:12,1,45,8|0,0:0|0:0,0:0:0:0:
224,208,98895,2,0,L|236:264,1,45,8|0,0:0|0:0,0:0:0:0:
164,320,99195,6,0,L|140:192,1,90,8|8,0:3|0:0,0:0:0:0:
56,232,99645,2,0,L|32:104,1,90,8|8,0:3|0:0,0:0:0:0:
128,132,100095,2,0,L|184:136,1,45,8|0,0:0|0:0,0:0:0:0:
384,252,100395,2,0,L|328:248,1,45,8|0,0:0|0:0,0:0:0:0:
396,152,100695,2,0,L|408:96,1,45,12|8,0:3|0:0,0:0:0:0:
472,212,100995,2,0,L|484:372,1,135,8|0,0:0|0:0,0:0:0:0:
384,332,101595,6,0,L|336:328,1,45,12|0,0:3|0:0,0:0:0:0:
260,224,101895,2,0,L|316:232,1,45,8|0,0:0|0:0,0:0:0:0:
508,136,102195,2,0,L|460:140,1,45,8|0,0:0|0:0,0:0:0:0:
384,244,102495,2,0,L|440:236,1,45,8|0,0:0|0:0,0:0:0:0:
212,152,102795,6,0,B|164:180|176:240,1,90,8|8,0:0|0:0,0:0:0:0:
92,292,103245,1,0,0:0:0:0:
92,292,103395,2,0,L|88:236,1,45,8|0,0:0|0:0,0:0:0:0:
169,182,103695,2,0,L|174:227,1,45,8|0,0:0|0:0,0:0:0:0:
380,84,103995,6,0,P|340:124|268:120,1,90,12|8,0:3|0:0,0:0:0:0:
132,300,104445,2,0,P|172:260|244:264,1,90,4|0,0:3|0:0,0:0:0:0:
332,280,104895,2,0,L|328:228,1,45,8|0,0:0|0:0,0:0:0:0:
148,180,105195,2,0,L|208:176,1,45,8|0,0:0|0:0,0:0:0:0:
272,56,105495,1,12,0:3:0:0:
272,56,105645,1,8,0:0:0:0:
272,56,105795,2,0,L|216:60,1,45,8|0,0:0|0:0,0:0:0:0:
384,196,106095,2,0,L|444:192,1,45,8|0,0:0|0:0,0:0:0:0:
300,168,106395,6,0,B|280:224|320:256|320:256,2,90,12|8|8,0:3|0:0|0:0,0:0:0:0:
200,128,107145,1,8,0:0:0:0:
200,128,107295,2,0,L|128:112,1,45,8|0,0:0|0:0,0:0:0:0:
216,236,107595,2,0,L|200:292,1,45,8|0,0:0|0:0,0:0:0:0:
296,148,107895,1,8,0:0:0:0:
296,148,108045,1,8,0:0:0:0:
296,148,108195,2,0,L|312:92,1,45,8|0,0:0|0:0,0:0:0:0:
312,256,108495,2,0,L|384:272,1,45,8|0,0:0|0:0,0:0:0:0:
108,328,108795,6,0,L|96:208,1,90,12|0,0:3|0:0,0:0:0:0:
60,168,109245,1,12,0:3:0:0:
60,168,109395,2,0,P|74:143|96:128,1,45,8|0,0:0|0:0,0:0:0:0:
234,156,109695,2,0,P|220:181|198:196,1,45,8|0,0:0|0:0,0:0:0:0:
300,72,109995,2,0,B|324:55|360:48|360:48|400:72|435:70|480:44,2,180,8|8|4,0:0|0:0|0:3,0:0:0:0:
300,72,111345,1,0,0:0:0:0:
212,88,111495,5,8,0:0:0:0:
212,88,111645,1,4,0:3:0:0:
152,156,111795,1,8,0:0:0:0:
152,156,111945,1,0,0:0:0:0:
264,272,112095,2,0,L|256:220,1,45,8|0,0:0|0:0,0:0:0:0:
236,88,112395,1,8,0:0:0:0:
236,88,112545,1,0,0:0:0:0:
316,48,112695,1,12,0:3:0:0:
316,48,112845,1,0,0:0:0:0:
380,112,112995,6,0,L|368:136,3,22.5
412,212,113295,2,8,L|428:176,3,22.5
444,280,113595,5,4,0:3:0:0:
256,192,113745,12,0,115395,0:0:0:0:
256,36,115695,5,2,0:0:0:0:
256,36,115995,6,0,L|256:260,1,180,4|0,1:0|0:0,0:0:0:0:
152,248,116445,1,4,0:3:0:0:
465,192,116595,2,0,P|477:160|457:100,1,90,8|0,0:0|0:0,0:0:0:0:
47,192,116895,2,0,P|35:224|55:284,1,90,4|0,0:3|0:0,0:0:0:0:
331,271,117195,1,0,0:0:0:0:
205,78,117345,1,0,0:0:0:0:
284,328,117495,2,0,L|392:324,1,90,4|0,0:3|0:0,0:0:0:0:
228,56,117795,2,0,L|120:60,1,90,8|0,0:0|0:0,0:0:0:0:
28,126,118095,1,0,0:0:0:0:
375,192,118245,1,0,0:0:0:0:
138,324,118395,6,0,B|110:284|96:248|96:248|96:196|141:140,1,180,4|0,0:3|0:0,0:0:0:0:
216,92,118845,1,4,0:3:0:0:
408,328,118995,2,0,B|373:321|373:321|353:329|353:329|320:322,1,90,8|0,0:0|0:0,0:0:0:0:
104,56,119295,2,0,B|139:63|139:63|159:55|159:55|191:61,1,90,4|0,0:3|0:0,0:0:0:0:
440,120,119595,5,0,0:0:0:0:
56,144,119745,1,0,0:0:0:0:
44,304,119895,1,4,0:3:0:0:
200,344,120045,1,0,0:0:0:0:
308,224,120195,1,8,0:0:0:0:
319,189,120270,1,0,0:0:0:0:
314,153,120345,1,0,0:0:0:0:
302,119,120420,1,0,0:0:0:0:
270,102,120495,1,0,0:0:0:0:
234,100,120570,1,0,0:0:0:0:
200,113,120645,1,0,0:0:0:0:
176,140,120720,1,0,0:0:0:0:
154,168,120795,6,0,P|106:182|46:180,1,90,4|0,0:3|0:0,0:0:0:0:
358,216,121095,2,0,P|406:202|466:204,1,90,0|4,0:0|0:3,0:0:0:0:
182,343,121395,2,0,P|139:330|104:304,1,90,8|0,0:0|0:0,0:0:0:0:
329,40,121695,2,0,P|372:53|408:80,1,90,4|0,0:3|0:0,0:0:0:0:
109,244,121995,2,0,P|96:184|126:135,1,90
445,201,122295,1,4,0:3:0:0:
272,320,122445,1,0,0:0:0:0:
272,64,122595,2,0,P|232:40|168:48,1,90,8|0,0:0|0:0,0:0:0:0:
189,344,122895,2,0,P|234:343|272:320,1,90,4|0,0:3|0:0,0:0:0:0:
40,156,123195,5,2,0:0:0:0:
4,316,123345,1,2,0:0:0:0:
216,192,123495,1,2,0:0:0:0:
104,12,123645,1,2,0:0:0:0:
128,208,123795,2,0,B|140:260|188:280|188:280|140:328|148:380,1,180,10|2,0:0|0:0,0:0:0:0:
216,192,124245,5,2,0:0:0:0:
26,312,124395,1,2,0:0:0:0:
246,356,124545,1,2,0:0:0:0:
72,120,124695,1,2,0:0:0:0:
256,72,124845,1,2,0:0:0:0:
440,120,124995,2,0,B|451:79|452:20,1,90,10|0,0:0|0:0,0:0:0:0:
8,36,125295,1,2,0:0:0:0:
12,72,125370,1,2,0:0:0:0:
16,108,125445,1,2,0:0:0:0:
20,144,125520,1,2,0:0:0:0:
24,180,125595,6,0,P|124:216|204:176,1,180,4|0,1:0|0:0,0:0:0:0:
160,24,126045,1,4,0:3:0:0:
451,30,126195,2,0,P|403:50|335:46,1,90,8|0,0:0|0:0,0:0:0:0:
52,352,126495,2,0,B|28:304|28:304|12:236|68:172,1,180,4|0,0:3|0:0,0:0:0:0:
323,190,126945,1,0,0:0:0:0:
152,120,127095,2,0,P|144:157|162:214,1,90,4|0,0:3|0:0,0:0:0:0:
281,263,127395,2,0,P|322:188|292:139,1,90,8|0,0:0|0:0,0:0:0:0:
152,120,127695,1,4,0:3:0:0:
20,208,127845,1,0,0:0:0:0:
322,189,127995,6,0,B|386:165|386:165|450:177|450:177|526:141,1,180,4|0,0:3|0:0,0:0:0:0:
256,264,128445,1,4,0:3:0:0:
58,159,128595,1,8,0:0:0:0:
454,159,128745,1,0,0:0:0:0:
256,174,128895,2,0,L|256:294,1,90,4|0,0:3|0:0,0:0:0:0:
80,220,129195,5,0,0:0:0:0:
152,56,129345,1,0,0:0:0:0:
332,56,129495,1,4,0:3:0:0:
412,220,129645,1,0,0:0:0:0:
256,320,129795,5,10,0:0:0:0:
253,297,129870,1,2,0:0:0:0:
257,274,129945,1,2,0:0:0:0:
252,251,130020,1,2,0:0:0:0:
255,228,130095,1,2,0:0:0:0:
252,205,130170,1,2,0:0:0:0:
258,183,130245,1,2,0:0:0:0:
254,160,130320,1,2,0:0:0:0:
254,137,130395,6,0,P|203:124|149:115,1,90,4|0,0:3|0:0,0:0:0:0:
351,87,130695,2,0,P|402:100|456:109,1,90,0|4,0:0|0:3,0:0:0:0:
64,288,130995,2,0,P|40:248|60:176,1,90,8|0,0:0|0:0,0:0:0:0:
438,106,131295,2,0,P|461:143|460:188,1,90,4|0,0:3|0:0,0:0:0:0:
220,224,131595,2,0,P|266:192|332:181,1,90
438,106,131895,5,4,0:3:0:0:
220,224,132045,1,0,0:0:0:0:
0,118,132195,2,0,P|0:89|39:38,1,90,8|0,0:0|0:0,0:0:0:0:
309,210,132495,2,0,L|220:224,1,90
408,292,132795,5,2,0:0:0:0:
384,68,132945,1,2,0:0:0:0:
160,76,133095,1,2,0:0:0:0:
184,324,133245,1,2,0:0:0:0:
309,210,133395,2,0,B|321:146|293:122|293:122|237:130|205:178,1,180,10|2,0:0|0:0,0:0:0:0:
192,268,133845,1,2,0:0:0:0:
80,176,133995,5,2,0:0:0:0:
296,352,134145,1,2,0:0:0:0:
134,18,134295,1,2,0:0:0:0:
120,192,134445,1,2,0:0:0:0:
135,366,134595,2,0,P|179:354|255:346,1,90,10|0,0:0|0:0,0:0:0:0:
380,128,134895,1,2,0:0:0:0:
348,108,134970,1,2,0:0:0:0:
312,100,135045,1,2,0:0:0:0:
276,108,135120,1,2,0:0:0:0:
244,128,135195,6,0,B|216:152|176:152|176:152|128:120|64:148,1,180,4|0,1:0|0:0,0:0:0:0:
12,244,135645,1,4,0:3:0:0:
244,128,135795,2,0,P|284:100|348:96,1,90,8|0,0:0|0:0,0:0:0:0:
101,249,136095,2,0,P|37:245|-31:241,1,90,4|0,0:3|0:0,0:0:0:0:
352,280,136395,1,0,0:0:0:0:
392,180,136545,1,0,0:0:0:0:
11,243,136695,2,0,P|19:286|39:327,1,90,4|0,0:3|0:0,0:0:0:0:
476,151,136995,2,0,P|435:171|391:179,1,90,8|0,0:0|0:0,0:0:0:0:
191,58,137295,2,0,P|179:114|193:240,1,180,0|4,0:0|0:3,0:0:0:0:
73,210,137745,5,0,0:0:0:0:
376,132,137895,1,0,0:0:0:0:
436,248,138045,1,4,0:3:0:0:
320,320,138195,2,0,L|192:336,1,90,8|0,0:0|0:0,0:0:0:0:
401,104,138495,1,4,0:3:0:0:
504,123,138645,1,0,0:0:0:0:
361,201,138795,1,0,0:0:0:0:
320,32,138945,1,0,0:0:0:0:
412,288,139095,6,0,B|400:308|376:320|376:320|316:260|368:192,2,180,4|8|2,0:3|0:0|0:0,0:0:0:0:
420,252,139770,1,2,0:0:0:0:
432,216,139845,1,2,0:0:0:0:
456,188,139920,1,2,0:0:0:0:
488,172,139995,6,0,P|496:113|472:60,1,90,4|0,0:3|0:0,0:0:0:0:
136,212,140295,2,0,P|112:256|120:324,1,90,0|4,0:0|0:3,0:0:0:0:
328,148,140595,1,8,0:0:0:0:
316,40,140745,1,0,0:0:0:0:
420,68,140895,2,0,B|488:80|488:80|536:68,1,90,4|0,0:3|0:0,0:0:0:0:
232,76,141195,1,0,0:0:0:0:
328,148,141345,1,0,0:0:0:0:
132,112,141495,1,4,0:3:0:0:
296,236,141645,1,0,0:0:0:0:
491,160,141795,2,0,P|507:124|499:48,1,90,8|0,0:0|0:0,0:0:0:0:
220,180,142095,2,0,P|204:216|212:292,1,90
316,280,142395,5,2,0:0:0:0:
310,100,142545,1,2,0:0:0:0:
220,180,142695,1,2,0:0:0:0:
204,0,142845,1,2,0:0:0:0:
203,265,142995,6,0,P|156:272|107:245,1,90,10|0,0:0|0:0,0:0:0:0:
296,232,143295,1,2,0:0:0:0:
160,348,143445,1,2,0:0:0:0:
32,208,143595,1,2,0:0:0:0:
480,176,143745,1,2,0:0:0:0:
181,167,143895,1,2,0:0:0:0:
333,71,144045,1,2,0:0:0:0:
480,176,144195,6,0,P|476:208|468:276,1,90,10|0,0:0|0:0,0:0:0:0:
200,256,144495,1,2,0:0:0:0:
180,236,144570,1,2,0:0:0:0:
160,248,144645,1,2,0:0:0:0:
144,260,144720,1,2,0:0:0:0:
124,272,144795,6,0,B|168:212|168:212|132:164|156:100,1,180,4|0,1:0|0:0,0:0:0:0:
216,24,145245,1,4,0:3:0:0:
324,180,145395,2,0,P|264:156|196:168,1,90,8|0,0:0|0:0,0:0:0:0:
68,20,145695,2,0,P|4:96|40:184,1,180,4|0,0:3|0:0,0:0:0:0:
256,192,146145,1,0,0:0:0:0:
52,252,146295,2,0,P|92:230|165:221,1,90,4|0,0:3|0:0,0:0:0:0:
460,132,146595,2,0,P|420:154|347:163,1,90,8|0,0:0|0:0,0:0:0:0:
224,112,146895,1,0,0:0:0:0:
135,220,147045,1,0,0:0:0:0:
423,145,147195,6,0,P|447:189|431:253,1,90,4|0,0:3|0:0,0:0:0:0:
420,332,147495,1,0,0:0:0:0:
292,188,147645,1,4,0:3:0:0:
484,80,147795,2,0,P|440:56|376:72,1,90,8|0,0:0|0:0,0:0:0:0:
280,264,148095,2,0,P|324:288|388:272,1,90,4|0,0:3|0:0,0:0:0:0:
420,220,148395,5,0,0:0:0:0:
144,52,148545,1,0,0:0:0:0:
312,64,148695,1,4,0:3:0:0:
68,240,148845,1,0,0:0:0:0:
148,136,148995,1,10,0:0:0:0:
184,124,149070,1,2,0:0:0:0:
220,128,149145,1,2,0:0:0:0:
252,144,149220,1,2,0:0:0:0:
284,164,149295,1,4,2:3:0:0:
316,176,149370,1,2,0:0:0:0:
352,184,149445,1,2,0:0:0:0:
388,172,149520,1,2,0:0:0:0:
420,152,149595,6,0,P|468:136|524:128,1,90,4|0,0:3|0:0,0:0:0:0:
92,232,149895,2,0,P|44:248|-12:256,1,90,0|4,0:0|0:3,0:0:0:0:
308,40,150195,2,0,P|324:76|328:156,1,90,8|0,0:0|0:0,0:0:0:0:
204,344,150495,2,0,P|188:308|184:228,1,90,4|0,0:3|0:0,0:0:0:0:
444,161,150795,5,0,0:3:0:0:
256,192,150945,1,0,0:0:0:0:
68,161,151095,1,4,0:3:0:0:
320,120,151245,1,0,0:0:0:0:
124,248,151395,2,0,P|148:296|216:304,1,90,8|0,0:0|0:0,0:0:0:0:
388,136,151695,2,0,P|364:88|296:80,1,90
256,192,151995,1,4,1:0:0:0:
256,192,152145,12,0,154245,1:0:0:0:
56,160,154395,6,0,P|124:152|212:112,1,135.000005149842,4|0,0:3|0:0,0:0:0:0:
272,88,154845,1,0,0:0:0:0:
348,36,154995,1,8,0:0:0:0:
456,304,155295,1,0,0:0:0:0:
456,304,155595,1,0,0:0:0:0:
456,304,155895,2,0,P|407:313|332:302,1,101.250003862381,4|0,0:3|0:0,0:0:0:0:
306,296,156195,2,0,P|266:280|214:284,1,67.5000025749208,8|0,0:0|0:0,0:0:0:0:
148,304,156495,2,0,P|112:316|56:308,1,67.5000025749208
116,76,156795,6,0,B|108:164|108:164|128:224,1,135.000005149842,4|0,0:3|0:0,0:0:0:0:
212,236,157245,1,0,0:0:0:0:
280,172,157395,1,8,0:0:0:0:
456,236,157695,1,0,0:0:0:0:
280,172,157995,1,0,0:0:0:0:
280,172,158295,2,0,P|280:100|302:72,1,101.250003862381,4|0,0:3|0:0,0:0:0:0:
341,98,158595,2,0,P|361:106|421:106,1,67.5000025749208,8|0,0:0|0:0,0:0:0:0:
232,48,158895,2,0,P|212:40|152:40,1,67.5000025749208
76,60,159195,6,0,L|52:140,1,67.5000025749208,4|0,0:3|0:0,0:0:0:0:
168,200,159495,2,0,L|157:133,1,67.5000025749208
252,164,159795,2,0,L|264:252,1,67.5000025749208,8|0,0:0|0:0,0:0:0:0:
420,192,160095,2,0,L|328:212,1,67.5000025749208
252,164,160395,2,0,L|266:98,1,67.5000025749208
388,36,160695,2,0,L|375:103,1,67.5000025749208,4|0,0:3|0:0,0:0:0:0:
420,268,160995,2,0,L|504:276,1,67.5000025749208,8|0,0:0|0:0,0:0:0:0:
346,322,161295,2,0,P|329:254|370:198,1,135.000005149842,0|4,0:0|0:3,0:0:0:0:
440,172,161745,5,0,0:0:0:0:
375,102,161895,2,0,L|287:110,1,67.5000025749208
212,120,162195,1,8,0:0:0:0:
140,60,162345,1,0,0:0:0:0:
84,136,162495,2,0,L|-20:152,1,67.5000025749208
240,252,162795,6,0,L|344:236,1,67.5000025749208
372,176,163095,1,4,0:3:0:0:
172,184,163245,2,0,L|96:196,1,67.5000025749208,0|8,0:0|0:0,0:0:0:0:
306,241,163545,1,0,0:0:0:0:
431,221,163695,1,0,0:0:0:0:
177,260,163845,1,0,0:0:0:0:
372,176,163995,6,0,P|356:100|292:88,1,135.000005149842,4|0,1:0|0:0,0:0:0:0:
168,104,164445,1,0,0:0:0:0:
168,104,164595,2,0,L|164:192,1,67.5000025749208,8|0,0:0|0:0,0:0:0:0:
156,320,164895,2,0,L|64:328,1,67.5000025749208
240,240,165195,2,0,L|332:232,1,67.5000025749208
32,200,165495,2,0,P|20:120|56:60,2,135.000005149842,4|8|0,0:3|0:0|0:0,0:0:0:0:
116,248,166245,1,0,0:0:0:0:
216,112,166395,6,0,P|256:84|304:80,1,67.5000025749208,4|0,0:3|0:0,0:0:0:0:
368,64,166695,1,0,0:0:0:0:
388,252,166845,1,0,0:0:0:0:
388,252,166995,2,0,L|304:248,1,67.5000025749208,8|0,0:0|0:0,0:0:0:0:
480,108,167295,2,0,B|472:168|472:168|480:184|480:184|472:264,1,135.000005149842
474,240,167745,1,0,0:0:0:0:
240,304,167895,6,0,P|224:264|228:228,1,67.5000025749208,4|0,0:3|0:0,0:0:0:0:
368,112,168195,2,0,B|341:155|348:193|348:193|371:208|380:247,2,135.000005149842,8|0|4,0:0|0:0|0:3,0:0:0:0:
296,52,168945,5,0,0:0:0:0:
204,40,169095,1,0,0:0:0:0:
132,100,169245,1,0,0:0:0:0:
128,196,169395,1,8,0:0:0:0:
200,256,169545,1,0,0:0:0:0:
292,240,169695,1,0,0:0:0:0:
336,156,169845,1,0,0:0:0:0:
244,132,169995,5,0,0:0:0:0:
188,208,170145,1,0,0:0:0:0:
224,296,170295,1,4,0:3:0:0:
312,324,170445,1,0,0:0:0:0:
364,244,170595,2,0,P|412:228|464:224,1,67.5000025749208,8|0,0:0|0:0,0:0:0:0:
224,296,170895,2,0,P|120:296|68:276,1,135.000005149842,0|4,0:0|0:3,0:0:0:0:
256,192,171345,12,4,173595,0:3:0:0:
246,183,180795,6,0,P|241:121|245:38,2,135.000005149842
246,183,181995,1,0,0:0:0:0:
72,200,182295,5,4,0:3:0:0:
440,184,182595,1,8,0:0:0:0:
440,184,183195,6,0,P|372:160|300:152,1,90,4|0,0:3|0:0,0:0:0:0:
68,152,183495,1,0,0:0:0:0:
112,236,183645,1,2,0:0:0:0:
112,236,183795,2,0,P|152:236|216:208,1,90,8|0,0:0|0:0,0:0:0:0:
368,320,184095,2,0,L|260:332,1,90,2|0,0:0|0:0,0:0:0:0:
432,144,184395,2,0,P|460:176|464:236,1,90,2|0,0:0|0:0,0:0:0:0:
304,104,184695,2,0,L|336:4,1,90,4|0,0:3|0:0,0:0:0:0:
44,128,184995,2,0,P|12:224|112:176,1,270,10|0,0:0|0:0,0:0:0:0:
148,76,185595,6,0,P|176:48|252:40,1,90,4|0,0:3|0:0,0:0:0:0:
332,40,185895,1,0,0:0:0:0:
248,204,186045,1,2,0:0:0:0:
248,204,186195,2,0,L|248:316,1,90,8|0,0:0|0:0,0:0:0:0:
476,208,186495,2,0,P|416:224|360:212,1,90,2|0,0:0|0:0,0:0:0:0:
64,100,186795,2,0,P|124:84|180:96,1,90,2|0,0:0|0:0,0:0:0:0:
132,328,187095,2,0,L|152:204,1,90,4|0,0:3|0:0,0:0:0:0:
364,76,187395,2,0,P|360:108|376:144,3,45,10|0|0|0,0:0|0:0|0:0|0:0,0:0:0:0:
376,172,187695,2,0,P|380:204|364:240,3,45
368,268,187995,5,4,0:3:0:0:
268,312,188145,1,0,0:0:0:0:
180,248,188295,1,0,0:0:0:0:
200,140,188445,1,2,0:0:0:0:
276,216,188595,5,8,0:0:0:0:
308,112,188745,1,0,0:0:0:0:
220,48,188895,1,2,0:0:0:0:
116,76,189045,1,0,0:0:0:0:
200,140,189195,2,0,P|244:143|288:135,1,90,0|2,0:0|0:0,0:0:0:0:
88,192,189495,2,0,P|43:188|0:196,1,90,4|2,0:3|0:0,0:0:0:0:
213,314,189795,2,0,B|196:243|196:243|212:197|212:197|195:123,1,180,8|2,0:0|0:0,0:0:0:0:
176,40,190245,1,0,0:0:0:0:
384,80,190395,5,4,0:3:0:0:
368,184,190545,1,0,0:0:0:0:
280,260,190695,1,0,0:0:0:0:
264,156,190845,1,2,0:0:0:0:
468,208,190995,2,0,L|452:320,1,90,8|0,0:0|0:0,0:0:0:0:
340,360,191295,1,0,0:0:0:0:
280,260,191445,1,2,0:0:0:0:
376,276,191595,5,2,0:0:0:0:
376,276,191745,1,0,0:0:0:0:
212,344,191895,1,4,0:3:0:0:
212,344,192045,1,2,0:0:0:0:
48,268,192195,2,0,P|55:246|78:221,3,45,8|0|0|0,0:0|0:0|0:0|0:0,0:0:0:0:
132,201,192495,2,0,P|158:192|194:165,3,45,2|0|0|0,0:0|0:0|0:0|0:0,0:0:0:0:
236,168,192795,6,0,B|317:163|328:91|398:93,1,180,4|2,0:1|0:0,0:0:0:0:
232,80,193245,1,4,0:3:0:0:
232,80,193395,2,0,P|243:124|232:176,1,90,8|0,0:0|0:0,0:0:0:0:
168,278,193695,2,0,P|128:262|68:266,1,90,2|0,0:0|0:0,0:0:0:0:
260,352,193995,2,0,L|372:344,1,90,2|0,0:0|0:0,0:0:0:0:
316,176,194295,1,4,0:3:0:0:
288,272,194445,1,2,0:0:0:0:
380,232,194595,2,0,P|392:132|328:92,1,180,8|2,0:0|0:0,0:0:0:0:
189,183,195045,1,0,0:0:0:0:
189,183,195195,6,0,P|140:140|144:88,1,90,4|0,0:3|0:0,0:0:0:0:
124,32,195495,1,0,0:0:0:0:
232,100,195645,1,2,0:0:0:0:
52,184,195795,2,0,L|64:284,1,90,8|0,0:0|0:0,0:0:0:0:
344,236,196095,2,0,P|296:228|244:260,1,90,2|0,0:0|0:0,0:0:0:0:
360,336,196395,1,2,0:0:0:0:
452,276,196545,1,0,0:0:0:0:
256,148,196695,2,0,B|248:92|248:92|260:52,1,90,4|2,0:3|0:0,0:0:0:0:
450,124,196995,2,0,P|438:152|438:180,3,45,8|0|0|0,0:0|0:0|0:0|0:0,0:0:0:0:
442,232,197295,2,0,P|450:260|450:300,3,45,2|0|0|0,0:0|0:0|0:0|0:0,0:0:0:0:
364,300,197595,5,4,0:3:0:0:
304,212,197745,1,0,0:0:0:0:
440,120,197895,1,0,0:0:0:0:
396,220,198045,1,2,0:0:0:0:
276,52,198195,5,8,0:0:0:0:
348,136,198345,1,0,0:0:0:0:
388,36,198495,1,2,0:0:0:0:
172,68,198645,1,0,0:0:0:0:
236,144,198795,5,2,0:0:0:0:
236,144,198945,1,0,0:0:0:0:
144,200,199095,1,4,0:3:0:0:
144,200,199245,1,2,0:0:0:0:
304,40,199395,1,8,0:0:0:0:
392,116,199545,1,0,0:0:0:0:
295,210,199695,2,0,B|251:214|215:250|215:250|183:206|123:194,1,180,2|4,0:0|0:3,0:0:0:0:
296,304,200145,5,0,0:0:0:0:
380,252,200295,1,0,0:0:0:0:
368,152,200445,1,2,0:0:0:0:
280,108,200595,1,8,0:0:0:0:
180,260,200745,1,0,0:0:0:0:
188,80,200895,1,2,0:0:0:0:
272,240,201045,1,0,0:0:0:0:
116,152,201195,5,2,0:0:0:0:
216,188,201345,1,0,0:0:0:0:
300,116,201495,1,4,0:3:0:0:
268,12,201645,1,2,0:0:0:0:
16,48,201795,2,0,P|48:36|84:36,3,45,8|0|0|0,0:0|0:0|0:0|0:0,0:0:0:0:
132,44,202095,2,0,P|156:52|192:52,3,45,2|0|0|0,0:0|0:0|0:0|0:0,0:0:0:0:
248,52,202395,5,6,0:0:0:0:
280,48,202845,1,2,0:0:0:0:
160,200,203295,1,2,0:0:0:0:
448,180,203595,1,2,0:0:0:0:
280,48,203895,1,4,0:3:0:0:
284,48,204195,6,0,B|292:120|292:120|284:152|284:152|300:244,1,180,8|0,0:0|0:0,0:0:0:0:
296,225,204645,1,0,0:0:0:0:
72,304,204795,6,0,P|120:328|211:239,1,180,4|0,0:1|0:0,0:0:0:0:
128,228,205245,1,2,0:0:0:0:
312,40,205395,2,0,B|352:80|352:80|360:128,1,90,8|0,0:0|0:0,0:0:0:0:
128,228,205695,2,0,P|160:184|224:180,1,90,2|0,0:0|0:0,0:0:0:0:
332,284,205995,1,2,0:0:0:0:
227,331,206145,1,0,0:0:0:0:
267,106,206295,2,0,L|356:111,1,90,4|2,0:3|0:0,0:0:0:0:
128,40,206595,2,0,P|8:112|88:184,1,270,8|0,0:0|0:0,0:0:0:0:
304,168,207195,5,4,0:3:0:0:
220,236,207345,1,0,0:0:0:0:
388,236,207495,1,0,0:0:0:0:
220,120,207645,1,2,0:0:0:0:
309,268,207795,1,8,0:0:0:0:
129,276,207945,1,0,0:0:0:0:
286,188,208095,2,0,P|329:184|389:175,1,90,2|0,0:0|0:0,0:0:0:0:
197,121,208395,5,2,0:0:0:0:
217,299,208545,1,0,0:0:0:0:
86,175,208695,1,4,0:3:0:0:
248,252,208845,1,2,0:0:0:0:
413,321,208995,1,8,0:0:0:0:
413,321,209145,1,0,0:0:0:0:
456,216,209295,2,0,P|356:208|312:280,1,180,2|4,0:0|0:3,0:0:0:0:
408,316,209745,5,0,0:0:0:0:
452,216,209895,1,0,0:0:0:0:
352,172,210045,1,2,0:0:0:0:
304,264,210195,2,0,P|248:280|196:252,1,90,8|0,0:0|0:0,0:0:0:0:
124,220,210495,1,2,0:0:0:0:
140,112,210645,1,0,0:0:0:0:
228,172,210795,5,2,0:0:0:0:
48,160,210945,1,0,0:0:0:0:
196,56,211095,1,4,0:3:0:0:
124,220,211245,1,2,0:0:0:0:
102,41,211395,2,0,P|90:17|86:-15,3,45,8|0|0|0,0:0|0:0|0:0|0:0,0:0:0:0:
196,56,211695,2,0,P|208:80|212:112,3,45,2|0|0|0,0:0|0:0|0:0|0:0,0:0:0:0:
314,33,211995,6,0,P|378:41|502:21,1,180,4|0,0:1|0:0,0:0:0:0:
300,216,212445,1,4,0:3:0:0:
300,216,212595,2,0,L|292:124,1,90,8|0,0:0|0:0,0:0:0:0:
444,192,212895,2,0,P|464:240|448:280,1,90,2|0,0:0|0:0,0:0:0:0:
213,192,213195,2,0,L|300:216,1,90,2|0,0:0|0:0,0:0:0:0:
120,316,213495,2,0,P|80:300|-4:316,1,90,4|2,0:3|0:0,0:0:0:0:
270,332,213795,2,0,P|282:246|216:192,1,180,8|0,0:0|0:0,0:0:0:0:
52,120,214245,1,0,0:0:0:0:
52,120,214395,6,0,L|144:104,1,90,4|0,0:3|0:0,0:0:0:0:
352,112,214695,1,0,0:0:0:0:
252,132,214845,1,4,0:3:0:0:
432,156,214995,2,0,P|444:104|400:48,1,90,8|0,0:0|0:0,0:0:0:0:
168,96,215295,2,0,P|156:148|200:204,1,90,2|0,0:0|0:0,0:0:0:0:
392,264,215595,2,0,B|320:252|320:252|280:288|204:284,1,180,2|4,0:0|0:3,0:0:0:0:
104,284,216045,1,2,0:0:0:0:
168,96,216195,2,0,P|180:76|208:44,3,45,8|0|0|0,0:0|0:0|0:0|0:0,0:0:0:0:
280,36,216495,2,0,P|300:28|336:24,3,45,2|0|0|0,0:0|0:0|0:0|0:0,0:0:0:0:
404,76,216795,5,4,0:3:0:0:
464,168,216945,1,0,0:0:0:0:
400,256,217095,1,0,0:0:0:0:
296,220,217245,1,4,0:3:0:0:
376,160,217395,5,8,0:0:0:0:
276,124,217545,1,0,0:0:0:0:
200,200,217695,1,2,0:0:0:0:
244,300,217845,1,0,0:0:0:0:
296,220,217995,5,2,0:0:0:0:
132,268,218145,1,0,0:0:0:0:
200,200,218295,1,4,0:3:0:0:
40,256,218445,1,2,0:0:0:0:
244,300,218595,1,8,0:0:0:0:
104,188,218745,1,0,0:0:0:0:
384,196,218895,2,0,P|436:120|352:52,1,180,2|4,0:0|0:3,0:0:0:0:
188,44,219345,5,0,0:0:0:0:
232,140,219495,1,0,0:0:0:0:
124,128,219645,1,2,0:0:0:0:
340,88,219795,5,8,0:0:0:0:
260,160,219945,1,0,0:0:0:0:
332,240,220095,1,2,0:0:0:0:
416,176,220245,1,0,0:0:0:0:
128,80,220395,5,2,0:0:0:0:
52,156,220545,1,0,0:0:0:0:
228,80,220695,1,4,0:3:0:0:
48,32,220845,1,2,0:0:0:0:
172,168,220995,1,8,0:0:0:0:
206,177,221070,1,0,0:0:0:0:
241,180,221145,1,0,0:0:0:0:
276,173,221220,1,0,0:0:0:0:
309,158,221295,1,2,0:0:0:0:
340,140,221370,1,0,0:0:0:0:
366,116,221445,1,0,0:0:0:0:
392,91,221520,1,0,0:0:0:0:
424,75,221595,5,4,0:0:0:0:
