osu file format v14

[General]
AudioFilename: audio.mp3
AudioLeadIn: 0
PreviewTime: 50895
Countdown: 0
SampleSet: Normal
StackLeniency: 0.7
Mode: 1
LetterboxInBreaks: 0
SkinPreference:Default
WidescreenStoryboard: 1

[Editor]
DistanceSpacing: 0.7
BeatDivisor: 4
GridSize: 32
TimelineZoom: 2.5

[Metadata]
Title:To Be Continued? (Mondaiji-tachi RUS tv-size)
TitleUnicode:To Be Continued? (Mondaiji-tachi RUS tv-size)
Artist:Cleo-chan
ArtistUnicode:Cleo-chan
Creator:goodfeelow
Version:Futsuu
Source:
Tags:Mondaiji Sati Akura Cleo-chan ending usagi rabbit Russian
BeatmapID:1688005
BeatmapSetID:801137

[Difficulty]
HPDrainRate:4
CircleSize:2
OverallDifficulty:4
ApproachRate:4
SliderMultiplier:1.39999990463257
SliderTickRate:1

[Events]
//Background and Video events
0,0,"Anime-Mondaiji.jpeg",0,0
//Break Periods
//Storyboard Layer 0 (Background)
//Storyboard Layer 1 (Fail)
//Storyboard Layer 2 (Pass)
//Storyboard Layer 3 (Foreground)
//Storyboard Sound Samples

[TimingPoints]
1101,480,4,1,0,100,1,0
51021,-100,4,1,0,100,0,1
81741,-100,4,1,0,100,0,0

[HitObjects]
256,192,1101,5,0,0:0:0:0:
256,192,1341,1,0,0:0:0:0:
256,192,1581,1,2,0:0:0:0:
256,192,1821,1,2,0:0:0:0:
256,192,2061,1,0,0:0:0:0:
256,192,2421,1,0,0:0:0:0:
256,192,2781,1,0,0:0:0:0:
256,192,3021,1,2,0:0:0:0:
256,192,3261,1,6,0:0:0:0:
256,192,3501,1,0,0:0:0:0:
256,192,3741,1,0,0:0:0:0:
256,192,3981,1,0,0:0:0:0:
256,192,4941,1,4,0:0:0:0:
256,192,5181,1,2,0:0:0:0:
256,192,5421,1,2,0:0:0:0:
256,192,5661,1,2,0:0:0:0:
256,192,5901,1,0,0:0:0:0:
256,192,6141,1,2,0:0:0:0:
256,192,6501,1,2,0:0:0:0:
256,192,6861,1,0,0:0:0:0:
256,192,7101,1,2,0:0:0:0:
256,192,7341,1,0,0:0:0:0:
256,192,7581,1,2,0:0:0:0:
256,192,7821,1,0,0:0:0:0:
256,192,8061,1,2,0:0:0:0:
256,192,8421,1,2,0:0:0:0:
256,192,8781,1,0,0:0:0:0:
256,192,9021,1,2,0:0:0:0:
256,192,9261,1,2,0:0:0:0:
256,192,9501,1,2,0:0:0:0:
256,192,9741,1,0,0:0:0:0:
256,192,9981,1,2,0:0:0:0:
256,192,10341,1,2,0:0:0:0:
256,192,10701,1,4,0:0:0:0:
256,192,11181,1,4,0:0:0:0:
256,192,11661,1,4,0:0:0:0:
256,192,12141,1,4,0:0:0:0:
256,192,12621,1,0,0:0:0:0:
256,192,12861,1,2,0:0:0:0:
256,192,13101,1,2,0:0:0:0:
256,192,13341,1,2,0:0:0:0:
256,192,13581,1,0,0:0:0:0:
256,192,13821,1,2,0:0:0:0:
256,192,14181,1,2,0:0:0:0:
256,192,14541,1,0,0:0:0:0:
256,192,14781,1,0,0:0:0:0:
256,192,15021,1,0,0:0:0:0:
256,192,15261,1,0,0:0:0:0:
256,192,15501,1,2,0:0:0:0:
256,192,15741,1,2,0:0:0:0:
256,192,16101,1,2,0:0:0:0:
256,192,16461,1,0,0:0:0:0:
256,192,16701,1,2,0:0:0:0:
256,192,16941,1,2,0:0:0:0:
256,192,17181,1,2,0:0:0:0:
256,192,17421,1,0,0:0:0:0:
256,192,17661,1,2,0:0:0:0:
256,192,18021,1,2,0:0:0:0:
256,192,18381,1,4,0:0:0:0:
256,192,18861,1,4,0:0:0:0:
256,192,19341,1,4,0:0:0:0:
256,192,19821,1,4,0:0:0:0:
256,192,20301,1,2,0:0:0:0:
256,192,20541,1,0,0:0:0:0:
256,192,20781,1,0,0:0:0:0:
256,192,21021,1,0,0:0:0:0:
256,192,21261,1,2,0:0:0:0:
256,192,21501,1,0,0:0:0:0:
256,192,21861,1,0,0:0:0:0:
256,192,22221,1,2,0:0:0:0:
256,192,22461,1,0,0:0:0:0:
256,192,22701,1,2,0:0:0:0:
256,192,22941,1,0,0:0:0:0:
256,192,23181,1,2,0:0:0:0:
256,192,23421,1,0,0:0:0:0:
256,192,23781,1,0,0:0:0:0:
256,192,24141,1,2,0:0:0:0:
256,192,24381,1,0,0:0:0:0:
256,192,24621,1,0,0:0:0:0:
256,192,24861,1,0,0:0:0:0:
256,192,25101,1,2,0:0:0:0:
256,192,25341,1,0,0:0:0:0:
256,192,25701,1,0,0:0:0:0:
256,192,26061,1,6,0:0:0:0:
256,192,26541,1,6,0:0:0:0:
256,192,27021,1,6,0:0:0:0:
256,192,27501,1,6,0:0:0:0:
256,192,27981,1,0,0:0:0:0:
256,192,28221,1,2,0:0:0:0:
256,192,28461,1,2,0:0:0:0:
256,192,28701,1,2,0:0:0:0:
256,192,28941,1,0,0:0:0:0:
256,192,29181,1,2,0:0:0:0:
256,192,29541,1,2,0:0:0:0:
256,192,29901,1,0,0:0:0:0:
256,192,30141,1,2,0:0:0:0:
256,192,30381,1,0,0:0:0:0:
256,192,30621,1,2,0:0:0:0:
256,192,30861,1,0,0:0:0:0:
256,192,31101,1,2,0:0:0:0:
256,192,31461,1,2,0:0:0:0:
256,192,31821,1,0,0:0:0:0:
256,192,32061,1,2,0:0:0:0:
256,192,32301,1,2,0:0:0:0:
256,192,32541,1,2,0:0:0:0:
256,192,32781,1,0,0:0:0:0:
256,192,33021,1,2,0:0:0:0:
256,192,33381,1,2,0:0:0:0:
256,192,33741,1,4,0:0:0:0:
256,192,34221,1,4,0:0:0:0:
256,192,34701,1,4,0:0:0:0:
256,192,35181,1,4,0:0:0:0:
224,192,35661,2,0,L|128:160,4,69.9999952316283
256,192,37581,1,2,0:0:0:0:
256,192,37821,1,0,0:0:0:0:
224,192,39501,2,0,L|128:160,4,69.9999952316283
256,192,41421,1,0,0:0:0:0:
256,192,41781,1,0,0:0:0:0:
256,192,42141,1,0,0:0:0:0:
256,192,42381,1,2,0:0:0:0:
256,192,42621,1,2,0:0:0:0:
256,192,42861,1,2,0:0:0:0:
256,192,43341,1,0,0:0:0:0:
256,192,43821,1,0,0:0:0:0:
256,192,44301,1,0,0:0:0:0:
256,192,44781,1,0,0:0:0:0:
256,192,45261,1,0,0:0:0:0:
256,192,45741,1,0,0:0:0:0:
256,192,46221,1,0,0:0:0:0:
256,192,46701,1,0,0:0:0:0:
256,192,47181,1,0,0:0:0:0:
256,192,47421,1,0,0:0:0:0:
256,192,47661,1,0,0:0:0:0:
256,192,47901,1,0,0:0:0:0:
256,192,48141,1,2,0:0:0:0:
256,192,48381,1,0,0:0:0:0:
256,192,48621,1,2,0:0:0:0:
256,192,48861,1,2,0:0:0:0:
256,192,49101,1,2,0:0:0:0:
256,192,49341,1,0,0:0:0:0:
256,192,49581,1,0,0:0:0:0:
89,240,49821,2,0,L|216:241,1,104.999992847442
256,192,51021,1,0,0:0:0:0:
256,192,51501,1,0,0:0:0:0:
256,192,51981,1,0,0:0:0:0:
256,192,52461,1,0,0:0:0:0:
256,192,52941,1,0,0:0:0:0:
288,192,53181,1,2,0:0:0:0:
256,192,53421,1,0,0:0:0:0:
256,192,53901,1,0,0:0:0:0:
256,192,54381,1,0,0:0:0:0:
256,192,54621,1,2,0:0:0:0:
256,192,54861,1,0,0:0:0:0:
256,192,55341,1,0,0:0:0:0:
256,192,55821,1,0,0:0:0:0:
256,192,56301,1,0,0:0:0:0:
256,192,56781,1,0,0:0:0:0:
256,192,57021,1,2,0:0:0:0:
256,192,57261,1,0,0:0:0:0:
256,192,57501,1,2,0:0:0:0:
256,192,58221,1,0,0:0:0:0:
256,192,58461,1,2,0:0:0:0:
263,191,58701,1,0,0:0:0:0:
263,191,59181,1,0,0:0:0:0:
263,191,59661,1,0,0:0:0:0:
263,191,60141,1,0,0:0:0:0:
256,192,60381,1,2,0:0:0:0:
256,194,60621,1,0,0:0:0:0:
263,191,61101,1,0,0:0:0:0:
263,191,61581,1,0,0:0:0:0:
263,191,62061,1,0,0:0:0:0:
263,191,62541,1,4,0:0:0:0:
263,191,62781,1,2,0:0:0:0:
256,192,63021,1,0,0:0:0:0:
256,192,63501,1,0,0:0:0:0:
256,192,63981,1,0,0:0:0:0:
256,192,64461,1,0,0:0:0:0:
256,192,64941,1,0,0:0:0:0:
256,192,65181,1,2,0:0:0:0:
256,192,65421,1,0,0:0:0:0:
256,192,65901,1,0,0:0:0:0:
256,192,66381,1,0,0:0:0:0:
256,192,66861,1,0,0:0:0:0:
256,192,67341,1,0,0:0:0:0:
256,192,67821,1,0,0:0:0:0:
256,192,68301,1,0,0:0:0:0:
256,192,68541,1,2,0:0:0:0:
256,192,68781,1,0,0:0:0:0:
256,192,69261,1,0,0:0:0:0:
256,192,69621,1,2,0:0:0:0:
256,192,69981,1,2,0:0:0:0:
256,192,70221,1,0,0:0:0:0:
256,192,70701,1,0,0:0:0:0:
256,192,71181,1,0,0:0:0:0:
256,192,71661,1,0,0:0:0:0:
256,192,72141,1,0,0:0:0:0:
256,192,72381,1,2,0:0:0:0:
256,192,72621,1,0,0:0:0:0:
256,192,72861,1,2,0:0:0:0:
256,192,73461,1,0,0:0:0:0:
256,192,73821,1,2,0:0:0:0:
256,192,74061,1,0,0:0:0:0:
256,192,74541,1,0,0:0:0:0:
256,192,75021,1,0,0:0:0:0:
256,192,75501,1,0,0:0:0:0:
256,192,75741,1,2,0:0:0:0:
256,192,75981,1,0,0:0:0:0:
256,192,76461,1,0,0:0:0:0:
256,192,76941,1,0,0:0:0:0:
256,192,77421,1,0,0:0:0:0:
256,192,77901,1,4,0:0:0:0:
256,192,78381,1,2,0:0:0:0:
256,192,78861,1,0,0:0:0:0:
256,192,79221,1,2,0:0:0:0:
256,192,79581,1,0,0:0:0:0:
256,192,79821,1,0,0:0:0:0:
256,192,80301,1,2,0:0:0:0:
256,192,80901,1,0,0:0:0:0:
256,192,81261,1,0,0:0:0:0:
256,192,81741,1,4,0:0:0:0:
256,192,82221,1,4,0:0:0:0:
256,192,82581,1,4,0:0:0:0:
256,192,83181,1,6,0:0:0:0:
256,192,83661,1,4,0:0:0:0:
256,192,84141,1,4,0:0:0:0:
256,192,84621,1,0,0:0:0:0:
256,192,84861,1,0,0:0:0:0:
256,192,85101,1,0,0:0:0:0:
256,192,85461,1,0,0:0:0:0:
256,192,86061,1,2,0:0:0:0:
256,192,86541,1,0,0:0:0:0:
256,192,87021,1,0,0:0:0:0:
256,192,87501,1,4,0:0:0:0:
256,192,87981,1,4,0:0:0:0:
256,192,88461,1,4,0:0:0:0:
256,192,88701,1,4,0:0:0:0:
256,192,88941,1,4,0:0:0:0:
