osu file format v14

[General]
AudioFilename: audio.mp3
AudioLeadIn: 0
PreviewTime: 55745
Countdown: 1
SampleSet: Normal
StackLeniency: 0.4
Mode: 0
LetterboxInBreaks: 0
WidescreenStoryboard: 1

[Editor]
DistanceSpacing: 1.5
BeatDivisor: 4
GridSize: 16
TimelineZoom: 0.9000002

[Metadata]
Title:etoile et toi
TitleUnicode:étoile et toi
Artist:Clementine
ArtistUnicode:Clémentine
Creator:Stormiverse
Version:and you
Source:傷物語〈Ⅱ熱血篇〉
Tags:kizumonogatari part 2 araragi koyomi vamp hanekawa tsubasa oshino meme oshino shinobu Kiss-shot Acerola-orion Heart-under-blade kokorowatari seishirou shishirui i dont know french
BeatmapID:1359684
BeatmapSetID:640757

[Difficulty]
HPDrainRate:5
CircleSize:3
OverallDifficulty:5
ApproachRate:7.8
SliderMultiplier:1.50000000596046
SliderTickRate:2

[Events]
//Background and Video events
0,0,"maxresdefault.jpg",0,0
//Break Periods
2,84440,98161
2,101540,105361
2,115940,143761
2,167540,254086
2,273740,314386
//Storyboard Layer 0 (Background)
//Storyboard Layer 1 (Fail)
//Storyboard Layer 2 (Pass)
//Storyboard Layer 3 (Foreground)
//Storyboard Sound Samples

[TimingPoints]
38940,600,4,1,0,40,1,0
55740,-111.111111111111,4,1,0,40,0,0
58140,-83.3333333333333,4,1,0,50,0,0
77340,-71.4285714285714,4,1,0,60,0,0
98940,-62.5,4,1,0,60,0,0
106140,-55.5555555555556,4,1,0,100,0,1
130140,-71.4285714285714,4,1,0,100,0,0
149340,-83.3333333333333,4,1,0,100,0,0
168540,-71.4285714285714,4,1,0,100,0,0
197340,-62.5,4,1,0,100,0,0
216540,-55.5555555555556,4,1,0,100,0,1
240540,-83.3333333333333,4,1,0,100,0,0
254940,-100,4,1,0,100,0,0
274140,-83.3333333333333,4,1,0,100,0,0
293340,-71.4285714285714,4,1,0,100,0,0
312540,-100,4,1,0,100,0,0

[HitObjects]
256,192,390,12,0,15240,0:0:0:0:
256,192,18240,12,0,37140,0:0:0:0:
92,110,38940,6,0,L|100:190,1,75.000000298023
225,267,39540,6,0,L|233:187,1,75.000000298023
187,9,40140,1,0,0:0:0:0:
76,29,40440,1,0,0:0:0:0:
11,121,40740,1,0,0:0:0:0:
31,232,41040,1,0,0:0:0:0:
221,153,41340,5,0,0:0:0:0:
153,243,41640,6,0,L|73:235,2,75.000000298023
323,163,42540,2,0,P|337:76|225:34,1,225.000000894069
59,156,43740,5,0,0:0:0:0:
150,88,44040,1,0,0:0:0:0:
261,108,44340,1,0,0:0:0:0:
326,201,44640,1,0,0:0:0:0:
306,311,44940,6,0,L|226:319,1,75.000000298023
144,196,45540,2,0,L|224:188,1,75.000000298023
365,222,46140,2,0,L|285:230,1,75.000000298023
381,348,46740,2,0,L|461:340,1,75.000000298023
490,156,47340,2,0,P|438:84|329:134,1,225.000000894069
276,332,48540,5,0,0:0:0:0:
256,221,48840,1,0,0:0:0:0:
320,128,49140,2,0,L|400:120,1,75.000000298023
339,260,49740,1,0,0:0:0:0:
232,221,50040,1,0,0:0:0:0:
184,119,50340,2,0,L|217:45,1,75.000000298023
308,169,50940,5,0,0:0:0:0:
221,242,51240,1,0,0:0:0:0:
109,233,51540,2,0,L|62:167,1,75.000000298023
113,353,52140,2,0,P|212:380|261:287,1,225.000000894069
230,83,53340,5,0,0:0:0:0:
131,134,53640,2,0,L|53:114,2,75.000000298023
191,230,54540,1,0,0:0:0:0:
91,281,54840,2,0,L|13:261,2,75.000000298023
276,300,55740,2,0,B|408:283|338:139|460:114,1,269.999992833137
208,45,58140,6,0,P|171:43|105:104,1,89.9999976110456
249,198,58740,2,0,P|268:166|248:78,1,89.9999976110456
95,157,59340,2,0,P|111:189|197:215,1,89.9999976110456
330,264,59940,1,0,0:0:0:0:
330,264,60240,1,0,0:0:0:0:
132,371,60540,6,0,P|96:382|17:340,1,89.9999976110456
90,292,61140,2,0,P|62:267|59:177,1,89.9999976110456
137,215,61740,2,0,P|145:179|221:131,1,89.9999976110456
377,31,62340,1,0,0:0:0:0:
377,31,62640,6,0,P|292:199|322:13,1,539.999985666274
321,108,64740,1,0,0:0:0:0:
321,108,65040,1,0,0:0:0:0:
196,238,65340,5,0,0:0:0:0:
313,306,65640,2,0,P|348:315|427:274,2,89.9999976110456
196,238,66540,5,0,0:0:0:0:
313,170,66840,2,0,P|339:144|343:55,2,89.9999976110456
196,238,67740,5,0,0:0:0:0:
196,102,68040,2,0,P|186:66|111:18,1,89.9999976110456
35,100,68640,1,0,0:0:0:0:
35,100,68940,2,0,P|44:135|119:183,1,89.9999976110456
203,228,69540,1,0,0:0:0:0:
203,228,69840,1,0,0:0:0:0:
304,79,70140,6,0,P|331:54|420:58,2,89.9999976110456
214,92,71040,1,0,0:0:0:0:
214,92,71340,2,0,P|178:80|137:0,1,89.9999976110456
272,163,71940,2,0,P|279:199|231:274,1,89.9999976110456
116,142,72540,1,0,0:0:0:0:
116,142,72840,2,0,P|99:183|105:227,1,89.9999976110456
271,155,73440,1,0,0:0:0:0:
271,155,73740,2,0,P|243:120|202:103,1,89.9999976110456
182,282,74340,1,0,0:0:0:0:
182,282,74640,1,0,0:0:0:0:
391,365,74940,6,0,P|461:260|385:261,1,269.999992833137
348,313,75990,1,0,0:0:0:0:
348,313,76140,1,0,0:0:0:0:
363,40,77340,6,0,P|379:62|363:175,1,104.999997212887
486,171,77940,6,0,P|474:197|367:239,1,104.999997212887
433,344,78540,6,0,P|404:347|314:276,1,104.999997212887
174,110,79140,1,0,0:0:0:0:
174,110,79440,1,0,0:0:0:0:
149,40,79740,6,0,P|132:62|149:175,1,104.999997212887
26,171,80340,6,0,P|37:197|144:239,1,104.999997212887
79,344,80940,6,0,P|107:347|197:276,1,104.999997212887
256,32,81540,6,0,P|284:29|374:100,1,104.999997212887
332,105,81990,2,0,B|340:136|337:186|295:214|264:222|264:222|295:214|345:217|373:259|381:290|381:290|373:259|376:209|418:181|449:173|449:173|418:181|368:178|340:136|332:105,1,577.499984670876
239,130,83940,1,0,0:0:0:0:
239,130,84240,1,0,0:0:0:0:
160,208,98940,5,0,0:0:0:0:
288,80,99240,1,0,0:0:0:0:
336,224,99540,1,0,0:0:0:0:
128,256,99840,1,0,0:0:0:0:
320,80,100140,1,0,0:0:0:0:
128,80,100440,1,0,0:0:0:0:
240,192,100740,1,0,0:0:0:0:
384,160,101040,1,0,0:0:0:0:
240,320,101340,1,0,0:0:0:0:
94,94,106140,5,0,0:0:0:0:
139,221,106440,1,0,0:0:0:0:
139,221,106740,2,0,L|270:252,2,134.999996416568
11,182,107640,2,0,P|70:220|139:222,1,134.999996416568
203,174,108090,2,0,P|271:135|331:155,1,134.999996416568
338,190,108540,2,0,B|370:286|370:286|338:382,2,202.499994624853
170,190,109740,2,0,B|138:286|138:286|170:382,2,202.499994624853
256,0,110940,1,0,0:0:0:0:
139,221,111240,1,0,0:0:0:0:
139,221,111540,2,0,L|270:252,2,134.999996416568
6,196,112440,5,0,0:0:0:0:
500,303,112890,1,0,0:0:0:0:
340,178,113190,1,0,0:0:0:0:
340,178,113340,2,0,B|372:274|372:274|340:370,2,202.499994624853
172,178,114540,2,0,B|140:274|140:274|172:370,2,202.499994624853
256,0,115740,1,0,0:0:0:0:
152,96,144540,6,0,P|184:88|220:96,1,69.9999982810021
352,308,145140,2,0,P|320:316|284:308,1,69.9999982810021
64,188,145740,1,0,0:0:0:0:
64,188,146040,2,0,P|96:180|132:188,1,69.9999982810021
248,320,146640,1,0,0:0:0:0:
228,308,146940,2,0,B|304:304|308:244|396:264|384:184,1,209.999994843006
123,151,148740,1,0,0:0:0:0:
265,186,148890,2,0,L|289:201,2,26.2499993032216
223,36,149190,1,0,0:0:0:0:
223,36,149340,6,0,P|186:34|120:95,1,89.9999976110456
264,189,149940,2,0,P|283:157|263:69,1,89.9999976110456
110,148,150540,2,0,P|126:180|212:206,1,89.9999976110456
345,255,151140,1,0,0:0:0:0:
345,255,151440,1,0,0:0:0:0:
147,362,151740,6,0,P|111:373|32:331,1,89.9999976110456
105,283,152340,2,0,P|77:258|74:168,1,89.9999976110456
152,206,152940,2,0,P|160:170|236:122,1,89.9999976110456
392,22,153540,1,0,0:0:0:0:
392,22,153840,6,0,P|307:190|337:4,1,539.999985666274
336,99,155940,1,0,0:0:0:0:
336,99,156240,1,0,0:0:0:0:
321,233,156540,5,0,0:0:0:0:
452,198,156840,2,0,P|484:180|511:95,2,89.9999976110456
321,233,157740,5,0,0:0:0:0:
378,110,158040,2,0,P|385:73|337:-2,2,89.9999976110456
321,233,158940,5,0,0:0:0:0:
263,110,159240,2,0,P|240:80|151:69,1,89.9999976110456
118,175,159840,1,0,0:0:0:0:
118,175,160140,2,0,P|140:204|229:215,1,89.9999976110456
324,226,160740,1,0,0:0:0:0:
324,226,161040,1,0,0:0:0:0:
425,77,161340,6,0,P|452:52|541:56,2,89.9999976110456
335,90,162240,1,0,0:0:0:0:
335,90,162540,2,0,P|299:78|258:-2,1,89.9999976110456
393,161,163140,2,0,P|400:197|352:272,1,89.9999976110456
191,361,163740,1,0,0:0:0:0:
191,361,164040,2,0,P|155:349|114:269,1,89.9999976110456
230,230,164640,1,0,0:0:0:0:
230,231,164940,2,0,P|202:196|160:181,1,89.9999976110456
25,181,165540,1,0,0:0:0:0:
25,182,165840,1,0,0:0:0:0:
215,302,166140,6,0,P|285:197|209:198,1,269.999992833137
157,250,167190,1,0,0:0:0:0:
157,250,167340,1,0,0:0:0:0:
256,96,254940,5,0,0:0:0:0:
256,128,255540,1,0,0:0:0:0:
256,160,256140,1,0,0:0:0:0:
256,192,256740,1,0,0:0:0:0:
96,288,257040,1,0,0:0:0:0:
96,96,257340,1,0,0:0:0:0:
96,128,257940,1,0,0:0:0:0:
96,160,258540,1,0,0:0:0:0:
96,192,259140,1,0,0:0:0:0:
256,288,259440,1,0,0:0:0:0:
256,96,259740,5,0,0:0:0:0:
256,128,260340,1,0,0:0:0:0:
256,160,260940,1,0,0:0:0:0:
256,192,261540,1,0,0:0:0:0:
416,288,261840,1,0,0:0:0:0:
416,96,262140,1,0,0:0:0:0:
416,128,262740,1,0,0:0:0:0:
416,160,263340,1,0,0:0:0:0:
416,192,263940,1,0,0:0:0:0:
256,96,264540,5,0,0:0:0:0:
256,128,265140,1,0,0:0:0:0:
256,160,265740,1,0,0:0:0:0:
256,192,266340,1,0,0:0:0:0:
416,288,266640,1,0,0:0:0:0:
416,96,266940,1,0,0:0:0:0:
416,128,267540,1,0,0:0:0:0:
416,160,268140,1,0,0:0:0:0:
416,192,268740,1,0,0:0:0:0:
256,288,269040,1,0,0:0:0:0:
256,96,269340,5,0,0:0:0:0:
256,128,269940,1,0,0:0:0:0:
256,160,270540,1,0,0:0:0:0:
256,192,271140,1,0,0:0:0:0:
96,288,271440,1,0,0:0:0:0:
96,96,271740,1,0,0:0:0:0:
96,128,272340,1,0,0:0:0:0:
96,160,272940,1,0,0:0:0:0:
96,192,273540,1,0,0:0:0:0:
256,192,315240,12,0,332340,0:0:0:0:
256,192,334440,12,0,345840,0:0:0:0:
