osu file format v14

[General]
AudioFilename: audio.mp3
AudioLeadIn: 0
PreviewTime: 55745
Countdown: 1
SampleSet: Normal
StackLeniency: 0.3
Mode: 0
LetterboxInBreaks: 0
WidescreenStoryboard: 0

[Editor]
DistanceSpacing: 4.8
BeatDivisor: 4
GridSize: 4
TimelineZoom: 0.9000002

[Metadata]
Title:etoile et toi
TitleUnicode:étoile et toi
Artist:Clementine
ArtistUnicode:Clémentine
Creator:Stormiverse
Version:Star
Source:傷物語〈Ⅱ熱血篇〉
Tags:kizumonogatari part 2 araragi koyomi vamp hanekawa tsubasa oshino meme oshino shinobu Kiss-shot Acerola-orion Heart-under-blade kokorowatari seishirou shishirui i dont know french
BeatmapID:1358909
BeatmapSetID:640757

[Difficulty]
HPDrainRate:5
CircleSize:2
OverallDifficulty:5
ApproachRate:8
SliderMultiplier:0.500000005960464
SliderTickRate:1

[Events]
//Background and Video events
0,0,"maxresdefault.jpg",0,0
//Break Periods
2,70995,147990
//Storyboard Layer 0 (Background)
//Storyboard Layer 1 (Fail)
//Storyboard Layer 2 (Pass)
//Storyboard Layer 3 (Foreground)
//Storyboard Sound Samples

[TimingPoints]
38940,600,4,1,0,40,1,0
58140,-83.3333333333333,4,1,0,100,0,0
62640,-50,4,1,0,100,0,0
77340,-71.4285714285714,4,1,0,100,0,0
106140,-55.5555555555556,4,1,0,100,0,1
130140,-71.4285714285714,4,1,0,100,0,0
149340,-83.3333333333333,4,1,0,100,0,0
168540,-71.4285714285714,4,1,0,100,0,0
197340,-62.5,4,1,0,100,0,0
216540,-55.5555555555556,4,1,0,100,0,1
240540,-100,4,1,0,100,0,0
254940,-100,4,1,0,100,0,0
312540,-100,4,1,0,100,0,0

[HitObjects]
160,352,38940,6,0,L|181:340,1,25.0000002980232
100,248,39540,2,0,L|78:261,1,25.0000002980232
220,248,40140,1,0,0:0:0:0:
160,352,40440,2,0,L|138:365,2,25.0000002980232
340,248,41340,5,0,0:0:0:0:
220,248,41640,2,0,L|199:260,2,25.0000002980232
280,144,42540,6,0,B|296:132|296:132|316:132,2,37.5000004470348
100,248,43740,6,0,L|122:261,1,25.0000002980232
160,352,44340,2,0,L|138:339,1,25.0000002980232
220,248,44940,1,0,0:0:0:0:
280,352,45240,2,0,L|302:365,2,25.0000002980232
100,248,46140,5,0,0:0:0:0:
160,352,46440,2,0,L|182:365,2,25.0000002980232
220,248,47340,6,0,B|204:236|204:236|184:236,2,37.5000004470348
400,352,48540,6,0,L|412:373,1,25.0000002980232
460,248,49140,2,0,L|448:227,1,25.0000002980232
340,248,49740,1,0,0:0:0:0:
280,352,50040,2,0,L|292:373,2,25.0000002980232
160,144,50940,5,0,0:0:0:0:
100,248,51240,2,0,L|88:227,2,25.0000002980232
160,144,52140,6,0,L|140:112,2,37.5000004470348
280,352,53340,5,0,0:0:0:0:
340,248,53640,1,0,0:0:0:0:
160,352,53940,1,0,0:0:0:0:
160,144,54240,1,0,0:0:0:0:
100,248,54540,5,0,0:0:0:0:
280,144,54840,1,0,0:0:0:0:
160,352,55140,1,0,0:0:0:0:
40,144,55440,1,0,0:0:0:0:
280,24,55740,6,0,P|324:32|388:92,1,125.000001490116
340,248,57540,1,0,0:0:0:0:
460,248,57840,1,0,0:0:0:0:
280,144,58140,6,0,L|255:130,1,27.500001167059
340,40,58740,2,0,L|364:25,1,27.500001167059
400,144,59340,2,0,L|400:172,1,27.500001167059
280,352,59940,1,0,0:0:0:0:
220,248,60240,1,0,0:0:0:0:
400,352,60540,6,0,L|425:366,1,27.500001167059
460,248,61140,2,0,L|488:247,1,27.500001167059
400,144,61740,2,0,L|425:130,1,27.500001167059
220,40,62340,1,0,0:0:0:0:
245,150,62640,6,0,B|214:150|214:150|224:180|224:180|214:210|214:210|245:210|245:210|271:229|271:229|280:199|280:199|305:180|305:180|281:161|281:161|271:131|271:131|245:150,1,300.000003576278
280,144,67740,1,0,0:0:0:0:
160,144,68040,1,0,0:0:0:0:
220,40,68340,1,0,0:0:0:0:
256,72,68540,2,0,P|376:192|256:312,1,375.833349283139
164,56,148740,5,0,0:0:0:0:
192,84,148840,1,0,0:0:0:0:
208,112,148940,1,0,0:0:0:0:
212,152,149040,1,0,0:0:0:0:
216,196,149140,1,0,0:0:0:0:
395,279,149340,6,0,P|455:159|450:143,1,159.999997024536
8,204,151140,1,0,0:0:0:0:
256,316,151440,1,0,0:0:0:0:
108,232,153540,1,0,0:0:0:0:
356,112,153840,1,0,0:0:0:0:
388,304,155940,1,0,0:0:0:0:
156,280,156240,1,0,0:0:0:0:
72,288,159840,1,0,0:0:0:0:
152,296,160140,1,0,0:0:0:0:
256,56,160440,1,0,0:0:0:0:
312,320,161040,1,0,0:0:0:0:
420,120,164640,1,0,0:0:0:0:
276,264,164940,1,0,0:0:0:0:
88,76,165240,1,0,0:0:0:0:
412,96,165840,1,0,0:0:0:0:
76,336,167940,1,0,0:0:0:0:
304,324,168240,1,0,0:0:0:0:
