osu file format v14

[General]
AudioFilename: audio.mp3
AudioLeadIn: 0
PreviewTime: 55745
Countdown: 0
SampleSet: Normal
StackLeniency: 0.3
Mode: 0
LetterboxInBreaks: 0
WidescreenStoryboard: 1

[Editor]
Bookmarks: 390,14790,18240,36990
DistanceSpacing: 1.5
BeatDivisor: 4
GridSize: 4
TimelineZoom: 0.9000002

[Metadata]
Title:etoile et toi
TitleUnicode:étoile et toi
Artist:Clementine
ArtistUnicode:Clémentine
Creator:Stormiverse
Version:and me
Source:傷物語〈Ⅱ熱血篇〉
Tags:kizumonogatari part 2 araragi koyomi vamp hanekawa tsubasa oshino meme oshino shinobu Kiss-shot Acerola-orion Heart-under-blade kokorowatari seishirou shishirui i dont know french
BeatmapID:1360713
BeatmapSetID:640757

[Difficulty]
HPDrainRate:5
CircleSize:3.5
OverallDifficulty:5
ApproachRate:7
SliderMultiplier:1.21000000596046
SliderTickRate:2

[Events]
//Background and Video events
0,0,"maxresdefault.jpg",0,0
//Break Periods
2,88640,95640
2,115940,143640
2,167540,254040
2,273740,314340
//Storyboard Layer 0 (Background)
//Storyboard Layer 1 (Fail)
//Storyboard Layer 2 (Pass)
//Storyboard Layer 3 (Foreground)
//Storyboard Sound Samples

[TimingPoints]
38940,600,4,1,0,30,1,0
55740,-111.111111111111,4,1,0,40,0,0
58140,-83.3333333333333,4,1,0,50,0,0
77340,-71.4285714285714,4,1,0,60,0,0
98940,-62.5,4,1,0,60,0,0
106140,-55.5555555555556,4,1,0,100,0,1
130140,-71.4285714285714,4,1,0,100,0,0
149340,-83.3333333333333,4,1,0,100,0,0
168540,-71.4285714285714,4,1,0,100,0,0
197340,-62.5,4,1,0,100,0,0
216540,-55.5555555555556,4,1,0,100,0,1
240540,-83.3333333333333,4,1,0,100,0,0
254940,-100,4,1,0,100,0,0
274140,-83.3333333333333,4,1,0,100,0,0
293340,-71.4285714285714,4,1,0,100,0,0
312540,-100,4,1,0,100,0,0

[HitObjects]
108,136,38940,6,0,L|116:196,1,60.500000298023
224,252,39540,2,0,L|232:192,1,60.500000298023
200,44,40140,1,0,0:0:0:0:
80,60,40440,2,0,L|20:68,2,60.500000298023
260,36,41340,5,0,0:0:0:0:
348,60,41640,1,0,0:0:0:0:
393,139,41940,1,0,0:0:0:0:
369,227,42240,5,0,0:0:0:0:
472,116,42540,2,0,P|370:59|326:91,1,181.500000894069
216,232,43740,5,0,0:0:0:0:
240,144,44040,1,0,0:0:0:0:
319,99,44340,1,0,0:0:0:0:
407,123,44640,5,0,0:0:0:0:
482,254,44940,2,0,L|422:262,1,60.500000298023
316,204,45540,2,0,L|376:196,1,60.500000298023
314,25,46140,6,0,L|254:33,1,60.500000298023
210,146,46740,2,0,L|270:138,1,60.500000298023
420,156,47340,2,0,P|417:240|332:237,1,181.500000894069
200,124,48540,5,0,0:0:0:0:
224,212,48840,1,0,0:0:0:0:
303,257,49140,2,0,L|363:249,1,60.500000298023
284,120,49740,1,0,0:0:0:0:
196,144,50040,1,0,0:0:0:0:
151,223,50340,2,0,L|159:283,1,60.500000298023
288,204,50940,5,0,0:0:0:0:
264,116,51240,1,0,0:0:0:0:
185,71,51540,2,0,L|125:79,1,60.500000298023
272,40,52140,2,0,P|339:123|256:191,1,181.500000894069
164,284,53340,5,0,0:0:0:0:
64,216,53640,2,0,L|4:224,2,60.500000298023
173,163,54540,1,0,0:0:0:0:
120,54,54840,2,0,L|64:30,2,60.500000298023
272,116,55740,6,0,B|324:144|376:116|376:116|428:88|480:116,1,217.799994426154
460,267,58140,6,0,P|436:239|428:204,1,72.5999981420515
366,160,58740,2,0,P|393:136|428:128,1,72.5999981420515
428,52,59340,2,0,P|463:60|490:83,1,72.5999981420515
504,204,59940,1,0,0:0:0:0:
504,204,60240,1,0,0:0:0:0:
288,176,60540,6,0,P|252:184|225:207,1,72.5999981420515
354,290,61140,2,0,P|364:255|357:220,1,72.5999981420515
222,290,61740,2,0,P|246:316|280:328,1,72.5999981420515
391,279,62340,1,0,0:0:0:0:
391,279,62640,1,0,0:0:0:0:
176,244,62940,6,0,P|136:104|268:163,1,362.999990710257
189,165,64740,1,0,0:0:0:0:
189,165,65040,1,0,0:0:0:0:
404,200,65340,5,0,0:0:0:0:
470,104,65640,2,0,P|483:70|480:35,2,72.5999981420515
404,200,66540,1,0,0:0:0:0:
383,85,66840,2,0,P|369:51|341:29,2,72.5999981420515
420,300,67740,5,0,0:0:0:0:
320,256,68040,1,0,0:0:0:0:
312,252,68190,1,0,0:0:0:0:
304,248,68340,1,0,0:0:0:0:
408,191,68640,1,0,0:0:0:0:
408,191,68940,2,0,P|443:193|478:207,1,72.5999981420515
448,312,69540,1,0,0:0:0:0:
348,356,69840,1,0,0:0:0:0:
476,180,70140,5,0,0:0:0:0:
406,96,70440,1,0,0:0:0:0:
297,87,70740,1,0,0:0:0:0:
214,157,71040,1,0,0:0:0:0:
202,302,71340,2,0,P|224:330|256:345,1,72.5999981420515
340,238,71940,2,0,P|317:209|285:194,1,72.5999981420515
68,208,72540,5,0,0:0:0:0:
112,108,72840,1,0,0:0:0:0:
116,100,72990,1,0,0:0:0:0:
120,92,73140,1,0,0:0:0:0:
177,196,73440,1,0,0:0:0:0:
177,196,73740,2,0,P|175:231|161:266,1,72.5999981420515
56,236,74340,1,0,0:0:0:0:
12,136,74640,1,0,0:0:0:0:
188,264,74940,6,0,B|240:292|292:264|292:264|344:236|396:264,1,217.799994426154
444,296,75990,1,0,0:0:0:0:
444,296,76140,1,0,0:0:0:0:
279,100,77340,6,0,P|250:131|240:172,1,84.6999978323934
395,211,77940,2,0,P|364:182|324:172,1,84.6999978323934
284,327,78540,2,0,P|313:296|324:256,1,84.6999978323934
169,217,79140,1,0,0:0:0:0:
240,256,79440,1,0,0:0:0:0:
87,110,79740,5,0,0:0:0:0:
212,88,80040,1,0,0:0:0:0:
212,88,80340,6,0,P|252:98|283:127,1,84.6999978323934
285,215,80940,6,0,P|255:244|215:257,1,84.6999978323934
140,214,81540,1,0,0:0:0:0:
208,88,81840,1,0,0:0:0:0:
212,80,81990,1,0,0:0:0:0:
216,72,82140,2,0,B|197:53|175:53|175:53|154:53|135:72|135:93|135:93|135:133|175:133|216:173|216:173|256:133|296:133|296:93|296:93|296:72|277:53|256:53|256:53|234:53|216:72,1,423.499989161967
68,144,83940,1,0,0:0:0:0:
68,144,84240,1,0,0:0:0:0:
212,88,86040,2,0,P|296:172|212:256,1,254.09999349718
212,172,87240,1,0,0:0:0:0:
212,172,87540,1,0,0:0:0:0:
212,172,87840,1,0,0:0:0:0:
212,172,87840,1,0,0:0:0:0:
212,172,88440,1,0,0:0:0:0:
284,132,96540,6,0,B|293:126|305:129|305:129|316:132|322:142|319:153|319:153|314:173|295:168|270:182|270:182|256:157|237:152|242:133|242:133|245:121|255:115|266:119|266:119|278:122|284:132,1,217.799994426154
260,200,98940,1,0,0:0:0:0:
300,340,99240,1,0,0:0:0:0:
401,236,99540,1,0,0:0:0:0:
260,200,99840,1,0,0:0:0:0:
399,334,100140,1,0,0:0:0:0:
446,147,100440,1,0,0:0:0:0:
260,200,100740,1,0,0:0:0:0:
399,334,101040,1,0,0:0:0:0:
319,54,101340,1,0,0:0:0:0:
94,94,106140,5,0,0:0:0:0:
139,221,106440,1,0,0:0:0:0:
139,221,106740,2,0,L|248:240,2,108.899997213077
11,182,107640,2,0,P|70:220|132:220,1,108.899997213077
164,188,108090,2,0,P|232:149|296:168,1,108.899997213077
336,192,108540,2,0,B|364:288|364:288|336:384,2,163.349995819616
170,190,109740,2,0,B|140:288|140:288|170:382,2,163.349995819616
256,0,110940,1,0,0:0:0:0:
139,221,111240,1,0,0:0:0:0:
139,221,111540,2,0,L|268:252,2,108.899997213077
6,196,112440,5,0,0:0:0:0:
500,303,112890,1,0,0:0:0:0:
340,178,113190,1,0,0:0:0:0:
340,178,113340,2,0,B|368:272|368:272|340:370,2,163.349995819616
172,178,114540,2,0,B|140:272|140:272|172:370,2,163.349995819616
256,0,115740,1,0,0:0:0:0:
152,96,144540,6,0,P|192:84|232:96,1,84.6999978323934
352,308,145140,2,0,P|312:320|272:308,1,84.6999978323934
64,188,145740,1,0,0:0:0:0:
64,188,146040,2,0,P|104:176|144:188,1,84.6999978323934
248,320,146640,1,0,0:0:0:0:
248,320,146940,2,0,B|360:356|352:272|352:272|416:276|380:168,1,254.09999349718
280,88,148740,1,0,0:0:0:0:
288,96,148890,2,0,L|304:112,2,21.1749994580984
232,40,149190,1,0,0:0:0:0:
223,36,149340,6,0,P|186:34|124:92,1,108.899997213077
264,189,149940,2,0,P|283:157|263:69,1,89.9999976110456
110,148,150540,2,0,P|126:180|212:206,1,89.9999976110456
345,255,151140,1,0,0:0:0:0:
345,255,151440,1,0,0:0:0:0:
147,362,151740,6,0,P|111:373|32:331,1,89.9999976110456
105,283,152340,2,0,P|77:258|74:168,1,89.9999976110456
152,206,152940,2,0,P|160:170|236:122,1,89.9999976110456
392,22,153540,1,0,0:0:0:0:
392,22,153840,6,0,P|307:190|337:4,1,539.999985666274
336,99,155940,1,0,0:0:0:0:
336,99,156240,1,0,0:0:0:0:
321,233,156540,5,0,0:0:0:0:
452,198,156840,2,0,P|484:180|511:95,2,89.9999976110456
321,233,157740,5,0,0:0:0:0:
378,110,158040,2,0,P|385:73|337:-2,2,89.9999976110456
321,233,158940,5,0,0:0:0:0:
263,110,159240,2,0,P|240:80|151:69,1,89.9999976110456
118,175,159840,1,0,0:0:0:0:
118,175,160140,2,0,P|140:204|229:215,1,89.9999976110456
324,226,160740,1,0,0:0:0:0:
324,226,161040,1,0,0:0:0:0:
425,77,161340,6,0,P|452:52|541:56,2,89.9999976110456
335,90,162240,1,0,0:0:0:0:
335,90,162540,2,0,P|299:78|258:-2,1,89.9999976110456
393,161,163140,2,0,P|400:197|352:272,1,89.9999976110456
191,361,163740,1,0,0:0:0:0:
191,361,164040,2,0,P|155:349|114:269,1,89.9999976110456
230,230,164640,1,0,0:0:0:0:
230,231,164940,2,0,P|202:196|160:181,1,89.9999976110456
25,181,165540,1,0,0:0:0:0:
25,182,165840,1,0,0:0:0:0:
215,302,166140,6,0,P|285:197|209:198,1,269.999992833137
157,250,167190,1,0,0:0:0:0:
157,250,167340,1,0,0:0:0:0:
256,96,254940,5,0,0:0:0:0:
256,128,255540,1,0,0:0:0:0:
256,160,256140,1,0,0:0:0:0:
256,192,256740,1,0,0:0:0:0:
96,288,257040,1,0,0:0:0:0:
96,96,257340,1,0,0:0:0:0:
96,128,257940,1,0,0:0:0:0:
96,160,258540,1,0,0:0:0:0:
96,192,259140,1,0,0:0:0:0:
256,288,259440,1,0,0:0:0:0:
256,96,259740,5,0,0:0:0:0:
256,128,260340,1,0,0:0:0:0:
256,160,260940,1,0,0:0:0:0:
256,192,261540,1,0,0:0:0:0:
416,288,261840,1,0,0:0:0:0:
416,96,262140,1,0,0:0:0:0:
416,128,262740,1,0,0:0:0:0:
416,160,263340,1,0,0:0:0:0:
416,192,263940,1,0,0:0:0:0:
256,96,264540,5,0,0:0:0:0:
256,128,265140,1,0,0:0:0:0:
256,160,265740,1,0,0:0:0:0:
256,192,266340,1,0,0:0:0:0:
416,288,266640,1,0,0:0:0:0:
416,96,266940,1,0,0:0:0:0:
416,128,267540,1,0,0:0:0:0:
416,160,268140,1,0,0:0:0:0:
416,192,268740,1,0,0:0:0:0:
256,288,269040,1,0,0:0:0:0:
256,96,269340,5,0,0:0:0:0:
256,128,269940,1,0,0:0:0:0:
256,160,270540,1,0,0:0:0:0:
256,192,271140,1,0,0:0:0:0:
96,288,271440,1,0,0:0:0:0:
96,96,271740,1,0,0:0:0:0:
96,128,272340,1,0,0:0:0:0:
96,160,272940,1,0,0:0:0:0:
96,192,273540,1,0,0:0:0:0:
256,192,315240,12,0,332340,0:0:0:0:
256,192,334440,12,0,345840,0:0:0:0:
