osu file format v14

[General]
AudioFilename: audio.mp3
AudioLeadIn: 0
PreviewTime: 231491
Countdown: 1
SampleSet: Soft
StackLeniency: 0.2
Mode: 0
LetterboxInBreaks: 0
WidescreenStoryboard: 0

[Editor]
DistanceSpacing: 1.4
BeatDivisor: 4
GridSize: 32
TimelineZoom: 1.4

[Metadata]
Title:Dreamscape - Zircon Remix (feat. Hatsune Miku)
TitleUnicode:Dreamscape - Zircon Remix (feat. Hatsune Miku)
Artist:Clean Tears
ArtistUnicode:Clean Tears
Creator:Jensen
Version:doo du doo du doo du
Source:
Tags:
BeatmapID:1801752
BeatmapSetID:861216

[Difficulty]
HPDrainRate:5
CircleSize:6
OverallDifficulty:9
ApproachRate:9.3
SliderMultiplier:1.5
SliderTickRate:1

[Events]
//Background and Video events
0,0,"original-building-city-kentarou-landscape-scenic-wallpaper-1.jpg",0,0
//Break Periods
2,86914,92493
2,94025,99604
2,199913,213382
//Storyboard Layer 0 (Background)
//Storyboard Layer 1 (Fail)
//Storyboard Layer 2 (Pass)
//Storyboard Layer 3 (Foreground)
//Storyboard Sound Samples

[TimingPoints]
603,444.444444444444,4,2,0,80,1,0
14825,-76.9230769230769,4,2,0,80,0,0
15269,-100,4,2,0,80,0,0
29047,-76.9230769230769,4,2,0,80,0,0
32602,-200,4,2,0,80,0,0
35714,-200,4,2,0,80,0,0
37936,-76.9230769230769,4,2,0,80,0,0
39714,-200,4,2,0,80,0,0
41491,-200,4,2,0,80,0,0
42158,-200,4,2,0,80,0,0
42825,-66.6666666666667,4,2,0,80,0,0
43825,-200,4,2,0,80,0,0
44936,-76.9230769230769,4,2,0,80,0,0
48602,-133.333333333333,4,2,0,80,0,0
55714,-90.9090909090909,4,2,0,80,0,0
56380,-66.6666666666667,4,2,0,80,0,0
57047,-100,4,2,0,80,0,0
57491,-76.9230769230769,4,2,0,80,0,0
77047,-133.333333333333,4,2,0,80,0,0
77714,-100,4,2,0,80,0,0
82602,-66.6666666666667,4,2,0,80,0,0
85491,-133.333333333333,4,2,0,80,0,0
85936,-133.333333333333,4,2,0,80,0,0
86714,-100,4,2,0,80,0,0
88602,-133.333333333333,4,2,0,80,0,0
88936,-100,4,2,0,80,0,0
100158,-133.333333333333,4,2,0,80,0,0
101936,-100,4,2,0,80,0,0
106158,-100,4,2,0,80,0,0
108158,-83.3333333333333,4,2,0,80,0,0
109047,-100,4,2,0,80,0,0
111491,-333.333333333333,4,2,0,80,0,0
112602,-133.333333333333,4,2,0,80,0,0
113269,-100,4,2,0,80,0,0
113491,-76.9230769230769,4,2,0,80,0,0
119714,-66.6666666666667,4,2,0,80,0,0
120380,-83.3333333333333,4,2,0,80,0,0
126825,-66.6666666666667,4,2,0,80,0,0
128602,-83.3333333333333,4,2,0,80,0,0
142825,-76.9230769230769,4,2,0,80,0,0
144158,-76.9230769230769,4,2,0,80,0,0
153491,-100,4,2,0,80,0,0
154158,-76.9230769230769,4,2,0,80,0,0
154825,-66.6666666666667,4,2,0,80,0,0
164158,-83.3333333333333,4,2,0,80,0,0
165491,-76.9230769230769,4,2,0,80,0,0
169714,-133.333333333333,4,2,0,80,0,0
169936,-76.9230769230769,4,2,0,80,0,0
170380,-100,4,2,0,80,0,0
170825,-200,4,2,0,80,0,0
171269,-500,4,2,0,80,0,0
186602,-1000,4,2,0,80,0,0
213936,-181.818181818181,4,2,0,80,0,0
229936,-50,4,2,0,80,0,0
231714,-66.6666666666667,4,2,0,80,0,0
234825,-50,4,2,0,80,0,0
237269,-100,4,2,0,80,0,0
237491,-45.4545454545455,4,2,0,80,0,0
237936,-33.3333333333333,4,2,0,80,0,0
238825,-50,4,2,0,80,0,0

[HitObjects]
122,136,29047,6,0,L|170:134,1,48.7499977684022
229,132,29269,1,0,0:0:0:0:
136,74,29380,1,0,0:0:0:0:
184,77,29491,6,0,L|136:74,1,48.7499977684022
171,134,29713,2,0,L|174:182,1,48.7499977684022
133,262,29936,2,0,L|181:265,1,48.7499977684022
253,269,30158,5,0,0:0:0:0:
283,192,30269,1,0,0:0:0:0:
248,257,30380,5,0,0:0:0:0:
295,322,30491,1,0,0:0:0:0:
260,260,30602,5,0,0:0:0:0:
181,265,30713,1,0,0:0:0:0:
99,217,30825,6,0,P|83:237|78:280,1,48.7499977684022
58,369,31047,2,0,P|48:345|13:319,1,48.7499977684022
6,270,31269,5,0,0:0:0:0:
11,252,31380,1,0,0:0:0:0:
22,219,31491,5,0,0:0:0:0:
17,201,31602,1,0,0:0:0:0:
0,172,31714,5,0,0:0:0:0:
21,116,31825,1,0,0:0:0:0:
15,71,31936,5,0,0:0:0:0:
58,24,32047,1,0,0:0:0:0:
77,47,32158,5,0,0:0:0:0:
145,72,32269,5,0,0:0:0:0:
164,68,32380,5,0,0:0:0:0:
209,8,32491,5,0,0:0:0:0:
280,39,32602,2,0,L|311:42,1,18.75
368,38,32825,5,0,0:0:0:0:
374,54,32936,1,0,0:0:0:0:
387,41,33047,5,0,0:0:0:0:
388,58,33158,1,0,0:0:0:0:
405,50,33269,5,0,0:0:0:0:
401,66,33380,1,0,0:0:0:0:
423,64,33491,5,0,0:0:0:0:
414,78,33602,1,0,0:0:0:0:
432,77,33714,5,0,0:0:0:0:
421,85,33825,1,0,0:0:0:0:
432,88,33936,5,0,0:0:0:0:
421,91,34047,1,0,0:0:0:0:
432,89,34158,5,0,0:0:0:0:
420,89,34269,1,0,0:0:0:0:
431,91,34380,5,0,0:0:0:0:
421,87,34491,1,0,0:0:0:0:
430,93,34602,5,0,0:0:0:0:
422,85,34713,1,0,0:0:0:0:
428,94,34825,5,0,0:0:0:0:
424,84,34936,1,0,0:0:0:0:
427,95,35047,5,0,0:0:0:0:
425,83,35158,1,0,0:0:0:0:
432,99,35269,5,0,0:0:0:0:
434,87,35380,1,0,0:0:0:0:
437,105,35491,5,0,0:0:0:0:
442,94,35602,1,0,0:0:0:0:
447,102,35714,6,0,L|437:118,1,18.75
372,166,35936,2,0,L|372:146,1,18.75
370,34,36158,5,0,0:0:0:0:
369,73,36269,1,0,0:0:0:0:
340,27,36380,5,0,0:0:0:0:
349,64,36491,1,0,0:0:0:0:
310,22,36602,5,0,0:0:0:0:
322,58,36713,1,0,0:0:0:0:
282,28,36825,5,0,0:0:0:0:
295,59,36936,1,0,0:0:0:0:
258,41,37047,5,0,0:0:0:0:
270,64,37158,1,0,0:0:0:0:
238,54,37269,5,0,0:0:0:0:
242,74,37380,1,0,0:0:0:0:
215,65,37491,5,0,0:0:0:0:
216,76,37602,1,0,0:0:0:0:
202,69,37714,5,0,0:0:0:0:
201,74,37825,1,0,0:0:0:0:
194,77,37936,6,0,P|218:87|239:109,1,48.7499977684022
129,138,38158,2,0,P|107:154|78:161,1,48.7499977684022
27,128,38380,5,0,0:0:0:0:
31,114,38491,1,0,0:0:0:0:
43,89,38602,5,0,0:0:0:0:
39,75,38713,1,0,0:0:0:0:
26,45,38825,5,0,0:0:0:0:
40,41,38936,1,0,0:0:0:0:
102,17,39047,5,0,0:0:0:0:
106,31,39158,1,0,0:0:0:0:
160,70,39269,5,0,0:0:0:0:
135,138,39380,5,0,0:0:0:0:
139,157,39491,5,0,0:0:0:0:
199,202,39602,5,0,0:0:0:0:
168,273,39714,5,0,0:0:0:0:
165,293,39825,1,0,0:0:0:0:
170,273,39936,5,0,0:0:0:0:
162,292,40047,1,0,0:0:0:0:
172,275,40158,5,0,0:0:0:0:
160,290,40269,1,0,0:0:0:0:
174,276,40380,5,0,0:0:0:0:
158,289,40491,1,0,0:0:0:0:
96,300,40602,5,0,0:0:0:0:
80,313,40713,1,0,0:0:0:0:
63,335,40825,5,0,0:0:0:0:
44,267,40936,1,0,0:0:0:0:
78,188,41047,5,0,0:0:0:0:
59,256,41158,1,0,0:0:0:0:
0,229,41269,5,0,0:0:0:0:
79,255,41380,1,0,0:0:0:0:
158,229,41491,2,0,B|182:226|182:226|209:231|209:231|241:221,1,75
299,137,42158,2,0,L|291:223,1,75
235,226,42825,6,0,B|288:246|287:208|345:224,1,112.500004291535
421,253,43269,6,0,L|423:205,1,48.7499977684022
366,145,43491,5,0,0:0:0:0:
363,132,43602,1,0,0:0:0:0:
317,86,43714,5,0,0:0:0:0:
310,70,43825,2,0,L|341:74,1,18.75
410,75,44047,5,0,0:0:0:0:
410,75,44269,5,0,0:0:0:0:
402,98,44380,1,0,0:0:0:0:
382,164,44491,5,0,0:0:0:0:
366,145,44602,1,0,0:0:0:0:
297,142,44714,5,0,0:0:0:0:
261,128,44825,1,0,0:0:0:0:
193,155,44936,5,0,0:0:0:0:
142,103,45047,6,0,P|124:101|92:111,1,48.7499977684022
0,155,45269,2,0,P|14:165|47:173,1,48.7499977684022
107,204,45491,5,0,0:0:0:0:
104,225,45602,1,0,0:0:0:0:
113,252,45714,5,0,0:0:0:0:
106,276,45825,1,0,0:0:0:0:
78,300,45936,5,0,0:0:0:0:
86,354,46047,1,0,0:0:0:0:
114,346,46158,5,0,0:0:0:0:
168,378,46269,5,0,0:0:0:0:
214,323,46380,5,0,0:0:0:0:
241,333,46491,5,0,0:0:0:0:
306,298,46602,5,0,0:0:0:0:
331,359,46714,1,0,0:0:0:0:
388,329,46825,5,0,0:0:0:0:
394,350,46936,1,0,0:0:0:0:
391,328,47047,5,0,0:0:0:0:
390,350,47158,1,0,0:0:0:0:
395,329,47269,5,0,0:0:0:0:
386,349,47380,1,0,0:0:0:0:
398,331,47491,5,0,0:0:0:0:
383,347,47602,1,0,0:0:0:0:
338,315,47714,5,0,0:0:0:0:
318,324,47825,1,0,0:0:0:0:
303,353,47936,5,0,0:0:0:0:
281,354,48047,1,0,0:0:0:0:
237,312,48158,5,0,0:0:0:0:
215,311,48269,1,0,0:0:0:0:
198,329,48380,5,0,0:0:0:0:
187,328,48491,1,0,0:0:0:0:
135,350,48602,6,0,B|169:350|169:350|208:361|208:361|247:361,1,112.500004291535
381,384,49269,6,0,B|420:303|346:294|385:215,1,168.750006437302
456,260,50158,1,0,0:0:0:0:
392,137,50380,5,0,0:0:0:0:
396,156,50491,1,0,0:0:0:0:
411,143,50602,5,0,0:0:0:0:
410,165,50713,1,0,0:0:0:0:
435,151,50825,5,0,0:0:0:0:
428,175,50936,1,0,0:0:0:0:
458,167,51047,5,0,0:0:0:0:
443,191,51158,1,0,0:0:0:0:
478,187,51269,5,0,0:0:0:0:
453,210,51380,1,0,0:0:0:0:
491,219,51491,5,0,0:0:0:0:
460,234,51602,1,0,0:0:0:0:
496,252,51714,5,0,0:0:0:0:
462,258,51825,1,0,0:0:0:0:
492,291,51936,5,0,0:0:0:0:
457,287,52047,1,0,0:0:0:0:
395,269,52158,5,0,0:0:0:0:
399,304,52269,1,0,0:0:0:0:
371,259,52380,5,0,0:0:0:0:
365,293,52491,1,0,0:0:0:0:
352,248,52602,5,0,0:0:0:0:
340,273,52713,1,0,0:0:0:0:
343,234,52825,5,0,0:0:0:0:
328,250,52936,1,0,0:0:0:0:
337,216,53047,5,0,0:0:0:0:
318,227,53158,1,0,0:0:0:0:
331,193,53269,5,0,0:0:0:0:
316,209,53380,1,0,0:0:0:0:
329,172,53491,5,0,0:0:0:0:
320,192,53602,1,0,0:0:0:0:
331,151,53714,5,0,0:0:0:0:
329,172,53825,1,0,0:0:0:0:
398,206,53936,5,0,0:0:0:0:
396,174,54047,1,0,0:0:0:0:
426,191,54158,5,0,0:0:0:0:
415,160,54269,1,0,0:0:0:0:
449,172,54380,5,0,0:0:0:0:
430,144,54491,1,0,0:0:0:0:
465,148,54602,5,0,0:0:0:0:
439,125,54713,1,0,0:0:0:0:
476,116,54825,5,0,0:0:0:0:
438,97,54936,1,0,0:0:0:0:
478,79,55047,5,0,0:0:0:0:
436,70,55158,1,0,0:0:0:0:
479,40,55269,5,0,0:0:0:0:
432,42,55380,1,0,0:0:0:0:
470,3,55491,5,0,0:0:0:0:
425,17,55602,1,0,0:0:0:0:
350,34,55714,6,0,B|361:12|361:12|363:52|363:52|379:80|379:80|371:113|371:113|376:147,1,165.000005035401
438,197,56380,6,0,B|404:192|375:147|375:147|391:233|327:212|331:302,1,225.000008583069
298,373,57047,6,0,B|313:364|325:348|325:348|332:366|355:385,1,75
450,243,57491,6,0,P|445:211|429:186,1,48.7499977684022
365,104,57714,2,0,P|370:136|386:161,1,48.7499977684022
435,111,57936,5,0,0:0:0:0:
484,108,58047,2,0,L|423:112,1,48.7499977684022
297,114,58269,5,0,0:0:0:0:
294,66,58380,2,0,L|298:127,1,48.7499977684022
293,186,58603,5,0,0:0:0:0:
370,216,58714,1,0,0:0:0:0:
305,181,58825,5,0,0:0:0:0:
240,228,58936,1,0,0:0:0:0:
302,193,59047,5,0,0:0:0:0:
297,114,59158,1,0,0:0:0:0:
309,250,59269,6,0,L|313:303,1,48.7499977684022
231,331,59491,2,0,L|182:327,1,48.7499977684022
114,328,59714,5,0,0:0:0:0:
95,322,59825,1,0,0:0:0:0:
72,303,59936,5,0,0:0:0:0:
53,309,60047,1,0,0:0:0:0:
3,348,60158,5,0,0:0:0:0:
0,339,60269,1,0,0:0:0:0:
0,265,60380,5,0,0:0:0:0:
16,229,60491,1,0,0:0:0:0:
14,214,60602,5,0,0:0:0:0:
52,153,60714,5,0,0:0:0:0:
75,163,60825,5,0,0:0:0:0:
139,135,60936,5,0,0:0:0:0:
87,95,61047,5,0,0:0:0:0:
81,75,61158,1,0,0:0:0:0:
85,95,61269,5,0,0:0:0:0:
82,74,61380,1,0,0:0:0:0:
83,95,61491,5,0,0:0:0:0:
84,74,61602,1,0,0:0:0:0:
81,95,61713,5,0,0:0:0:0:
86,74,61824,1,0,0:0:0:0:
57,88,61936,5,0,0:0:0:0:
66,69,62047,1,0,0:0:0:0:
37,72,62158,5,0,0:0:0:0:
48,55,62269,1,0,0:0:0:0:
25,53,62380,5,0,0:0:0:0:
40,38,62491,1,0,0:0:0:0:
24,52,62602,5,0,0:0:0:0:
41,39,62713,1,0,0:0:0:0:
29,44,62825,6,0,B|15:22|15:22|54:29|54:29|88:12|88:12|127:28|127:28|179:24,1,194.999991073609
279,72,63491,6,0,B|264:57|260:32|260:32|242:116|192:73|187:171,1,194.999991073609
324,168,64158,6,0,P|343:182|366:188,3,48.7499977684022
446,179,64602,5,0,0:0:0:0:
427,175,64713,1,0,0:0:0:0:
440,160,64824,5,0,0:0:0:0:
418,161,64935,1,0,0:0:0:0:
432,136,65047,5,0,0:0:0:0:
408,143,65158,1,0,0:0:0:0:
416,113,65269,5,0,0:0:0:0:
392,128,65380,1,0,0:0:0:0:
396,93,65491,5,0,0:0:0:0:
373,118,65602,1,0,0:0:0:0:
364,80,65713,5,0,0:0:0:0:
349,111,65824,1,0,0:0:0:0:
331,75,65936,5,0,0:0:0:0:
325,109,66047,1,0,0:0:0:0:
292,79,66158,5,0,0:0:0:0:
296,114,66269,1,0,0:0:0:0:
229,118,66380,5,0,0:0:0:0:
230,146,66491,1,0,0:0:0:0:
199,117,66602,5,0,0:0:0:0:
197,144,66713,1,0,0:0:0:0:
170,107,66825,5,0,0:0:0:0:
165,133,66936,1,0,0:0:0:0:
144,97,67047,5,0,0:0:0:0:
138,117,67158,1,0,0:0:0:0:
129,83,67269,5,0,0:0:0:0:
121,97,67380,1,0,0:0:0:0:
118,74,67491,5,0,0:0:0:0:
110,84,67602,1,0,0:0:0:0:
113,64,67714,5,0,0:0:0:0:
105,71,67825,1,0,0:0:0:0:
113,57,67936,5,0,0:0:0:0:
104,63,68047,1,0,0:0:0:0:
113,56,68158,5,0,0:0:0:0:
103,63,68269,1,0,0:0:0:0:
114,55,68380,5,0,0:0:0:0:
102,64,68491,1,0,0:0:0:0:
115,55,68602,5,0,0:0:0:0:
101,64,68713,1,0,0:0:0:0:
116,54,68825,5,0,0:0:0:0:
100,65,68936,1,0,0:0:0:0:
118,53,69047,5,0,0:0:0:0:
98,66,69158,1,0,0:0:0:0:
119,52,69269,5,0,0:0:0:0:
97,67,69380,1,0,0:0:0:0:
120,51,69491,5,0,0:0:0:0:
96,68,69602,1,0,0:0:0:0:
122,50,69714,5,0,0:0:0:0:
94,69,69825,1,0,0:0:0:0:
75,92,69936,6,0,P|156:69|157:154,1,194.999991073609
76,231,70602,6,0,B|109:149|39:170|74:92|74:92|50:81|50:53,1,194.999991073609
157,154,71269,6,0,B|185:158|204:146|204:146|213:164|240:175,1,97.4999955368044
338,149,71714,6,0,L|333:212,1,48.7499977684022
410,290,71936,2,0,L|405:227,1,48.7499977684022
332,277,72158,2,0,P|305:278|277:289,1,48.7499977684022
234,331,72380,5,0,0:0:0:0:
208,345,72491,1,0,0:0:0:0:
179,348,72602,1,0,0:0:0:0:
151,340,72713,1,0,0:0:0:0:
131,316,72825,5,0,0:0:0:0:
74,337,72936,1,0,0:0:0:0:
19,302,73047,5,0,0:0:0:0:
76,323,73158,1,0,0:0:0:0:
122,252,73269,5,0,0:0:0:0:
179,231,73380,1,0,0:0:0:0:
245,248,73491,6,0,P|283:245|307:250,1,48.7499977684022
403,301,73714,2,0,P|381:269|373:246,1,48.7499977684022
357,148,73936,5,0,0:0:0:0:
351,167,74047,1,0,0:0:0:0:
332,190,74158,5,0,0:0:0:0:
338,209,74269,1,0,0:0:0:0:
377,259,74380,5,0,0:0:0:0:
368,262,74491,1,0,0:0:0:0:
294,262,74602,5,0,0:0:0:0:
258,246,74713,1,0,0:0:0:0:
243,248,74824,5,0,0:0:0:0:
181,210,74936,5,0,0:0:0:0:
192,187,75047,5,0,0:0:0:0:
164,123,75158,5,0,0:0:0:0:
124,175,75269,5,0,0:0:0:0:
117,167,75380,1,0,0:0:0:0:
122,175,75491,5,0,0:0:0:0:
118,166,75602,1,0,0:0:0:0:
121,176,75714,5,0,0:0:0:0:
119,165,75825,1,0,0:0:0:0:
120,176,75936,5,0,0:0:0:0:
120,165,76047,1,0,0:0:0:0:
100,174,76158,5,0,0:0:0:0:
104,163,76269,1,0,0:0:0:0:
79,166,76380,5,0,0:0:0:0:
85,157,76491,1,0,0:0:0:0:
58,153,76602,5,0,0:0:0:0:
66,146,76713,1,0,0:0:0:0:
57,152,76825,5,0,0:0:0:0:
67,147,76936,1,0,0:0:0:0:
67,147,77047,6,0,P|39:192|56:252,1,112.500004291535
155,228,77714,6,0,B|183:218|195:187|195:187|277:245|259:167|359:208,1,225
302,291,78602,5,0,0:0:0:0:
302,291,78825,5,0,0:0:0:0:
321,287,78936,1,0,0:0:0:0:
308,272,79047,5,0,0:0:0:0:
330,273,79158,1,0,0:0:0:0:
316,248,79270,5,0,0:0:0:0:
340,255,79381,1,0,0:0:0:0:
332,225,79492,5,0,0:0:0:0:
356,240,79603,1,0,0:0:0:0:
352,205,79714,5,0,0:0:0:0:
375,230,79825,1,0,0:0:0:0:
384,192,79936,5,0,0:0:0:0:
399,223,80047,1,0,0:0:0:0:
417,187,80159,5,0,0:0:0:0:
423,221,80270,1,0,0:0:0:0:
456,191,80381,5,0,0:0:0:0:
452,226,80492,1,0,0:0:0:0:
434,288,80603,5,0,0:0:0:0:
469,284,80714,1,0,0:0:0:0:
424,312,80825,5,0,0:0:0:0:
458,318,80936,1,0,0:0:0:0:
413,331,81047,5,0,0:0:0:0:
438,343,81158,1,0,0:0:0:0:
399,340,81270,5,0,0:0:0:0:
415,355,81381,1,0,0:0:0:0:
381,346,81492,5,0,0:0:0:0:
392,365,81603,1,0,0:0:0:0:
358,352,81714,5,0,0:0:0:0:
374,367,81825,1,0,0:0:0:0:
337,354,81936,5,0,0:0:0:0:
357,363,82047,1,0,0:0:0:0:
316,352,82159,5,0,0:0:0:0:
337,354,82270,1,0,0:0:0:0:
371,285,82381,1,0,0:0:0:0:
241,278,82602,6,0,L|313:282,1,56.2500021457673
345,95,83047,5,0,0:0:0:0:
341,151,83158,1,0,0:0:0:0:
337,207,83269,2,0,L|223:211,1,112.500004291535
159,213,83602,5,0,0:0:0:0:
102,273,83936,5,0,0:0:0:0:
102,273,84047,1,0,0:0:0:0:
96,281,84158,2,0,B|73:259|73:259|78:294|78:294|105:332|105:332|136:327|136:327|172:346|172:346|223:354|223:354,1,225.000008583069
351,320,84825,6,0,P|304:271|331:349,1,225.000008583069
427,367,85380,5,0,0:0:0:0:
427,367,85491,2,0,L|434:295,1,56.2500021457673
440,240,85936,5,0,0:0:0:0:
443,214,86158,1,0,0:0:0:0:
351,110,86380,5,0,0:0:0:0:
359,173,86602,5,0,0:0:0:0:
453,84,86714,1,0,0:0:0:0:
91,235,93047,5,0,0:0:0:0:
132,217,93269,1,0,0:0:0:0:
260,133,93491,5,0,0:0:0:0:
186,110,93713,5,0,0:0:0:0:
200,260,93825,1,0,0:0:0:0:
233,23,100158,5,0,0:0:0:0:
248,91,100380,1,0,0:0:0:0:
247,99,100602,1,0,0:0:0:0:
247,161,100825,1,0,0:0:0:0:
234,162,100936,1,0,0:0:0:0:
178,170,101047,6,0,P|225:187|252:181,1,56.2500021457673
347,158,101380,2,0,P|316:178|304:215,1,56.2500021457673
328,273,101714,1,0,0:0:0:0:
324,374,102158,6,0,B|322:354|322:354|330:315,1,37.5
396,264,102380,2,0,B|397:241|397:241|392:210,1,37.5
313,128,102602,2,0,B|328:144|328:144|353:159,1,37.5
421,146,102825,6,0,P|465:138|504:153,1,75
455,209,103158,2,0,P|445:172|401:137,1,75
373,94,103491,1,0,0:0:0:0:
290,32,103936,6,0,L|246:34,1,37.5
164,85,104158,2,0,L|120:80,1,37.5
17,22,104380,2,0,L|19:73,1,37.5
12,205,104602,6,0,P|38:168|84:161,1,75
91,188,104936,2,0,P|137:175|183:198,1,75
196,245,105269,2,0,P|184:224|159:208,1,37.5
128,290,105491,6,0,B|110:286|110:286|132:319|132:319|139:355,1,75
224,353,105825,2,0,B|263:358|256:333|307:340,1,75
402,353,106158,6,0,B|430:317|398:315|438:273|438:273|325:278|358:229|302:201|302:201|328:210|358:207,1,300
421,192,107269,6,0,P|440:183|468:187,1,37.5
351,140,107491,2,0,P|333:128|323:101,1,37.5
316,37,107714,1,0,0:0:0:0:
321,31,107936,5,0,0:0:0:0:
274,82,108047,1,0,0:0:0:0:
346,61,108158,6,0,B|301:44|301:80|245:60,1,89.9999972534181
141,46,108491,2,0,P|177:76|182:120,1,89.9999972534181
145,193,108825,1,0,0:0:0:0:
145,193,109269,6,0,L|149:231,1,37.5
228,273,109491,2,0,L|224:311,1,37.5
152,381,109714,2,0,L|114:385,1,37.5
3,384,109936,6,0,B|16:352|-12:347|9:303,1,75
9,208,110269,2,0,B|45:219|45:219|62:250,1,75
85,328,110602,2,0,L|126:323,1,37.5
188,270,110825,6,0,P|214:307|260:314,1,75
267,287,111159,2,0,P|313:300|359:277,1,75
377,213,111492,6,0,P|360:251|335:267,1,67.4999979400635
246,232,112380,5,0,0:0:0:0:
200,191,112491,1,0,0:0:0:0:
176,139,112602,6,0,P|203:134|246:157,1,56.2500021457673
291,101,112936,2,0,P|316:110|342:151,1,56.2500021457673
424,202,113269,2,0,P|418:174|400:153,1,37.5
369,32,113491,6,0,B|318:52|318:16|259:36,1,97.4999955368044
163,49,113825,2,0,B|152:46|138:33|138:33|146:76|127:115,1,97.4999955368044
21,69,114158,5,0,0:0:0:0:
91,251,114380,6,0,P|123:246|148:230,1,48.7499977684022
230,166,114603,2,0,P|198:171|173:187,1,48.7499977684022
226,285,114825,2,0,L|222:224,1,48.7499977684022
216,102,115047,5,0,0:0:0:0:
300,206,115158,1,0,0:0:0:0:
257,150,115269,6,0,P|289:145|314:129,1,48.7499977684022
330,75,115491,5,0,0:0:0:0:
378,78,115602,1,0,0:0:0:0:
427,82,115713,1,0,0:0:0:0:
417,52,115825,5,0,0:0:0:0:
415,115,115936,1,0,0:0:0:0:
413,178,116047,1,0,0:0:0:0:
412,242,116158,6,0,P|374:245|350:240,1,48.7499977684022
254,189,116381,2,0,P|276:221|284:244,1,48.7499977684022
300,342,116603,5,0,0:0:0:0:
306,323,116714,1,0,0:0:0:0:
325,300,116825,5,0,0:0:0:0:
319,281,116936,1,0,0:0:0:0:
280,231,117047,5,0,0:0:0:0:
289,228,117158,1,0,0:0:0:0:
327,179,117269,5,0,0:0:0:0:
316,175,117380,1,0,0:0:0:0:
265,146,117491,5,0,0:0:0:0:
207,139,117602,5,0,0:0:0:0:
151,154,117713,5,0,0:0:0:0:
105,190,117824,5,0,0:0:0:0:
77,243,117936,6,0,P|75:278|61:297,1,48.7499977684022
40,177,118158,2,0,P|10:157|1:136,1,48.7499977684022
63,58,118380,1,0,0:0:0:0:
66,10,118491,2,0,L|63:65,1,48.7499977684022
72,121,118714,5,0,0:0:0:0:
82,129,118825,1,0,0:0:0:0:
147,118,118936,5,0,0:0:0:0:
156,100,119047,1,0,0:0:0:0:
180,89,119158,5,0,0:0:0:0:
222,83,119269,5,0,0:0:0:0:
262,122,119380,5,0,0:0:0:0:
250,178,119491,5,0,0:0:0:0:
197,198,119602,5,0,0:0:0:0:
137,173,119714,6,0,B|119:171|104:155|104:155|119:196|119:196|104:215|104:215|114:244|114:244|103:289|103:289|117:351,1,225.000008583069
172,295,120380,6,0,B|151:265|113:263|113:263|254:231|219:370|393:322,1,359.999989013672
494,350,121491,6,0,P|462:345|437:329,1,48.7499977684022
372,267,121714,2,0,P|404:272|429:288,1,48.7499977684022
333,336,121936,2,0,L|272:332,1,48.7499977684022
204,332,122158,5,0,0:0:0:0:
299,253,122269,1,0,0:0:0:0:
203,250,122380,6,0,P|211:264|235:278,1,44.999998626709
250,205,122602,5,0,0:0:0:0:
250,169,122713,1,0,0:0:0:0:
272,141,122824,1,0,0:0:0:0:
291,164,122936,5,0,0:0:0:0:
234,153,123047,1,0,0:0:0:0:
190,115,123158,1,0,0:0:0:0:
170,61,123269,6,0,P|172:23|157:2,1,44.999998626709
62,10,123491,2,0,P|81:25|120:28,1,44.999998626709
169,18,123714,5,0,0:0:0:0:
189,14,123825,1,0,0:0:0:0:
204,28,123936,5,0,0:0:0:0:
221,32,124047,1,0,0:0:0:0:
281,26,124158,5,0,0:0:0:0:
309,15,124269,1,0,0:0:0:0:
338,43,124380,5,0,0:0:0:0:
393,25,124491,1,0,0:0:0:0:
383,1,124602,5,0,0:0:0:0:
381,59,124713,1,0,0:0:0:0:
379,117,124824,1,0,0:0:0:0:
377,176,124935,1,0,0:0:0:0:
375,235,125047,6,0,P|369:250|374:277,1,44.999998626709
460,343,125269,2,0,P|449:330|423:320,1,44.999998626709
307,320,125491,1,0,0:0:0:0:
262,317,125602,2,0,L|312:320,1,44.999998626709
330,382,125825,1,0,0:0:0:0:
375,379,125936,2,0,L|325:382,1,44.999998626709
249,383,126158,5,0,0:0:0:0:
230,375,126269,1,0,0:0:0:0:
186,327,126380,5,0,0:0:0:0:
167,335,126491,1,0,0:0:0:0:
107,363,126602,5,0,0:0:0:0:
88,355,126713,1,0,0:0:0:0:
54,360,126825,6,0,B|49:302|49:302|67:214|67:214|59:132,1,225.000008583069
115,33,127491,6,0,B|113:15|113:15|127:30|147:37|147:37|129:67|129:67|141:109|141:109|122:159|136:205,1,225.000008583069
199,169,128158,6,0,B|254:194|264:149|309:171,1,112.500004291535
381,97,128602,6,0,L|377:155,1,44.999998626709
371,258,128825,2,0,L|367:200,1,44.999998626709
448,231,129047,2,0,P|475:232|507:244,1,44.999998626709
462,289,129269,5,0,0:0:0:0:
445,168,129380,1,0,0:0:0:0:
369,263,129491,6,0,P|342:264|310:276,1,44.999998626709
271,314,129714,5,0,0:0:0:0:
246,312,129825,1,0,0:0:0:0:
221,310,129936,1,0,0:0:0:0:
167,332,130047,5,0,0:0:0:0:
179,299,130158,1,0,0:0:0:0:
180,266,130269,1,0,0:0:0:0:
176,233,130380,6,0,P|198:208|201:176,1,44.999998626709
267,145,130602,1,0,0:0:0:0:
249,106,130714,2,0,P|259:137|285:156,1,44.999998626709
283,227,130936,1,0,0:0:0:0:
327,232,131048,2,0,P|295:225|265:238,1,44.999998626709
297,288,131269,5,0,0:0:0:0:
299,300,131380,1,0,0:0:0:0:
324,339,131491,5,0,0:0:0:0:
326,327,131602,1,0,0:0:0:0:
358,300,131714,5,0,0:0:0:0:
299,300,131825,1,0,0:0:0:0:
241,300,131936,1,0,0:0:0:0:
182,300,132047,1,0,0:0:0:0:
124,300,132158,6,0,L|68:301,1,44.999998626709
0,230,132380,2,0,L|44:229,1,44.999998626709
127,177,132602,1,0,0:0:0:0:
153,213,132714,2,0,P|131:188|127:156,1,44.999998626709
83,90,132936,1,0,0:0:0:0:
59,127,133048,2,0,P|80:102|84:70,1,44.999998626709
164,41,133269,5,0,0:0:0:0:
182,50,133380,1,0,0:0:0:0:
193,74,133491,5,0,0:0:0:0:
199,116,133602,5,0,0:0:0:0:
160,156,133713,5,0,0:0:0:0:
104,144,133824,5,0,0:0:0:0:
83,89,133936,6,0,B|132:86|132:86|205:111|205:111|292:97,1,179.999994506836
386,140,134602,6,0,P|387:240|334:156,1,269.999991760254
341,63,135491,5,0,0:0:0:0:
432,6,135714,6,0,L|426:68,1,44.999998626709
482,152,135936,2,0,L|486:210,1,44.999998626709
382,198,136158,2,0,P|355:199|323:211,1,44.999998626709
294,262,136380,5,0,0:0:0:0:
340,147,136491,1,0,0:0:0:0:
278,200,136602,6,0,L|234:196,1,44.999998626709
169,195,136825,5,0,0:0:0:0:
112,216,136936,1,0,0:0:0:0:
60,186,137047,5,0,0:0:0:0:
118,201,137158,1,0,0:0:0:0:
176,184,137269,5,0,0:0:0:0:
212,136,137380,1,0,0:0:0:0:
198,73,137491,6,0,P|201:100|194:122,1,44.999998626709
85,122,137714,2,0,P|109:111|125:94,1,44.999998626709
226,25,137936,1,0,0:0:0:0:
183,18,138048,2,0,P|215:19|240:39,1,44.999998626709
286,96,138270,1,0,0:0:0:0:
323,121,138382,2,0,P|293:105|279:76,1,44.999998626709
295,42,138602,5,0,0:0:0:0:
308,31,138714,1,0,0:0:0:0:
368,26,138825,5,0,0:0:0:0:
392,10,138936,5,0,0:0:0:0:
449,26,139047,5,0,0:0:0:0:
435,49,139158,5,0,0:0:0:0:
464,54,139269,6,0,L|471:123,1,44.999998626709
438,193,139491,1,0,0:0:0:0:
434,238,139602,2,0,L|438:193,1,44.999998626709
371,127,139825,1,0,0:0:0:0:
327,123,139936,2,0,L|371:127,1,44.999998626709
377,189,140158,5,0,0:0:0:0:
373,199,140491,5,0,0:0:0:0:
370,208,140825,5,0,0:0:0:0:
335,270,141047,6,0,P|307:228|185:243,1,179.999994506836
117,302,141714,6,0,B|104:324|104:324|100:270|100:270|115:224|115:224|107:143,1,179.999994506836
47,97,142269,5,0,0:0:0:0:
47,97,142380,2,0,P|100:95|133:50,1,89.9999972534181
236,14,142825,6,0,B|276:45|269:97|269:97|313:63|364:87,1,194.999991073609
364,87,143491,6,0,B|371:72|365:61|365:61|398:88|369:135|369:135|403:192|361:174|383:223,1,194.999991073609
380,216,144158,6,0,B|394:196|428:192|428:192|406:246|368:265|274:250|286:149|317:106|382:99|420:120|434:169,1,389.999982147218
433,166,145491,5,0,0:0:0:0:
433,166,145936,5,0,0:0:0:0:
288,188,146158,5,0,0:0:0:0:
143,214,146380,6,0,B|189:245|220:201|166:141|121:220|99:250|47:221,1,194.999991073609
225,91,147047,6,0,B|175:115|197:164|276:147|230:68|215:34|266:4,1,194.999991073609
65,39,147714,6,0,B|68:-16|15:-21|-9:55|81:55|118:59|119:118,1,194.999991073609
266,199,148380,6,0,B|290:186|313:195|313:195|245:216|252:286|192:282,1,194.999991073609
48,342,149047,6,0,P|95:352|149:350,1,97.4999955368044
48,342,149491,6,0,P|96:340|144:350,1,97.4999955368044
254,361,149936,6,0,B|351:411|337:335|442:375,1,194.999991073609
442,375,150602,6,0,P|373:315|407:188,1,194.999991073609
420,259,151269,6,0,B|392:249|380:218|380:218|209:338|222:154|56:280,1,389.999982147218
71,268,152602,5,0,0:0:0:0:
71,268,153047,5,0,0:0:0:0:
210,342,153269,5,0,0:0:0:0:
198,120,153491,6,0,B|194:75|198:45|198:45|194:75|173:123,1,150
262,224,154158,6,0,B|305:241|346:269|346:269|311:232|287:185,1,194.999991073609
128,231,154825,6,0,B|93:264|35:297|35:297|95:286|148:297,1,225.000008583069
296,120,155491,6,0,B|331:87|386:58|386:58|329:65|271:54,1,225.000008583069
65,16,156158,6,0,B|62:53|62:53|69:86|69:86|63:128,1,112.500004291535
65,16,156602,6,0,B|68:53|68:53|61:86|61:86|63:129,1,112.500004291535
55,309,157047,6,0,B|108:280|161:312|161:312|210:346|274:306,1,225.000008583069
268,310,157714,6,0,B|255:338|255:338|254:304|241:282|241:282|249:241|249:241|217:198|244:151,1,225.000008583069
243,153,158380,6,0,B|271:160|271:160|219:93|167:227|73:175,1,225.000008583069
31,184,159269,5,0,0:0:0:0:
63,131,159714,5,0,0:0:0:0:
121,114,159936,1,0,0:0:0:0:
177,108,160158,6,0,P|210:91|228:65,1,56.2500021457673
277,11,160380,2,0,P|275:48|288:76,1,56.2500021457673
331,143,160602,6,0,B|352:101|352:101|361:233|361:233|320:182,1,225.000008583069
245,309,161269,6,0,B|270:348|270:348|152:289|152:289|216:279,1,225.000008583069
144,151,161936,6,0,B|97:153|97:153|206:80|206:80|183:141,1,225.000008583069
334,199,162602,6,0,B|334:226|318:246|318:246|381:203|375:160|375:160|406:178|448:173,1,225.000008583069
512,305,163269,6,0,B|451:322|462:281|399:303,1,112.500004291535
512,305,163714,6,0,B|456:289|460:323|401:301,1,112.500004291535
328,330,164158,6,0,L|279:323,1,44.999998626709
225,318,164380,1,0,0:0:0:0:
160,330,164491,1,0,0:0:0:0:
95,318,164602,5,0,0:0:0:0:
95,318,164714,2,0,L|92:244,1,44.999998626709
153,173,164936,1,0,0:0:0:0:
153,173,165048,2,0,L|150:247,1,44.999998626709
220,248,165269,2,0,P|246:255|277:245,1,44.999998626709
325,197,165491,6,0,B|376:209|375:179|424:197,1,97.4999955368044
395,247,165936,5,0,0:0:0:0:
384,130,166380,5,0,0:0:0:0:
395,247,166825,5,0,0:0:0:0:
384,130,167269,6,0,P|330:104|305:104,1,48.7499977684022
267,80,167491,2,0,P|290:71|308:51,1,48.7499977684022
399,0,167714,6,0,B|438:82|366:98|409:195,1,194.999991073609
364,341,168380,6,0,P|310:289|356:347,1,194.999991073609
216,358,169047,6,0,B|170:344|149:295|149:295|123:344|67:353,1,194.999991073609
31,271,169714,6,0,L|74:270,1,28.1250010728836
96,259,169936,6,0,B|66:255|66:255|32:261|32:261|-14:258,1,97.4999955368044
100,86,170380,6,0,L|105:177,1,75
182,202,170825,6,0,L|178:254,1,37.5
148,341,171269,6,0,L|132:342,1,15
260,349,171714,6,0,L|276:348,1,15
377,345,172047,6,0,L|375:329,1,15
322,240,172380,6,0,L|322:224,1,15
312,86,172714,6,0,L|313:97,1,7.5
320,154,172936,1,0,0:0:0:0:
220,171,173269,6,0,L|200:172,1,15
111,216,173602,6,0,L|130:220,1,15
205,263,173936,6,0,L|186:270,1,15
131,301,174269,1,0,0:0:0:0:
131,301,174380,6,0,L|142:307,1,7.5
204,361,174602,2,0,L|192:367,1,7.5
41,287,174936,5,0,0:0:0:0:
41,287,175047,2,0,L|44:268,1,15
81,174,175380,6,0,L|78:155,1,15
28,67,175714,6,0,L|31:48,1,15
129,2,176047,6,0,L|132:21,1,15
174,86,176380,6,0,L|176:74,1,7.5
217,17,176602,6,0,P|242:28|250:29,1,30
363,99,177269,6,0,P|338:113|328:132,1,45
337,238,178380,6,0,L|336:254,1,15
329,126,178825,6,0,L|330:110,1,15
333,9,179158,6,0,L|349:11,1,15
435,64,179491,6,0,L|417:66,1,15
329,111,179825,6,0,L|316:110,1,7.5
261,106,180047,1,0,0:0:0:0:
61,22,180380,6,0,L|64:39,1,15
91,141,180714,6,0,L|88:158,1,15
44,250,181047,6,0,L|47:267,1,15
86,333,181380,1,0,0:0:0:0:
86,333,181491,6,0,L|96:331,1,7.5
166,341,181714,2,0,L|176:343,1,7.5
243,374,181936,5,0,0:0:0:0:
243,374,182047,2,0,L|255:373,1,7.5
342,307,182380,6,0,L|331:301,1,7.5
241,243,182714,6,0,L|248:234,1,7.5
316,149,183047,6,0,L|309:139,1,7.5
232,74,183380,6,0,L|232:86,1,7.5
165,153,183714,6,0,P|151:142|137:139,1,30
27,63,184380,6,0,P|43:56|59:33,1,45
176,26,185491,6,0,L|195:24,1,15
317,59,185936,6,0,L|331:60,1,15
448,99,186269,6,0,L|449:87,1,7.5
359,176,186602,6,0,L|360:183,1,7.5
415,293,186936,6,0,L|416:290,1,3.75
438,233,187158,1,0,0:0:0:0:
361,329,187491,6,0,L|353:329,1,7.5
258,301,187825,6,0,L|250:301,1,7.5
164,341,188158,6,0,L|165:334,1,7.5
190,270,188491,1,0,0:0:0:0:
190,270,188602,6,0,L|189:264,1,3.75
176,191,188825,1,0,0:0:0:0:
176,191,188936,6,0,L|172:186,1,3.75
92,115,189158,6,0,L|92:121,1,3.75
117,241,189491,6,0,L|117:247,1,3.75
275,90,189825,6,0,L|275:96,1,3.75
250,216,190158,6,0,L|250:222,1,3.75
410,366,190491,6,0,L|410:360,1,3.75
385,240,190824,6,0,L|385:234,1,3.75
261,341,191158,6,0,L|261:347,1,3.75
106,312,191491,6,0,L|106:318,1,3.75
28,265,191714,1,0,0:0:0:0:
28,265,191825,6,0,L|28:271,1,3.75
88,214,192047,1,0,0:0:0:0:
88,214,192158,6,0,L|88:220,1,3.75
120,143,192380,1,0,0:0:0:0:
120,143,192491,6,0,L|120:149,1,3.75
109,67,192714,1,0,0:0:0:0:
109,67,192825,6,0,L|118:66,1,7.5
262,19,193269,6,0,L|261:24,1,3.75
222,158,193714,6,0,L|222:166,1,7.5
295,261,194047,6,0,L|295:255,1,3.75
306,198,194269,1,0,0:0:0:0:
128,159,194602,6,0,L|118:160,1,7.5
36,223,194936,6,0,L|46:224,1,7.5
122,285,195269,6,0,L|112:286,1,7.5
34,348,195602,1,0,0:0:0:0:
34,348,195714,6,0,L|39:350,1,3.75
135,358,195936,1,0,0:0:0:0:
135,358,196048,6,0,L|140:358,1,3.75
226,332,196269,6,0,L|231:331,1,3.75
340,200,196602,6,0,L|339:205,1,3.75
160,151,196936,6,0,L|160:156,1,3.75
288,21,197269,6,0,L|287:26,1,3.75
133,48,197602,6,0,L|133:53,1,3.75
75,100,197936,6,0,L|78:103,1,3.75
36,155,198269,6,0,L|41:156,1,3.75
25,200,198602,6,0,L|21:201,1,3.75
28,223,198936,6,0,L|26:226,1,3.75
38,241,199269,6,0,L|38:244,1,3.75
44,246,199602,6,0,L|46:248,1,3.75
108,138,213936,6,0,B|133:126|142:101|142:101|183:184|76:192|112:291,1,247.500007553101
273,305,215714,6,0,B|319:283|368:321|368:321|389:244|440:314|474:221,1,247.500007553101
319,46,217491,6,0,B|297:49|282:66|282:66|191:60|220:-12|282:17|238:97|238:97|214:93|195:103,1,247.500007553101
93,249,219269,6,0,P|68:276|121:246,1,247.500007553101
256,192,221047,12,0,224380,0:0:0:0:
364,182,224602,5,0,0:0:0:0:
359,181,224713,1,0,0:0:0:0:
355,180,224824,1,0,0:0:0:0:
351,180,224935,1,0,0:0:0:0:
347,180,225046,1,0,0:0:0:0:
343,181,225157,1,0,0:0:0:0:
339,182,225268,1,0,0:0:0:0:
335,184,225379,1,0,0:0:0:0:
335,184,225491,5,0,0:0:0:0:
323,201,225602,1,0,0:0:0:0:
307,212,225713,1,0,0:0:0:0:
287,217,225824,1,0,0:0:0:0:
266,214,225936,5,0,0:0:0:0:
244,202,226047,1,0,0:0:0:0:
219,198,226158,1,0,0:0:0:0:
195,200,226269,1,0,0:0:0:0:
172,209,226380,6,0,L|158:217,3,10.3125003147125
376,83,227936,6,0,L|390:75,3,10.3125003147125
256,192,228158,12,0,229714,0:0:0:0:
167,133,229936,6,0,B|151:123|151:123|148:96|148:96|138:71|138:71|159:90|159:90|183:100|183:100|192:136,1,150
341,195,230269,6,0,B|357:186|357:186|382:197|382:197|409:200|409:200|382:209|382:209|361:225|361:225|325:215,1,150
200,314,230602,6,0,B|199:332|199:332|177:348|177:348|160:370|160:370|166:342|166:342|163:316|163:316|190:290,1,150
242,219,230936,6,0,B|217:220|217:220|186:216|186:216|146:222,1,75
109,230,231158,6,0,B|179:201|180:263|254:233,1,150
409,200,231491,6,0,L|405:278,1,75
323,166,231714,6,0,L|319:90,1,56.2500021457673
428,16,231936,2,0,L|424:92,1,56.2500021457673
258,65,232158,2,0,L|182:61,1,56.2500021457673
109,40,232380,1,0,0:0:0:0:
179,128,232491,1,0,0:0:0:0:
206,2,232602,5,0,0:0:0:0:
208,10,232714,1,0,0:0:0:0:
201,62,232825,5,0,0:0:0:0:
199,70,232937,1,0,0:0:0:0:
179,128,233047,5,0,0:0:0:0:
196,179,233158,1,0,0:0:0:0:
221,171,233269,5,0,0:0:0:0:
206,239,233380,1,0,0:0:0:0:
141,167,233491,5,0,0:0:0:0:
126,150,233602,1,0,0:0:0:0:
103,145,233714,1,0,0:0:0:0:
49,158,233825,5,0,0:0:0:0:
32,214,233936,5,0,0:0:0:0:
63,266,234047,5,0,0:0:0:0:
61,280,234158,1,0,0:0:0:0:
29,334,234269,1,0,0:0:0:0:
27,343,234491,5,0,0:0:0:0:
99,334,234602,1,0,0:0:0:0:
171,325,234713,1,0,0:0:0:0:
243,316,234825,6,0,P|281:307|322:309,1,75
448,253,235047,2,0,P|408:261|376:229,1,75
306,133,235269,6,0,P|317:70|373:103,1,150
363,165,235602,1,0,0:0:0:0:
428,168,235714,1,0,0:0:0:0:
321,216,235825,1,0,0:0:0:0:
264,181,235936,6,0,B|185:206|192:145|115:171,1,150
63,206,236269,1,0,0:0:0:0:
109,245,236380,1,0,0:0:0:0:
148,230,236491,1,0,0:0:0:0:
68,192,236602,6,0,P|42:252|92:312,1,150
151,309,236936,5,0,0:0:0:0:
170,312,237047,1,0,0:0:0:0:
202,331,237158,1,0,0:0:0:0:
215,348,237269,6,0,L|261:347,1,37.5
316,340,237491,6,0,B|267:344|267:344|217:326|217:326|152:335,1,165.000005035401
83,276,237936,6,0,B|68:271|68:271|62:252|62:252|51:236|51:236|68:246|68:246|87:248|87:248|100:273,1,112.500004291535
244,235,238158,6,0,B|255:228|255:228|274:236|274:236|298:238|298:238|274:245|274:245|258:257|258:257|232:249,1,112.500004291535
163,133,238380,6,0,B|165:119|165:119|154:103|154:103|146:82|146:82|145:104|145:104|136:123|136:123|142:135,1,112.500004291535
163,213,238602,1,0,0:0:0:0:
231,162,238714,1,0,0:0:0:0:
50,157,238825,5,0,0:0:0:0:
