osu file format v14

[General]
AudioFilename: audio.mp3
AudioLeadIn: 0
PreviewTime: -1
Countdown: 0
SampleSet: Soft
StackLeniency: 0.7
Mode: 0
LetterboxInBreaks: 1
WidescreenStoryboard: 0

[Editor]
Bookmarks: 9939,28225,46511,64796,83082,101368,119653,137939,156225,174511,192796,211082
DistanceSpacing: 0.6
BeatDivisor: 4
GridSize: 16
TimelineZoom: 1

[Metadata]
Title:Solo
TitleUnicode:Solo
Artist:Clean Bandit feat. Demi Lovato
ArtistUnicode:Clean Bandit feat. Demi Lovato
Creator:AlienGo
Version:Lonely
Source:
Tags:Pop Dance Electronic
BeatmapID:1890375
BeatmapSetID:905779

[Difficulty]
HPDrainRate:5
CircleSize:4
OverallDifficulty:7
ApproachRate:9
SliderMultiplier:1.4
SliderTickRate:1

[Events]
//Background and Video events
0,0,"Miku.jpg",0,0
//Break Periods
//Storyboard Layer 0 (Background)
//Storyboard Layer 1 (Fail)
//Storyboard Layer 2 (Pass)
//Storyboard Layer 3 (Foreground)
//Storyboard Sound Samples

[TimingPoints]
796.753947537725,571.428571428571,4,2,0,100,1,0
7939,-66.6666666666667,4,2,0,100,0,0
8082,-66.6666666666667,4,2,0,5,0,0
8225,-66.6666666666667,4,2,0,100,0,0
8368,-66.6666666666667,4,2,0,5,0,0
8511,-66.6666666666667,4,2,0,100,0,0
8653,-66.6666666666667,4,2,0,5,0,0
8796,-66.6666666666667,4,2,0,100,0,0
8939,-66.6666666666667,4,2,0,5,0,0
9082,-66.6666666666667,4,2,0,100,0,0
9225,-66.6666666666667,4,2,0,5,0,0
9368,-66.6666666666667,4,2,0,100,0,0
9511,-66.6666666666667,4,2,0,5,0,0
9653,-66.6666666666667,4,2,0,100,0,0
9796,-66.6666666666667,4,2,0,5,0,0
9939,-100,4,2,0,100,0,0
28225,-83.3333333333333,4,2,0,100,0,0
46511,-62.5,4,2,0,100,0,0
46653,-62.5,4,2,0,5,0,0
46796,-62.5,4,2,0,100,0,0
46939,-62.5,4,2,0,5,0,0
47082,-62.5,4,2,0,100,0,0
47225,-62.5,4,2,0,5,0,0
47368,-62.5,4,2,0,100,0,0
55653,-62.5,4,2,0,100,0,0
55796,-62.5,4,2,0,5,0,0
55939,-62.5,4,2,0,100,0,0
56082,-62.5,4,2,0,5,0,0
56225,-62.5,4,2,0,100,0,0
56368,-62.5,4,2,0,5,0,0
56511,-62.5,4,2,0,100,0,0
64796,-58.8235294117647,4,2,0,100,0,0
83082,-100,4,2,0,100,0,0
101368,-83.3333333333333,4,2,0,100,0,0
119653,-62.5,4,2,0,100,0,0
119796,-62.5,4,2,0,5,0,0
119939,-62.5,4,2,0,100,0,0
120082,-62.5,4,2,0,5,0,0
120225,-62.5,4,2,0,100,0,0
120368,-62.5,4,2,0,5,0,0
120511,-62.5,4,2,0,100,0,0
128796,-62.5,4,2,0,100,0,0
128939,-62.5,4,2,0,5,0,0
129082,-62.5,4,2,0,100,0,0
129225,-62.5,4,2,0,5,0,0
129368,-62.5,4,2,0,100,0,0
129511,-62.5,4,2,0,5,0,0
129653,-62.5,4,2,0,100,0,0
137939,-58.8235294117647,4,2,0,100,0,0
156225,-125,4,2,0,100,0,0
174511,-62.5,4,2,0,100,0,0
174653,-62.5,4,2,0,5,0,0
174796,-62.5,4,2,0,100,0,0
174939,-62.5,4,2,0,5,0,0
175082,-62.5,4,2,0,100,0,0
175225,-62.5,4,2,0,5,0,0
175368,-62.5,4,2,0,100,0,0
183653,-62.5,4,2,0,100,0,0
183796,-62.5,4,2,0,5,0,0
183939,-62.5,4,2,0,100,0,0
184082,-62.5,4,2,0,5,0,0
184225,-62.5,4,2,0,100,0,0
184368,-62.5,4,2,0,5,0,0
184511,-62.5,4,2,0,100,0,0
192796,-58.8235294117647,4,2,0,100,0,0
211082,-111.111111111111,4,2,0,100,0,0

[HitObjects]
432,64,796,5,0,0:0:0:0:
368,256,1082,1,0,0:0:0:0:
208,96,1368,2,0,P|160:128|160:144,1,70
304,288,1939,2,0,P|352:256|352:240,1,70
352,32,2511,2,0,L|352:80,1,35
256,192,2796,2,0,L|256:144,1,35
256,32,3082,5,0,0:0:0:0:
80,144,3368,1,0,0:0:0:0:
96,304,3653,2,0,L|176:256,1,70
416,80,4225,2,0,L|384:112,2,35
288,208,4796,2,0,P|240:224|224:208,1,70
192,176,5225,1,0,0:0:0:0:
176,128,5368,5,0,0:0:0:0:
160,16,5653,1,0,0:0:0:0:
208,256,5939,2,0,P|192:288|160:288,1,70
304,128,6511,2,0,P|320:96|352:96,1,70
464,160,7082,1,0,0:0:0:0:
432,240,7225,1,0,0:0:0:0:
352,272,7368,1,0,0:0:0:0:
256,256,7511,1,0,0:0:0:0:
192,192,7653,1,0,0:0:0:0:
64,64,7939,6,0,L|112:128,1,52.5000020027161
208,64,8225,2,0,L|256:128,1,52.5000020027161
368,64,8511,2,0,L|416:128,1,52.5000020027161
448,320,8796,2,0,L|400:256,1,52.5000020027161
304,320,9082,2,0,L|256:256,1,52.5000020027161
144,320,9368,2,0,L|96:256,1,52.5000020027161
320,48,9653,2,0,L|368:112,1,52.5000020027161
352,288,9939,6,0,P|288:256|272:256,1,70
160,288,10511,1,0,0:0:0:0:
160,288,10653,1,0,0:0:0:0:
160,288,10796,1,0,0:0:0:0:
112,144,11082,2,0,P|128:96|144:80,1,70
224,32,11511,1,0,0:0:0:0:
272,112,11653,2,0,P|320:112|352:80,1,70
448,240,12225,2,0,P|416:240|368:272,1,70
304,336,12796,1,0,0:0:0:0:
304,336,12939,1,0,0:0:0:0:
304,336,13082,1,0,0:0:0:0:
160,240,13368,6,0,P|208:240|240:272,1,70
256,320,13796,1,0,0:0:0:0:
176,336,13939,2,0,P|128:336|96:304,1,70
80,256,14368,1,0,0:0:0:0:
80,176,14511,1,0,0:0:0:0:
256,320,14796,1,0,0:0:0:0:
368,80,15082,1,0,0:0:0:0:
384,32,15225,1,0,0:0:0:0:
368,80,15368,1,0,0:0:0:0:
272,256,15653,2,0,P|272:208|256:176,1,70
144,80,16225,2,0,P|128:112|128:128,2,35
320,0,16796,5,0,0:0:0:0:
128,208,17082,1,0,0:0:0:0:
432,304,17368,2,0,P|416:240|400:224,1,70
80,80,17939,2,0,P|96:144|112:160,1,70
160,192,18368,1,0,0:0:0:0:
224,240,18511,2,0,L|256:256,1,35
352,144,18796,2,0,L|320:128,1,35
208,80,19082,6,0,P|144:80|128:96,1,70
32,192,19653,1,0,0:0:0:0:
32,192,19796,1,0,0:0:0:0:
32,192,19939,1,0,0:0:0:0:
192,176,20225,2,0,P|256:176|272:192,1,70
288,192,20653,1,0,0:0:0:0:
320,192,20796,2,0,P|352:160|352:112,1,70
240,32,21368,5,0,0:0:0:0:
288,192,21653,1,0,0:0:0:0:
112,208,21939,1,0,0:0:0:0:
112,208,22082,1,0,0:0:0:0:
112,208,22225,1,0,0:0:0:0:
160,32,22511,2,0,P|128:64|96:80,1,70
96,96,22939,1,0,0:0:0:0:
80,112,23082,2,0,P|112:144|128:192,1,70
128,192,23511,1,0,0:0:0:0:
128,224,23653,1,0,0:0:0:0:
128,352,23939,1,0,0:0:0:0:
352,256,24225,2,0,L|384:240,2,35
224,208,24796,2,0,L|176:144,1,70
288,112,25368,2,0,L|256:160,2,35
368,0,25939,5,0,0:0:0:0:
144,192,26225,1,0,0:0:0:0:
416,128,26511,2,0,P|448:176|448:208,1,70
96,256,27082,2,0,P|64:208|64:176,1,70
64,128,27511,1,0,0:0:0:0:
96,64,27653,1,0,0:0:0:0:
160,32,27796,1,0,0:0:0:0:
240,16,27939,1,0,0:0:0:0:
320,32,28082,1,0,0:0:0:0:
400,64,28225,6,0,P|432:112|432:144,1,83.9999974365235
352,320,28796,1,0,0:0:0:0:
288,256,28939,1,0,0:0:0:0:
336,176,29082,1,0,0:0:0:0:
416,208,29225,1,0,0:0:0:0:
432,288,29368,2,0,P|384:336|336:336,1,83.9999974365235
240,240,29939,2,0,P|192:272|176:320,1,83.9999974365235
128,352,30511,6,0,P|80:320|64:208,1,167.999994873047
80,144,31225,1,0,0:0:0:0:
128,80,31368,1,0,0:0:0:0:
208,64,31511,1,0,0:0:0:0:
288,80,31653,2,0,P|336:112|384:96,1,83.9999974365235
416,192,32225,2,0,P|368:224|352:272,1,83.9999974365235
192,256,32796,2,0,P|160:192|128:176,1,83.9999974365235
208,48,33368,2,0,L|256:64,2,41.9999987182618
128,48,33796,1,0,0:0:0:0:
64,96,33939,2,0,P|48:160|64:208,1,83.9999974365235
176,304,34511,2,0,P|176:240|144:208,1,83.9999974365235
96,192,34939,1,0,0:0:0:0:
32,240,35082,6,0,P|48:352|112:352,1,167.999994873047
96,352,35796,1,0,0:0:0:0:
112,352,35939,1,0,0:0:0:0:
448,304,36225,1,0,0:0:0:0:
208,112,36511,1,0,0:0:0:0:
144,64,36653,1,0,0:0:0:0:
128,144,36796,1,0,0:0:0:0:
464,112,37082,1,0,0:0:0:0:
432,48,37225,1,0,0:0:0:0:
384,112,37368,6,0,P|320:96|304:64,1,83.9999974365235
192,16,37939,2,0,P|144:16|128:32,1,41.9999987182618
80,80,38225,2,0,P|128:80|144:64,1,41.9999987182618
272,32,38511,2,0,P|336:16|384:32,1,83.9999974365235
352,112,39082,2,0,P|288:144|272:176,1,83.9999974365235
352,192,39653,2,0,P|336:240|288:272,1,83.9999974365235
176,304,40225,1,0,0:0:0:0:
96,272,40368,1,0,0:0:0:0:
160,208,40511,1,0,0:0:0:0:
80,176,40653,1,0,0:0:0:0:
144,112,40796,2,0,P|176:64|208:48,1,83.9999974365235
384,64,41368,2,0,P|352:112|320:128,1,83.9999974365235
64,288,41796,6,0,P|128:240|256:256,1,209.999993591309
384,288,42796,1,0,0:0:0:0:
464,288,42939,2,0,P|432:176|320:128,1,209.999993591309
96,160,43939,1,0,0:0:0:0:
112,240,44082,2,0,P|160:256|224:224,1,125.999996154785
256,160,44653,1,0,0:0:0:0:
256,80,44796,2,0,P|256:160|272:192,1,83.9999974365235
320,240,45225,1,0,0:0:0:0:
414,334,45368,2,0,L|400:320,7,20.9999993591309
384,304,45939,1,0,0:0:0:0:
112,48,46082,1,0,0:0:0:0:
176,192,46225,1,0,0:0:0:0:
256,48,46368,1,0,0:0:0:0:
96,288,46511,6,0,L|48:336,1,56
304,272,46796,2,0,L|384:320,1,56
288,64,47082,2,0,L|336:16,1,56
32,96,47368,2,0,P|80:112|96:128,1,56
336,288,47653,2,0,P|400:304|448:272,1,112
320,176,48082,1,0,0:0:0:0:
384,48,48225,2,0,P|352:48|320:64,1,56
32,128,48796,5,0,0:0:0:0:
448,160,49082,1,0,0:0:0:0:
144,256,49368,1,0,0:0:0:0:
256,32,49653,1,0,0:0:0:0:
336,64,49796,1,0,0:0:0:0:
320,144,49939,2,0,P|304:208|336:256,1,112
384,288,50368,2,0,P|336:320|272:304,1,112
48,112,51082,5,0,0:0:0:0:
304,16,51368,1,0,0:0:0:0:
336,320,51653,1,0,0:0:0:0:
48,112,51939,1,0,0:0:0:0:
0,176,52082,1,0,0:0:0:0:
64,224,52225,2,0,P|128:224|160:256,1,112
112,320,52653,2,0,P|160:352|176:352,1,56
240,304,52939,1,0,0:0:0:0:
352,96,53368,6,0,P|320:160|336:208,1,112
416,192,53939,2,0,P|400:256|368:288,1,112
172,323,54511,2,0,L|192:304,7,28
208,288,55082,1,0,0:0:0:0:
416,80,55225,1,0,0:0:0:0:
400,224,55368,1,0,0:0:0:0:
272,48,55511,1,0,0:0:0:0:
160,304,55653,6,0,L|112:368,1,56
368,96,55939,2,0,L|432:48,1,56
112,208,56225,2,0,L|32:240,1,56
400,208,56511,2,0,P|448:192|464:176,1,56
400,128,56796,2,0,P|336:128|256:176,1,112
208,192,57225,1,0,0:0:0:0:
32,288,57368,2,0,P|112:288|160:224,1,112
160,192,57796,1,0,0:0:0:0:
80,208,57939,5,0,0:0:0:0:
416,96,58225,2,0,L|480:80,1,56
144,144,58511,1,0,0:0:0:0:
160,48,58796,2,0,P|192:48|224:96,1,56
256,128,59082,2,0,L|272:160,3,28
144,160,59368,2,0,L|128:192,3,28
288,256,59653,2,0,P|288:304|272:320,1,56
128,288,59939,2,0,L|144:320,3,28
160,352,60225,5,0,0:0:0:0:
160,64,60511,1,0,0:0:0:0:
384,288,60796,1,0,0:0:0:0:
400,48,61082,2,0,L|352:96,1,56
160,256,61368,2,0,P|128:304|64:320,1,112
80,224,61796,2,0,P|112:176|176:160,1,112
240,160,62225,1,0,0:0:0:0:
288,224,62368,1,0,0:0:0:0:
256,192,62511,12,0,63653,0:0:0:0:
256,96,64225,6,0,P|320:64|400:128,1,168
416,240,64796,2,0,B|336:240|336:240|304:288|288:272,1,119.000002269745
112,256,65368,2,0,P|48:288|16:336,1,119.000002269745
400,128,65939,2,0,P|464:96|496:48,1,119.000002269745
352,48,66511,1,0,0:0:0:0:
192,80,66653,1,0,0:0:0:0:
384,160,66796,1,0,0:0:0:0:
272,32,66939,1,0,0:0:0:0:
128,144,67082,6,0,P|64:160|16:112,1,119.000002269745
80,48,67653,2,0,P|176:80|208:112,1,119.000002269745
416,304,68225,1,0,0:0:0:0:
288,176,68368,1,0,0:0:0:0:
416,304,68511,1,0,0:0:0:0:
384,80,68796,1,0,0:0:0:0:
256,32,68939,1,0,0:0:0:0:
288,176,69082,1,0,0:0:0:0:
256,32,69225,1,0,0:0:0:0:
288,176,69368,6,0,P|208:128|160:144,1,119.000002269745
48,304,69939,2,0,P|128:272|160:240,1,119.000002269745
208,176,70368,1,0,0:0:0:0:
272,112,70511,2,0,P|336:80|384:80,1,119.000002269745
352,320,71082,1,0,0:0:0:0:
176,272,71225,1,0,0:0:0:0:
368,224,71368,1,0,0:0:0:0:
208,352,71511,1,0,0:0:0:0:
16,176,71653,6,0,P|48:256|80:288,1,119.000002269745
144,192,72082,2,0,P|192:256|208:304,1,119.000002269745
304,304,72511,2,0,P|352:224|400:192,2,119.000002269745
176,352,73368,2,0,P|176:272|96:176,1,178.500003404617
159,27,73939,6,0,B|159:107|159:107|207:139|191:155,1,119.000002269745
400,256,74511,2,0,P|464:288|496:336,1,119.000002269745
112,128,75082,2,0,P|48:96|16:48,1,119.000002269745
272,112,75654,1,0,0:0:0:0:
320,288,75796,1,0,0:0:0:0:
128,224,75939,1,0,0:0:0:0:
240,352,76082,1,0,0:0:0:0:
368,128,76225,2,0,P|352:64|304:0,1,119.000002269745
176,240,76796,6,0,P|160:304|176:400,1,119.000002269745
464,128,77368,1,0,0:0:0:0:
336,256,77511,1,0,0:0:0:0:
464,128,77654,1,0,0:0:0:0:
256,336,77939,1,0,0:0:0:0:
336,112,78082,1,0,0:0:0:0:
128,272,78225,1,0,0:0:0:0:
240,192,78368,1,0,0:0:0:0:
48,208,78511,2,0,P|128:176|176:192,1,119.000002269745
464,96,79082,2,0,P|384:96|352:144,1,119.000002269745
320,208,79511,1,0,0:0:0:0:
256,272,79654,6,0,P|192:304|144:288,1,119.000002269745
160,64,80225,1,0,0:0:0:0:
336,112,80368,1,0,0:0:0:0:
144,160,80511,1,0,0:0:0:0:
304,32,80654,1,0,0:0:0:0:
432,128,80796,2,0,P|480:176|512:240,1,119.000002269745
368,192,81225,2,0,P|320:128|304:80,1,119.000002269745
208,80,81654,2,0,P|160:160|112:192,2,119.000002269745
336,32,82511,2,0,P|336:112|416:208,1,178.500003404617
220,127,83082,6,0,P|187:117|160:96,1,70
368,96,83654,1,0,0:0:0:0:
368,96,83796,1,0,0:0:0:0:
368,96,83939,1,0,0:0:0:0:
416,160,84082,1,0,0:0:0:0:
400,240,84225,2,0,P|384:288|368:304,1,70
304,320,84654,1,0,0:0:0:0:
240,272,84796,2,0,P|192:272|160:304,1,70
80,160,85368,6,0,P|128:144|144:112,1,70
192,32,85939,1,0,0:0:0:0:
192,32,86082,1,0,0:0:0:0:
192,32,86225,1,0,0:0:0:0:
288,48,86368,1,0,0:0:0:0:
336,144,86511,2,0,P|288:144|256:112,1,70
256,48,86939,1,0,0:0:0:0:
336,32,87082,2,0,P|384:32|416:64,1,70
448,112,87511,1,0,0:0:0:0:
448,192,87654,5,0,0:0:0:0:
240,64,87939,1,0,0:0:0:0:
144,272,88225,1,0,0:0:0:0:
128,352,88368,1,0,0:0:0:0:
144,272,88511,1,0,0:0:0:0:
176,192,88653,1,0,0:0:0:0:
256,144,88796,2,0,P|256:192|272:224,1,70
384,304,89368,2,0,P|400:272|400:256,2,35
176,336,89939,1,0,0:0:0:0:
400,176,90225,1,0,0:0:0:0:
80,80,90511,6,0,P|96:144|112:160,1,70
256,192,90939,1,0,0:0:0:0:
432,304,91082,2,0,P|416:240|400:224,1,70
352,128,91511,1,0,0:0:0:0:
224,144,91654,2,0,L|208:176,1,35
304,288,91939,2,0,L|320:256,1,35
416,64,92225,6,0,P|384:96|384:128,1,70
448,288,92796,1,0,0:0:0:0:
448,288,92939,1,0,0:0:0:0:
448,288,93082,1,0,0:0:0:0:
464,192,93225,1,0,0:0:0:0:
368,224,93368,2,0,P|304:224|288:208,1,70
224,176,93796,1,0,0:0:0:0:
144,224,93939,2,0,P|112:256|112:304,1,70
160,128,94511,5,0,0:0:0:0:
192,288,94796,1,0,0:0:0:0:
352,144,95082,1,0,0:0:0:0:
352,144,95225,1,0,0:0:0:0:
352,144,95368,1,0,0:0:0:0:
416,208,95511,1,0,0:0:0:0:
352,336,95654,2,0,P|384:304|416:288,1,70
496,256,96082,1,0,0:0:0:0:
416,208,96225,2,0,P|384:176|368:128,1,70
384,80,96654,1,0,0:0:0:0:
448,128,96796,5,0,0:0:0:0:
272,256,97082,1,0,0:0:0:0:
160,96,97368,2,0,L|144:64,2,35
208,208,97796,1,0,0:0:0:0:
80,320,97939,2,0,L|128:256,1,70
256,240,98511,2,0,L|288:192,2,35
192,352,99082,1,0,0:0:0:0:
368,192,99368,1,0,0:0:0:0:
96,256,99654,2,0,P|64:208|64:176,1,70
416,128,100225,2,0,P|448:176|448:208,1,70
448,256,100654,1,0,0:0:0:0:
416,320,100796,1,0,0:0:0:0:
352,352,100939,1,0,0:0:0:0:
288,320,101082,1,0,0:0:0:0:
256,256,101225,1,0,0:0:0:0:
254,179,101368,6,0,P|238:140|208:112,1,83.9999974365235
64,16,101939,1,0,0:0:0:0:
144,32,102082,1,0,0:0:0:0:
160,112,102225,1,0,0:0:0:0:
96,160,102368,1,0,0:0:0:0:
32,112,102511,2,0,P|80:64|128:64,1,83.9999974365235
224,144,103082,2,0,P|272:112|288:64,1,83.9999974365235
384,32,103654,6,0,P|432:64|448:176,1,167.999994873047
432,240,104368,1,0,0:0:0:0:
384,304,104511,1,0,0:0:0:0:
304,320,104654,1,0,0:0:0:0:
224,288,104796,2,0,P|176:256|128:272,1,83.9999974365235
96,192,105368,2,0,P|144:160|160:112,1,83.9999974365235
320,128,105939,6,0,P|352:192|384:208,1,83.9999974365235
304,336,106511,2,0,L|256:320,2,41.9999987182618
384,336,106939,1,0,0:0:0:0:
448,288,107082,2,0,P|464:224|448:176,1,83.9999974365235
272,128,107654,2,0,P|272:192|288:240,1,83.9999974365235
448,144,108225,6,0,P|432:80|320:32,1,167.999994873047
336,32,108939,1,0,0:0:0:0:
320,32,109082,1,0,0:0:0:0:
64,80,109368,1,0,0:0:0:0:
304,240,109654,1,0,0:0:0:0:
368,288,109796,1,0,0:0:0:0:
448,272,109939,1,0,0:0:0:0:
32,256,110225,1,0,0:0:0:0:
96,304,110368,1,0,0:0:0:0:
176,288,110511,6,0,P|240:304|272:336,1,83.9999974365235
352,368,111082,2,0,P|400:368|416:352,1,41.9999987182618
432,288,111368,2,0,P|384:288|368:304,1,41.9999987182618
304,304,111654,2,0,P|240:320|192:304,1,83.9999974365235
128,256,112225,2,0,P|176:224|224:224,1,83.9999974365235
336,128,112796,6,0,P|320:176|272:208,1,83.9999974365235
192,224,113368,1,0,0:0:0:0:
256,144,113511,1,0,0:0:0:0:
288,256,113654,1,0,0:0:0:0:
352,192,113796,1,0,0:0:0:0:
368,272,113939,2,0,P|336:320|304:336,1,83.9999974365235
256,144,114511,2,0,P|288:96|320:80,1,83.9999974365235
336,160,114939,6,0,P|256:224|176:160,1,209.999993591309
144,48,115939,1,0,0:0:0:0:
64,80,116082,2,0,P|64:176|128:288,1,209.999993591309
416,224,117082,1,0,0:0:0:0:
400,144,117225,2,0,P|352:128|288:160,1,125.999996154785
256,224,117796,1,0,0:0:0:0:
256,304,117939,2,0,P|256:224|240:192,1,83.9999974365235
208,160,118368,1,0,0:0:0:0:
144,112,118511,2,0,L|128:96,7,20.9999993591309
288,256,119082,1,0,0:0:0:0:
144,208,119225,1,0,0:0:0:0:
352,160,119368,1,0,0:0:0:0:
224,336,119511,1,0,0:0:0:0:
96,96,119653,6,0,L|48:48,1,56
304,112,119938,2,0,L|384:64,1,56
288,320,120224,2,0,L|336:368,1,56
32,288,120510,2,0,P|80:272|96:256,1,56
336,96,120795,2,0,P|400:80|448:112,1,112
320,208,121224,1,0,0:0:0:0:
384,336,121367,2,0,P|352:336|320:320,1,56
32,256,121938,5,0,0:0:0:0:
448,224,122224,1,0,0:0:0:0:
144,128,122510,1,0,0:0:0:0:
256,352,122795,1,0,0:0:0:0:
336,320,122938,1,0,0:0:0:0:
320,240,123081,2,0,P|304:176|336:128,1,112
384,96,123510,2,0,P|336:64|272:80,1,112
128,32,124225,5,0,0:0:0:0:
256,336,124510,1,0,0:0:0:0:
368,96,124795,1,0,0:0:0:0:
48,272,125081,1,0,0:0:0:0:
16,96,125224,1,0,0:0:0:0:
48,272,125367,2,0,P|112:272|144:240,1,112
224,64,125795,2,0,P|256:32|288:32,1,56
448,32,126081,1,0,0:0:0:0:
352,288,126510,6,0,P|320:224|336:176,1,112
416,192,127081,2,0,P|400:128|368:96,1,112
192,80,127653,2,0,L|160:48,7,28
208,96,128224,1,0,0:0:0:0:
416,304,128367,1,0,0:0:0:0:
400,160,128510,1,0,0:0:0:0:
272,336,128653,1,0,0:0:0:0:
128,112,128795,6,0,L|64:64,1,56
352,304,129081,2,0,L|416:352,1,56
272,80,129367,2,0,L|288:16,1,56
160,304,129653,2,0,P|112:336|96:336,1,56
0,224,129938,2,0,P|64:176|144:176,1,112
224,176,130367,1,0,0:0:0:0:
416,80,130510,2,0,P|368:144|304:160,1,112
256,112,130938,1,0,0:0:0:0:
336,64,131081,5,0,0:0:0:0:
464,320,131367,2,0,L|400:304,1,56
144,224,131653,1,0,0:0:0:0:
208,320,131938,2,0,P|144:336|112:320,1,56
208,112,132225,2,0,P|256:144|272:208,1,112
160,336,132653,1,0,0:0:0:0:
32,224,132795,2,0,P|32:192|48:144,1,56
160,32,133081,2,0,L|176:0,3,28
160,48,133367,5,0,0:0:0:0:
160,320,133653,1,0,0:0:0:0:
384,96,133938,1,0,0:0:0:0:
400,336,134224,2,0,L|352:288,1,56
160,128,134510,2,0,P|128:80|64:64,1,112
80,160,134938,2,0,P|128:224|192:224,1,112
352,224,135367,1,0,0:0:0:0:
160,128,135510,1,0,0:0:0:0:
256,192,135653,12,0,136795,0:0:0:0:
338,344,137367,6,0,P|368:256|320:176,1,168
96,112,137939,2,0,B|176:112|176:112|208:64|224:80,1,119.000002269745
400,128,138511,2,0,P|464:96|496:48,1,119.000002269745
112,256,139082,2,0,P|48:288|16:336,1,119.000002269745
128,352,139654,1,0,0:0:0:0:
304,160,139796,1,0,0:0:0:0:
128,224,139939,1,0,0:0:0:0:
288,336,140082,1,0,0:0:0:0:
224,112,140225,6,0,P|272:64|352:80,1,119.000002269745
416,240,140796,2,0,P|384:288|288:288,1,119.000002269745
96,80,141368,1,0,0:0:0:0:
224,208,141511,1,0,0:0:0:0:
96,80,141654,1,0,0:0:0:0:
128,304,141939,1,0,0:0:0:0:
256,352,142082,1,0,0:0:0:0:
224,208,142225,1,0,0:0:0:0:
128,304,142368,1,0,0:0:0:0:
256,352,142511,2,0,P|336:304|368:256,1,119.000002269745
464,80,143082,6,0,P|384:112|352:144,1,119.000002269745
256,240,143511,1,0,0:0:0:0:
128,320,143654,2,0,P|64:352|16:352,1,119.000002269745
160,64,144225,1,0,0:0:0:0:
336,112,144368,1,0,0:0:0:0:
144,160,144511,1,0,0:0:0:0:
304,32,144654,1,0,0:0:0:0:
496,208,144796,2,0,P|464:128|432:96,1,119.000002269745
400,176,145225,2,0,P|352:112|336:64,1,119.000002269745
208,80,145654,2,0,P|160:160|112:192,2,119.000002269745
336,32,146511,6,0,P|336:112|416:208,1,178.500003404617
432,224,147082,2,0,B|352:224|352:224|320:272|304:256,1,119.000002269745
176,160,147654,2,0,P|112:192|80:240,1,119.000002269745
400,112,148225,2,0,P|464:80|496:32,1,119.000002269745
320,144,148797,1,0,0:0:0:0:
320,32,148939,1,0,0:0:0:0:
208,192,149082,1,0,0:0:0:0:
400,112,149225,1,0,0:0:0:0:
160,96,149368,2,0,P|96:112|48:160,1,119.000002269745
288,192,149939,6,0,P|384:224|416:256,1,119.000002269745
128,304,150511,1,0,0:0:0:0:
288,192,150654,1,0,0:0:0:0:
448,304,150797,1,0,0:0:0:0:
128,64,151082,1,0,0:0:0:0:
288,256,151225,1,0,0:0:0:0:
416,64,151368,1,0,0:0:0:0:
288,240,151511,1,0,0:0:0:0:
128,64,151654,2,0,P|64:64|48:112,1,119.000002269745
148,330,152225,6,0,P|92:326|80:272,1,119.000002269745
256,192,152654,1,0,0:0:0:0:
368,48,152797,2,0,P|432:64|432:128,1,119.000002269745
352,336,153368,1,0,0:0:0:0:
176,176,153511,1,0,0:0:0:0:
352,240,153654,1,0,0:0:0:0:
144,272,153797,1,0,0:0:0:0:
0,176,153939,2,0,P|16:256|64:288,1,119.000002269745
160,192,154368,2,0,P|224:240|224:304,1,119.000002269745
400,288,154797,2,0,P|464:304|496:384,2,119.000002269745
192,336,155654,2,0,P|192:256|272:160,1,178.500003404617
256,176,156225,5,0,0:0:0:0:
432,16,156796,2,0,B|432:64|384:64|496:80|544:128|416:192,1,224
384,192,158082,1,0,0:0:0:0:
352,224,158225,1,0,0:0:0:0:
368,272,158368,1,0,0:0:0:0:
384,320,158511,6,0,B|352:352|352:352|336:336|320:144|272:240,1,224
112,336,160225,2,0,P|89:319|71:298,1,56
224,192,160653,1,0,0:0:0:0:
128,112,160796,2,0,B|96:192|128:208|128:208|128:256|192:304|224:272,1,224
416,192,162511,6,0,L|448:160,1,28
368,32,162796,2,0,L|336:64,1,28
176,224,163082,2,0,P|176:272|192:288,1,56
332,276,163653,2,0,P|342:250|336:224,1,56
160,48,164225,2,0,P|208:32|224:32,1,56
368,80,164796,2,0,L|384:112,1,28
352,176,165082,2,0,L|368:208,1,28
176,304,165368,6,0,B|144:256|144:256|192:208|160:176|112:176|112:176|128:128|112:112,1,224
352,80,167082,2,0,L|384:80,1,28
240,144,167368,2,0,L|224:192,1,28
48,208,167653,2,0,B|64:256|112:256|176:176|160:288|272:272,1,224
448,224,169368,2,0,L|432:160,1,56
368,48,169796,1,0,0:0:0:0:
288,192,169939,6,0,L|208:192,1,56
112,96,170796,1,0,0:0:0:0:
128,288,171653,2,0,L|160:320,1,28
304,192,171939,2,0,L|272:160,1,28
256,192,172225,12,0,173653,0:0:0:0:
144,64,173939,6,0,L|176:48,1,28
208,176,174225,2,0,P|224:192|240:192,1,28
416,288,174511,6,0,L|464:336,1,56
208,272,174796,2,0,L|128:320,1,56
224,64,175082,2,0,L|176:16,1,56
480,96,175368,2,0,P|432:112|416:128,1,56
176,288,175653,2,0,P|112:304|64:272,1,112
128,176,176082,1,0,0:0:0:0:
128,48,176225,2,0,P|160:48|192:64,1,56
272,112,176511,1,0,0:0:0:0:
384,160,176653,1,0,0:0:0:0:
496,112,176796,5,0,0:0:0:0:
64,160,177082,1,0,0:0:0:0:
368,256,177368,1,0,0:0:0:0:
256,32,177653,1,0,0:0:0:0:
176,64,177796,1,0,0:0:0:0:
208,144,177939,2,0,P|224:208|192:256,1,112
144,288,178368,2,0,P|192:320|256:304,1,112
288,240,178796,1,0,0:0:0:0:
368,256,178939,1,0,0:0:0:0:
384,336,179082,5,0,0:0:0:0:
256,48,179368,1,0,0:0:0:0:
144,288,179653,1,0,0:0:0:0:
480,96,179939,1,0,0:0:0:0:
512,176,180082,1,0,0:0:0:0:
448,224,180225,2,0,P|384:224|352:256,1,112
304,320,180653,2,0,P|256:352|240:352,1,56
112,352,180939,1,0,0:0:0:0:
160,96,181368,6,0,P|192:160|176:208,1,112
96,192,181939,2,0,P|112:256|144:288,1,112
320,304,182511,2,0,L|352:336,7,28
224,208,183082,1,0,0:0:0:0:
96,80,183225,1,0,0:0:0:0:
112,224,183368,1,0,0:0:0:0:
240,48,183511,1,0,0:0:0:0:
400,256,183653,6,0,L|480:288,1,56
160,80,183939,2,0,L|96:48,1,56
240,288,184225,2,0,L|224:368,1,56
352,80,184511,2,0,P|400:48|416:48,1,56
480,128,184796,2,0,P|416:176|336:176,1,112
272,192,185225,1,0,0:0:0:0:
80,288,185368,2,0,P|128:224|192:208,1,112
176,304,185796,1,0,0:0:0:0:
272,304,185939,5,0,0:0:0:0:
48,64,186225,2,0,L|112:80,1,56
368,160,186511,1,0,0:0:0:0:
304,64,186796,2,0,P|368:48|400:64,1,56
320,192,187082,2,0,P|240:192|192:160,1,112
304,64,187653,2,0,P|288:112|272:128,1,56
160,304,187939,2,0,L|144:336,3,28
144,336,188225,5,0,0:0:0:0:
352,64,188511,1,0,0:0:0:0:
352,304,188796,1,0,0:0:0:0:
112,48,189082,2,0,L|160:96,1,56
352,288,189368,2,0,P|400:336|448:352,1,112
448,112,189796,2,0,P|400:48|336:32,1,112
272,176,190225,1,0,0:0:0:0:
112,240,190368,1,0,0:0:0:0:
256,192,190511,12,0,191653,0:0:0:0:
320,32,192225,6,0,P|288:96|352:176,1,168
384,176,192797,2,0,B|304:176|304:176|272:224|256:208,1,119.000002269745
96,352,193368,2,0,B|162:345|192:272,1,119.000002269745
416,32,193939,2,0,B|349:38|320:112,1,119.000002269745
240,320,194512,1,0,0:0:0:0:
192,80,194654,1,0,0:0:0:0:
368,208,194797,1,0,0:0:0:0:
272,32,194940,1,0,0:0:0:0:
128,144,195083,6,0,P|64:160|16:112,1,119.000002269745
256,48,195654,2,0,P|368:48|384:112,1,119.000002269745
464,256,196226,1,0,0:0:0:0:
288,176,196369,1,0,0:0:0:0:
368,352,196512,1,0,0:0:0:0:
384,32,196797,1,0,0:0:0:0:
160,128,196940,1,0,0:0:0:0:
368,208,197083,1,0,0:0:0:0:
256,32,197226,1,0,0:0:0:0:
480,192,197369,2,0,P|384:192|352:240,1,119.000002269745
80,304,197940,6,0,P|176:320|208:288,1,119.000002269745
288,176,198369,1,0,0:0:0:0:
448,64,198512,2,0,P|480:128|480:176,1,119.000002269745
256,336,199083,1,0,0:0:0:0:
176,112,199226,1,0,0:0:0:0:
368,176,199369,1,0,0:0:0:0:
160,336,199512,1,0,0:0:0:0:
16,176,199654,6,0,P|48:256|80:288,1,119.000002269745
160,192,200083,2,0,P|136:137|98:91,1,119.000002269745
240,96,200512,2,0,P|320:48|352:0,1,119.000002269745
416,64,200939,1,0,0:0:0:0:
240,16,201082,1,0,0:0:0:0:
272,352,201368,1,0,0:0:0:0:
288,176,201511,1,0,0:0:0:0:
144,240,201653,1,0,0:0:0:0:
144,48,201796,1,0,0:0:0:0:
96,144,201940,6,0,B|176:144|176:144|208:96|224:112,1,119.000002269745
400,128,202512,2,0,P|464:96|496:48,1,119.000002269745
112,256,203083,2,0,P|48:288|16:336,1,119.000002269745
160,336,203655,1,0,0:0:0:0:
320,304,203797,1,0,0:0:0:0:
128,224,203940,1,0,0:0:0:0:
240,352,204083,1,0,0:0:0:0:
384,224,204226,2,0,P|448:208|496:256,1,119.000002269745
432,336,204797,6,0,P|336:304|304:272,1,119.000002269745
96,80,205369,1,0,0:0:0:0:
224,208,205512,1,0,0:0:0:0:
96,80,205655,1,0,0:0:0:0:
128,304,205940,1,0,0:0:0:0:
256,352,206083,1,0,0:0:0:0:
224,208,206226,1,0,0:0:0:0:
128,304,206369,1,0,0:0:0:0:
320,240,206512,2,0,P|400:224|448:192,1,119.000002269745
192,128,207083,6,0,P|112:160|80:192,1,119.000002269745
256,192,207512,1,0,0:0:0:0:
320,256,207655,2,0,P|384:240|432:192,1,119.000002269745
160,64,208226,1,0,0:0:0:0:
336,112,208369,1,0,0:0:0:0:
144,160,208512,1,0,0:0:0:0:
304,32,208655,1,0,0:0:0:0:
448,192,208797,2,0,P|484:238|501:295,1,119.000002269745
336,240,209226,2,0,P|288:176|272:128,1,119.000002269745
208,96,209655,2,0,P|160:176|112:208,2,119.000002269745
48,144,210512,2,0,P|48:224|128:320,1,178.500003404617
128,304,211082,6,0,P|176:304|208:320,1,62.9999980773926
368,320,211653,2,0,L|416:288,1,31.4999990386963
480,256,211939,1,0,0:0:0:0:
240,176,212511,1,0,0:0:0:0:
464,64,213082,1,0,0:0:0:0:
368,288,213225,1,0,0:0:0:0:
288,80,213368,2,0,L|240:48,1,31.4999990386963
512,208,213653,1,0,0:0:0:0:
288,80,214082,2,0,L|256:64,1,31.4999990386963
432,320,214796,6,0,L|464:336,1,31.4999990386963
352,304,215082,1,0,0:0:0:0:
272,320,215225,1,0,0:0:0:0:
192,288,215368,1,0,0:0:0:0:
160,208,215511,1,0,0:0:0:0:
208,128,215653,1,0,0:0:0:0:
288,80,215939,2,0,P|352:96|400:80,1,94.499997116089
448,48,216511,1,0,0:0:0:0:
384,240,217082,5,0,0:0:0:0:
368,160,217225,1,0,0:0:0:0:
320,96,217368,1,0,0:0:0:0:
256,48,217511,1,0,0:0:0:0:
176,48,217653,1,0,0:0:0:0:
112,96,217796,1,0,0:0:0:0:
96,176,217939,2,0,P|112:224|144:240,1,62.9999980773926
192,192,218368,2,0,P|224:240|224:256,1,62.9999980773926
192,320,218796,1,0,0:0:0:0:
256,192,219082,12,0,220225,0:0:0:0:
