osu file format v14

[General]
AudioFilename: audio.mp3
AudioLeadIn: 0
PreviewTime: 45523
Countdown: 0
SampleSet: Soft
StackLeniency: 0.7
Mode: 0
LetterboxInBreaks: 0
WidescreenStoryboard: 0

[Editor]
DistanceSpacing: 1.9
BeatDivisor: 8
GridSize: 4
TimelineZoom: 1

[Metadata]
Title:Solo (feat. Demi Lovato)
TitleUnicode:Solo (feat. Demi Lovato)
Artist:Clean Bandit
ArtistUnicode:Clean Bandit
Creator:Lolipop
Version:Insane
Source:1.3, 1.5, 1.7, 2.2
Tags:EDM Dance Deep House
BeatmapID:1948056
BeatmapSetID:933087

[Difficulty]
HPDrainRate:6
CircleSize:3.8
OverallDifficulty:7.5
ApproachRate:9
SliderMultiplier:1.7
SliderTickRate:1

[Events]
//Background and Video events
0,0,"bg.jpg",0,0
//Break Periods
//Storyboard Layer 0 (Background)
//Storyboard Layer 1 (Fail)
//Storyboard Layer 2 (Pass)
//Storyboard Layer 3 (Foreground)
//Storyboard Sound Samples

[TimingPoints]
381,571.428571428571,4,2,0,40,1,0
44952,-76.9230769230769,4,2,0,40,0,0
46095,-62.5,4,2,0,40,0,0
46952,-76.9230769230769,4,2,0,40,0,0
48380,-62.5,4,2,0,40,0,0
49238,-76.9230769230769,4,2,0,40,0,0
50666,-62.5,4,2,0,40,0,0
51523,-76.9230769230769,4,2,0,40,0,0
55238,-62.5,4,2,0,40,0,0
56095,-76.9230769230769,4,2,0,40,0,0
57523,-62.5,4,2,0,40,0,0
58380,-76.9230769230769,4,2,0,40,0,0
59809,-62.5,4,2,0,40,0,0
60666,-76.9230769230769,4,2,0,40,0,0
62095,-125,4,2,0,40,0,0
64380,-62.5,4,2,0,40,0,1
82666,-76.9230769230769,4,2,0,40,0,0
100952,-100,4,2,0,40,0,0
118095,-76.9230769230769,4,2,0,40,0,0

[Colours]
Combo1 : 1,223,241
Combo2 : 248,233,50
Combo3 : 250,56,148
Combo4 : 248,150,52

[HitObjects]
100,104,666,5,0,0:0:0:0:
172,187,952,2,0,P|214:201|262:192,1,85
355,121,1523,2,0,P|341:163|350:211,1,85
413,295,2095,2,0,L|364:302,3,42.5
326,333,2666,1,0,0:0:0:0:
182,278,2952,5,0,0:0:0:0:
102,200,3238,2,0,P|96:158|110:118,1,85
159,93,3666,1,0,0:0:0:0:
205,122,3809,2,0,L|264:117,1,42.5
295,91,4095,2,0,P|296:143|334:185,1,85
404,232,4666,1,0,0:0:0:0:
476,148,4952,1,0,0:0:0:0:
404,232,5238,5,0,0:0:0:0:
319,302,5523,2,0,P|275:306|229:288,1,85
119,301,6095,2,0,P|153:273|172:228,1,85
155,127,6666,2,0,L|137:77,3,42.5
305,103,7523,6,0,P|308:76|323:67,1,42.5
400,95,7809,2,0,P|427:98|436:113,1,42.5
413,192,8095,2,0,P|410:219|395:228,1,42.5
317,252,8380,6,0,P|291:253|263:248,1,42.5
206,302,8666,2,0,P|180:296|154:284,1,42.5
82,310,8952,2,0,P|62:292|46:268,1,42.5
36,195,9238,1,0,0:0:0:0:
183,111,9523,6,0,L|286:104,1,85
373,71,10095,1,0,0:0:0:0:
410,112,10238,1,0,0:0:0:0:
410,166,10380,1,0,0:0:0:0:
345,255,10666,6,0,P|313:218|305:172,1,85
220,111,11238,2,0,P|219:153|199:190,1,85
112,258,11809,1,0,0:0:0:0:
63,158,12095,1,0,0:0:0:0:
112,258,12380,1,0,0:0:0:0:
160,284,12523,1,0,0:0:0:0:
214,278,12666,1,0,0:0:0:0:
299,208,12952,6,0,L|310:114,1,85
409,77,13523,1,0,0:0:0:0:
309,29,13809,1,0,0:0:0:0:
218,92,14095,2,0,P|171:106|125:94,1,85
73,190,14666,5,0,0:0:0:0:
35,149,14809,1,0,0:0:0:0:
25,94,14952,1,0,0:0:0:0:
108,21,15238,2,0,P|131:63|133:125,1,85
73,190,15809,2,0,L|172:199,2,85
31,292,16666,1,0,0:0:0:0:
135,329,16952,6,0,P|171:310|232:320,1,85
320,341,17523,2,0,P|361:343|399:323,1,85
428,276,17952,1,0,0:0:0:0:
404,226,18095,2,0,L|413:176,3,42.5
452,146,18666,5,0,0:0:0:0:
317,73,18952,1,0,0:0:0:0:
312,175,19238,1,0,0:0:0:0:
335,125,19380,1,0,0:0:0:0:
317,73,19523,1,0,0:0:0:0:
211,39,19809,6,0,L|117:48,1,85
29,99,20380,1,0,0:0:0:0:
129,144,20666,1,0,0:0:0:0:
36,204,20952,2,0,P|31:247|55:300,1,85
144,239,21523,1,0,0:0:0:0:
162,187,21666,1,0,0:0:0:0:
129,144,21809,1,0,0:0:0:0:
29,99,22095,6,0,P|24:56|48:3,1,85
147,6,22666,1,0,0:0:0:0:
169,106,22952,1,0,0:0:0:0:
137,60,23095,1,0,0:0:0:0:
147,6,23238,1,0,0:0:0:0:
256,14,23523,1,0,0:0:0:0:
340,85,23809,6,0,P|334:113|333:142,2,42.5
437,33,24380,2,0,P|450:85|444:122,1,85
358,217,24952,2,0,P|398:204|440:208,2,85
275,291,25809,1,0,0:0:0:0:
164,282,26095,5,0,0:0:0:0:
133,235,26238,1,0,0:0:0:0:
144,181,26380,1,0,0:0:0:0:
193,81,26666,2,0,P|146:94|91:74,1,85
20,38,27238,1,0,0:0:0:0:
39,169,27523,2,0,L|30:221,1,42.5
10,257,27809,6,0,L|143:246,1,127.5
174,211,28380,1,0,0:0:0:0:
230,305,28666,1,0,0:0:0:0:
315,234,28952,2,0,P|318:188|292:132,1,85
199,121,29523,2,0,P|196:75|222:19,1,85
319,46,30095,6,0,L|421:37,2,85
208,38,30952,1,0,0:0:0:0:
105,79,31238,2,0,P|86:116|82:158,1,85
192,173,31809,2,0,P|176:223|150:251,1,85
106,274,32238,1,0,0:0:0:0:
106,274,32380,6,0,P|114:324|164:347,2,85
100,163,33238,1,0,0:0:0:0:
164,73,33523,2,0,P|205:89|262:71,1,85
328,154,34095,2,0,P|312:195|330:252,1,85
398,311,34666,5,0,0:0:0:0:
290,335,34952,1,0,0:0:0:0:
180,317,35238,1,0,0:0:0:0:
235,328,35380,1,0,0:0:0:0:
290,335,35523,1,0,0:0:0:0:
398,311,35809,5,0,0:0:0:0:
349,211,36095,2,0,L|357:153,1,42.5
415,110,36380,2,0,P|370:89|314:94,1,85
254,124,36952,2,0,B|241:77|241:77|249:31,2,85
326,207,37809,1,0,0:0:0:0:
231,264,38095,5,0,0:0:0:0:
175,268,38238,1,0,0:0:0:0:
126,242,38380,1,0,0:0:0:0:
48,162,38666,2,0,L|60:66,1,85
158,125,39238,6,0,P|202:139|257:129,1,85
380,74,39809,2,0,P|366:118|376:173,1,85
413,261,40380,2,0,B|377:259|377:259|356:269|356:269|317:266,1,85
230,219,40952,2,0,P|239:267|226:309,1,85
130,348,41523,5,0,0:0:0:0:
130,348,42095,1,0,0:0:0:0:
57,180,42380,1,0,0:0:0:0:
221,161,42666,1,0,0:0:0:0:
221,161,43238,1,0,0:0:0:0:
308,93,43523,5,0,0:0:0:0:
403,149,43809,2,0,P|364:188|406:246,1,127.5
441,273,44380,2,0,P|452:321|366:340,1,127.5
296,315,44952,2,0,L|246:323,6,27.6249987354279
225,299,45523,5,0,0:0:0:0:
132,299,45666,1,0,0:0:0:0:
132,299,45809,1,0,0:0:0:0:
132,299,45952,1,0,0:0:0:0:
48,213,46095,6,0,P|40:179|51:126,1,68
139,69,46380,2,0,P|173:61|226:72,1,68
296,147,46666,2,0,P|329:150|362:142,1,68
448,53,46952,5,0,0:0:0:0:
448,53,47095,1,0,0:0:0:0:
497,139,47238,2,0,L|488:255,1,110.499994941712
401,313,47666,2,0,P|387:283|384:237,1,55.2499974708558
379,152,47952,1,0,0:0:0:0:
81,324,48380,6,0,P|77:290|85:257,1,68
199,186,48666,2,0,P|165:189|132:181,1,68
56,83,48952,2,0,P|90:86|123:78,1,68
226,0,49238,5,0,0:0:0:0:
378,45,49380,1,0,0:0:0:0:
299,93,49523,2,0,P|282:143|299:220,1,110.499994941712
360,270,49952,2,0,P|333:291|294:301,1,55.2499974708558
213,290,50238,1,0,0:0:0:0:
464,4,50666,6,0,P|476:35|479:69,1,68
371,129,50952,2,0,P|373:162|386:194,1,68
459,293,51238,2,0,B|439:290|439:290|414:302|414:302|363:301,1,68
300,267,51523,5,0,0:0:0:0:
208,306,51666,1,0,0:0:0:0:
151,224,51809,2,0,P|140:167|160:109,1,110.499994941712
229,42,52238,2,0,L|297:46,1,55.2499974708558
372,91,52523,1,0,0:0:0:0:
393,301,52952,6,0,L|383:185,1,110.499994941712
504,77,53523,2,0,P|473:71|431:73,1,55.2499974708558
357,111,53809,2,0,P|329:110|302:104,1,55.2499974708558
228,58,54095,2,0,L|179:65,6,27.6249987354279
153,132,54666,5,0,0:0:0:0:
170,227,54809,1,0,0:0:0:0:
170,227,54952,1,0,0:0:0:0:
170,227,55095,1,0,0:0:0:0:
85,267,55238,6,0,P|88:305|122:336,1,68
85,183,55523,2,0,P|47:186|16:220,1,68
170,227,55809,2,0,P|208:224|239:190,1,68
313,104,56095,5,0,0:0:0:0:
439,128,56238,1,0,0:0:0:0:
366,194,56380,2,0,P|362:253|406:280,1,110.499994941712
485,331,56809,2,0,P|497:296|493:265,1,55.2499974708558
492,194,57095,1,0,0:0:0:0:
492,194,57238,1,0,0:0:0:0:
492,194,57380,1,0,0:0:0:0:
398,108,57523,6,0,P|365:100|331:104,1,68
258,203,57809,2,0,P|224:207|191:199,1,68
58,104,58095,2,0,P|74:137|70:192,1,68
2,292,58380,5,0,0:0:0:0:
89,338,58523,1,0,0:0:0:0:
188,341,58666,2,0,L|255:336,1,55.2499974708558
387,262,58952,1,0,0:0:0:0:
314,193,59095,2,0,P|292:225|288:256,1,55.2499974708558
409,170,59380,2,0,P|400:143|383:122,1,55.2499974708558
150,44,59809,6,0,L|140:125,1,68
39,181,60095,2,0,L|29:262,1,68
129,321,60380,2,0,P|162:314|222:321,1,68
290,349,60666,5,0,0:0:0:0:
290,349,60809,1,0,0:0:0:0:
257,254,60952,2,0,P|245:199|278:144,1,110.499994941712
344,88,61380,2,0,L|409:83,2,55.2499974708558
247,59,61809,1,0,0:0:0:0:
354,211,62095,6,0,B|362:253|362:253|347:282|347:282|355:316,2,102
268,152,63238,2,0,L|195:147,1,68
91,81,63809,2,0,P|107:136|94:185,1,102
43,281,64380,6,0,L|116:276,1,68
207,341,64666,2,0,L|280:336,1,68
373,274,64952,2,0,P|377:235|364:188,1,68
255,207,65238,2,0,P|251:168|264:121,1,68
326,47,65523,6,0,L|420:51,1,68
472,135,65809,2,0,L|404:132,1,68
287,141,66095,2,0,P|281:185|299:223,3,68
440,278,66666,6,0,L|367:273,1,68
276,338,66952,2,0,L|203:333,1,68
111,268,67238,2,0,P|107:229|120:182,1,68
83,88,67523,2,0,P|122:84|169:97,1,68
244,157,67809,5,0,0:0:0:0:
332,162,67952,1,0,0:0:0:0:
243,155,68095,1,0,0:0:0:0:
323,77,68238,1,0,0:0:0:0:
411,131,68380,2,0,P|416:164|412:198,1,68
244,222,68666,2,0,P|238:188|242:154,1,68
256,70,68952,6,0,P|288:67|326:78,1,68
174,104,69238,2,0,P|142:107|104:96,1,68
4,57,69523,2,0,L|13:146,1,68
92,186,69809,2,0,L|101:275,1,68
189,326,70095,6,0,P|225:332|271:319,1,68
356,269,70380,2,0,P|362:233|349:187,1,68
264,131,70666,2,0,L|169:138,1,68
110,57,70952,2,0,L|177:52,1,68
292,49,71238,6,0,P|349:75|344:214,1,204
249,248,71809,1,0,0:0:0:0:
467,172,72095,1,0,0:0:0:0:
249,248,72380,2,0,P|183:248|171:167,1,136
361,307,72952,2,0,P|394:249|329:198,1,136
267,164,73380,1,0,0:0:0:0:
267,164,73523,6,0,P|259:130|267:89,1,68
342,29,73809,2,0,P|375:24|408:32,1,68
483,121,74095,2,0,L|471:209,1,68
355,201,74380,2,0,L|343:289,1,68
245,327,74666,6,0,P|211:331|178:323,1,68
65,352,74952,2,0,P|60:318|68:285,1,68
133,188,75238,2,0,L|58:181,3,68
14,77,75809,6,0,L|84:84,1,68
184,29,76095,2,0,L|254:36,1,68
350,96,76380,2,0,P|340:131|350:183,1,68
446,215,76666,2,0,P|448:181|438:148,1,68
359,248,76952,2,0,P|357:282|367:315,3,68
454,367,77523,5,0,0:0:0:0:
502,288,77666,1,0,0:0:0:0:
446,215,77809,1,0,0:0:0:0:
483,131,77952,1,0,0:0:0:0:
369,108,78095,6,0,L|282:113,1,68
252,217,78380,2,0,L|165:222,1,68
77,173,78666,2,0,P|74:139|84:106,1,68
156,33,78952,2,0,P|189:30|222:40,1,68
301,111,79238,6,0,L|369:108,1,68
416,198,79523,2,0,L|348:201,1,68
267,266,79809,2,0,P|262:310|271:353,3,68
360,297,80380,6,0,P|434:293|503:325,1,136
471,214,80809,1,0,0:0:0:0:
471,214,80952,2,0,P|462:173|467:122,1,68
360,164,81238,2,0,P|361:122|379:74,1,68
430,15,81523,2,0,L|279:25,1,136
192,12,81952,1,0,0:0:0:0:
192,12,82095,2,0,P|220:53|121:136,1,204
29,121,82666,6,0,P|23:181|40:253,1,110.499994941712
110,300,83095,1,0,0:0:0:0:
110,300,83238,2,0,L|170:295,1,55.2499974708558
226,217,83523,2,0,L|286:212,1,55.2499974708558
359,150,83809,6,0,P|401:153|428:223,1,110.499994941712
363,309,84238,1,0,0:0:0:0:
363,309,84380,2,0,P|324:307|292:294,1,55.2499974708558
281,212,84666,2,0,P|254:205|226:205,1,55.2499974708558
132,239,84952,6,0,P|105:202|128:122,1,110.499994941712
183,70,85380,1,0,0:0:0:0:
183,70,85523,2,0,L|243:75,1,55.2499974708558
295,156,85809,2,0,L|355:161,1,55.2499974708558
426,225,86095,2,0,P|407:176|439:102,1,110.499994941712
471,35,86523,1,0,0:0:0:0:
471,35,86666,6,0,P|436:25|399:31,1,55.2499974708558
328,73,86952,2,0,P|300:72|274:63,1,55.2499974708558
181,25,87238,2,0,L|193:144,1,110.499994941712
264,203,87666,1,0,0:0:0:0:
264,203,87809,2,0,P|262:239|274:270,1,55.2499974708558
198,330,88095,2,0,P|162:328|131:340,1,55.2499974708558
48,361,88380,6,0,L|41:295,1,55.2499974708558
117,239,88666,2,0,L|124:173,1,55.2499974708558
90,89,88952,2,0,P|141:80|203:126,2,110.499994941712
38,281,89809,1,0,0:0:0:0:
191,219,90095,6,0,P|224:213|259:219,1,55.2499974708558
279,139,90380,2,0,P|306:158|327:187,1,55.2499974708558
345,254,90666,2,0,L|461:248,1,110.499994941712
424,170,91095,1,0,0:0:0:0:
424,170,91238,2,0,P|418:133|427:112,1,55.2499974708558
451,38,91523,2,0,P|424:31|398:38,1,55.2499974708558
337,95,91809,6,0,P|281:112|223:81,1,110.499994941712
162,24,92238,1,0,0:0:0:0:
104,104,92380,2,0,L|96:178,1,55.2499974708558
175,222,92666,2,0,L|167:296,1,55.2499974708558
95,344,92952,6,0,P|50:348|26:357,2,55.2499974708558
192,365,93380,1,0,0:0:0:0:
192,365,93523,2,0,P|248:371|304:355,1,110.499994941712
455,188,94095,2,0,P|478:234|450:295,1,110.499994941712
390,359,94523,1,0,0:0:0:0:
341,271,94666,6,0,P|312:263|273:264,1,55.2499974708558
203,207,94952,2,0,P|204:179|211:152,1,55.2499974708558
266,69,95238,2,0,L|341:63,1,55.2499974708558
357,182,95523,2,0,L|301:177,1,55.2499974708558
211,152,95809,2,0,P|156:146|100:169,1,110.499994941712
70,361,96380,6,0,P|56:313|97:272,1,110.499994941712
191,297,96809,1,0,0:0:0:0:
191,297,96952,2,0,L|266:291,1,55.2499974708558
328,350,97238,2,0,L|403:344,1,55.2499974708558
456,278,97523,6,0,P|458:250|447:212,1,55.2499974708558
354,201,97809,2,0,P|352:173|363:135,1,55.2499974708558
444,100,98095,2,0,P|446:44|405:-5,2,110.499994941712
254,161,98952,1,0,0:0:0:0:
254,161,99238,5,0,0:0:0:0:
199,155,99380,1,0,0:0:0:0:
144,148,99523,1,0,0:0:0:0:
40,231,99809,1,0,0:0:0:0:
78,31,100095,2,0,P|108:24|143:28,1,55.2499974708558
221,70,100380,2,0,P|251:77|286:73,1,55.2499974708558
363,27,100666,1,0,0:0:0:0:
440,89,100809,1,0,0:0:0:0:
440,89,100952,6,0,P|462:162|442:221,1,127.5
407,246,101523,1,0,0:0:0:0:
498,308,101809,1,0,0:0:0:0:
407,246,102095,2,0,P|364:237|311:260,1,85
244,324,102666,2,0,P|203:335|162:326,1,85
68,268,103238,6,0,L|54:367,2,85
134,179,104095,1,0,0:0:0:0:
92,76,104380,2,0,P|135:67|188:90,1,85
246,161,104951,2,0,P|234:201|243:242,1,85
286,277,105380,1,0,0:0:0:0:
286,277,105523,6,0,P|297:317|288:358,2,85
186,324,106380,1,0,0:0:0:0:
189,213,106666,2,0,P|217:178|265:163,1,85
354,209,107238,2,0,P|363:173|350:120,1,85
270,53,107809,5,0,0:0:0:0:
169,100,108095,1,0,0:0:0:0:
83,55,108380,1,0,0:0:0:0:
137,62,108523,1,0,0:0:0:0:
169,100,108666,1,0,0:0:0:0:
154,209,108952,5,0,0:0:0:0:
145,319,109238,2,0,L|204:313,1,42.5
270,344,109523,2,0,P|274:300|245:254,1,85
154,209,110095,2,0,B|106:216|106:216|52:200,2,85
236,135,110952,1,0,0:0:0:0:
341,100,111238,5,0,0:0:0:0:
391,121,111380,1,0,0:0:0:0:
409,173,111523,1,0,0:0:0:0:
354,269,111809,2,0,L|262:265,1,85
172,320,112380,6,0,P|182:281|164:228,1,85
64,208,112952,2,0,P|54:169|72:116,1,85
155,63,113523,2,0,B|185:90|185:90|239:84,1,85
332,44,114095,2,0,B|343:147,1,85
287,225,114666,5,0,0:0:0:0:
287,225,115238,1,0,0:0:0:0:
128,315,115523,1,0,0:0:0:0:
92,153,115809,1,0,0:0:0:0:
92,153,116381,1,0,0:0:0:0:
198,43,116666,5,0,0:0:0:0:
278,118,116952,2,0,P|331:141|381:82,1,127.5
430,79,117523,2,0,P|407:144|438:207,1,127.5
491,279,118095,2,0,L|480:320,6,27.6249987354279
