osu file format v14

[General]
AudioFilename: calamity.mp3
AudioLeadIn: 0
PreviewTime: 7980
Countdown: 0
SampleSet: Normal
StackLeniency: 0.6
Mode: 0
LetterboxInBreaks: 1
WidescreenStoryboard: 0

[Editor]
Bookmarks: 8500,18100,27700,36100,37300
DistanceSpacing: 1
BeatDivisor: 8
GridSize: 8
TimelineZoom: 1.6

[Metadata]
Title:AngeLMegumin Fortune
TitleUnicode:AngeLMegumin Fortune
Artist:Clarity
ArtistUnicode:Clarity
Creator:Antares-
Version:Advanced
Source:
Tags:LeaF Calamity Angelsim FailureAtOsu HighTec Jakomo73
BeatmapID:1114519
BeatmapSetID:517651

[Difficulty]
HPDrainRate:3.7
CircleSize:3.5
OverallDifficulty:5
ApproachRate:6
SliderMultiplier:1.5
SliderTickRate:1

[Events]
//Background and Video events
0,0,"bg.jpg",0,0
Video,0,"video.avi"
//Break Periods
//Storyboard Layer 0 (Background)
//Storyboard Layer 1 (Fail)
//Storyboard Layer 2 (Pass)
//Storyboard Layer 3 (Foreground)
//Storyboard Sound Samples

[TimingPoints]
30,300,4,1,1,25,1,0
930,-100,4,1,1,45,0,0
1230,-100,4,1,1,55,0,0
3030,-100,4,1,1,65,0,0
3630,-100,4,1,1,75,0,0
4830,-100,4,1,1,80,0,0
8430,-100,4,1,1,80,0,1
17130,-100,4,1,1,80,0,0
18030,-100,4,1,1,80,0,1
27630,-133.333333333333,4,1,1,60,0,0
34830,-100,4,1,1,60,0,0
35130,-100,4,1,1,65,0,0
35430,-100,4,1,1,70,0,0
35730,-100,4,1,1,75,0,0
36030,-100,4,1,1,80,0,0
36630,-100,4,1,1,85,0,0
36930,-100,4,1,1,90,0,0
37830,-100,4,1,1,80,0,0
38430,-100,4,1,1,65,0,0
39030,-100,4,1,1,50,0,0
39630,-100,4,1,1,35,0,0
40230,-100,4,1,1,20,0,0
40830,-100,4,1,1,5,0,0

[Colours]
Combo1 : 255,190,94
Combo2 : 0,128,255
Combo3 : 255,121,121
Combo4 : 0,234,234

[HitObjects]
126,185,30,6,0,P|99:256|129:328,2,150,0|0|2,0:0|0:0|0:0,0:0:0:0:
188,92,930,1,8,0:0:0:0:
285,149,1230,6,0,P|350:176|430:143,2,150,2|0|2,0:0|0:0|0:0,0:0:0:0:
188,92,2130,1,8,0:0:0:0:
188,92,2430,6,0,P|173:165|194:250,1,150,2|8,0:0|0:0,0:0:0:0:
325,302,3030,2,0,P|340:229|319:144,1,150,2|8,0:0|0:0,0:0:0:0:
248,28,3630,5,4,0:0:0:0:
394,62,3930,1,8,0:0:0:0:
261,131,4230,1,8,0:0:0:0:
118,85,4530,1,8,0:0:0:0:
152,231,4830,5,4,0:0:0:0:
152,231,5130,2,0,L|152:319,1,75,10|0,0:0|0:0,0:0:0:0:
231,336,5430,2,0,L|232:249,1,75,8|0,0:0|0:0,0:0:0:0:
308,219,5730,2,0,L|309:312,1,75,2|0,0:0|0:0,0:0:0:0:
359,350,6030,5,4,0:0:0:0:
439,220,6330,1,8,0:0:0:0:
359,95,6630,2,0,L|329:8,1,75,4|0,0:0|0:0,0:0:0:0:
271,90,6930,2,0,L|296:166,1,75,12|0,0:0|0:0,0:0:0:0:
328,239,7230,5,4,0:0:0:0:
173,213,7530,1,8,0:0:0:0:
271,90,7830,1,8,0:0:0:0:
328,239,8130,2,0,L|347:288,1,37.5,6|0,0:0|0:0,0:0:0:0:
432,153,8430,6,0,P|392:92|351:78,2,112.5,6|0|0,0:0|0:0|0:0,0:0:0:0:
347,165,9030,2,0,P|305:174|268:159,1,75,10|0,0:0|0:0,0:0:0:0:
198,127,9330,2,0,P|157:118|120:129,1,75,8|0,0:0|0:0,0:0:0:0:
69,193,9630,6,0,P|52:249|75:305,2,112.5,4|0|0,0:0|0:0|0:0,0:0:0:0:
137,246,10230,2,0,P|181:262|226:244,1,75,10|0,0:0|0:0,0:0:0:0:
287,228,10530,2,0,P|322:213|358:218,1,75,8|0,0:0|0:0,0:0:0:0:
412,297,10830,6,0,P|448:245|447:190,2,112.5,4|0|0,0:0|0:0|0:0,0:0:0:0:
358,218,11430,2,0,L|343:139,1,75,8|0,0:0|0:0,0:0:0:0:
300,72,11730,1,8,0:0:0:0:
262,146,11880,1,0,0:0:0:0:
217,76,12030,5,6,0:0:0:0:
146,225,12330,1,8,0:0:0:0:
310,213,12630,1,10,0:0:0:0:
217,76,12930,1,8,0:0:0:0:
217,76,13230,6,0,P|166:43|114:49,2,112.5,6|0|0,0:0|0:0|0:0,0:0:0:0:
149,128,13830,2,0,P|131:168|145:212,1,75,10|0,0:0|0:0,0:0:0:0:
168,279,14130,2,0,P|180:323|168:362,1,75,8|0,0:0|0:0,0:0:0:0:
94,321,14430,6,0,P|54:289|45:219,2,112.5,4|0|0,0:0|0:0|0:0,0:0:0:0:
168,279,15030,2,0,P|221:264|263:290,1,75,10|0,0:0|0:0,0:0:0:0:
314,311,15330,2,0,P|355:328|396:312,1,75,8|0,0:0|0:0,0:0:0:0:
459,279,15630,6,0,P|474:220|454:172,2,112.5,4|0|0,0:0|0:0|0:0,0:0:0:0:
389,229,16230,2,0,L|325:178,1,75,10|0,0:0|0:0,0:0:0:0:
258,111,16530,1,0,0:0:0:0:
246,196,16680,1,8,0:0:0:0:
177,140,16830,6,0,P|159:214|197:272,1,150,4|8,0:0|0:0,0:0:0:0:
283,279,17280,1,2,0:0:0:0:
234,350,17430,2,0,P|283:369|383:339,1,150,4|8,0:0|0:0,0:0:0:0:
444,295,17880,1,2,0:0:0:0:
389,229,18030,6,0,P|363:176|377:120,2,112.5,6|0|0,0:0|0:0|0:0,0:0:0:0:
448,167,18630,2,0,P|462:127|449:84,1,75,10|0,0:0|0:0,0:0:0:0:
390,40,18930,2,0,L|315:40,1,75,8|0,0:0|0:0,0:0:0:0:
238,79,19230,6,0,P|182:96|119:65,2,112.5,4|0|0,0:0|0:0|0:0,0:0:0:0:
315,40,19830,2,0,P|324:86|310:126,1,75,10|0,0:0|0:0,0:0:0:0:
278,190,20130,2,0,P|264:235|282:279,1,75,8|0,0:0|0:0,0:0:0:0:
321,333,20430,6,0,P|267:348|210:323,2,112.5,4|0|0,0:0|0:0|0:0,0:0:0:0:
397,291,21030,2,0,L|397:207,1,75,10|0,0:0|0:0,0:0:0:0:
349,143,21330,1,8,0:0:0:0:
435,138,21480,1,0,0:0:0:0:
390,65,21630,6,0,P|309:64|266:113,1,150,6|8,0:0|0:0,0:0:0:0:
204,267,22230,2,0,P|152:320|77:313,1,150,4|8,0:0|0:0,0:0:0:0:
98,133,22830,6,0,P|122:184|122:240,2,112.5,6|0|0,0:0|0:0|0:0,0:0:0:0:
41,69,23430,1,10,0:0:0:0:
125,51,23580,1,0,0:0:0:0:
184,113,23730,2,0,P|229:123|270:109,1,75,8|0,0:0|0:0,0:0:0:0:
330,72,24030,6,0,P|386:54|452:89,2,112.5,4|0|0,0:0|0:0|0:0,0:0:0:0:
256,116,24630,1,10,0:0:0:0:
331,158,24780,1,0,0:0:0:0:
256,200,24930,2,0,L|285:277,1,75,8|0,0:0|0:0,0:0:0:0:
337,338,25230,6,0,P|283:357|217:327,2,112.5,4|0|0,0:0|0:0|0:0,0:0:0:0:
282,270,25830,1,10,0:0:0:0:
196,262,25980,1,0,0:0:0:0:
246,192,26130,2,0,P|258:145|245:110,1,75,8|0,0:0|0:0,0:0:0:0:
214,42,26430,5,6,0:0:0:0:
100,144,26730,1,10,0:0:0:0:
246,192,27030,1,10,0:0:0:0:
214,42,27330,1,10,0:0:0:0:
359,89,27630,6,0,B|405:107|405:107|351:155|348:214|393:264,1,225.000008583069,6|0,0:0|0:0,0:0:0:0:
459,191,28380,2,0,L|480:315,1,112.500004291535,2|0,0:0|0:0,0:0:0:0:
393,358,28830,6,0,P|287:371|232:262,1,225.000008583069,2|0,0:0|0:0,0:0:0:0:
329,277,29580,2,0,P|309:220|248:182,1,112.500004291535,2|0,0:0|0:0,0:0:0:0:
230,280,30030,6,0,B|206:318|206:318|135:215|163:140,1,225.000008583069,2|0,0:0|0:0,0:0:0:0:
248,181,30780,2,0,L|372:181,1,112.500004291535,2|0,0:0|0:0,0:0:0:0:
409,112,31230,6,0,L|381:49,1,56.2500021457673,2|0,0:0|0:0,0:0:0:0:
355,98,31530,2,0,L|327:35,1,56.2500021457673,8|0,0:0|0:0,0:0:0:0:
301,84,31830,2,0,L|273:21,1,56.2500021457673,2|0,0:0|0:0,0:0:0:0:
247,70,32130,2,0,L|219:7,1,56.2500021457673,8|0,0:0|0:0,0:0:0:0:
193,56,32430,6,0,P|153:161|236:238,1,225.000008583069,6|0,0:0|0:0,0:0:0:0:
253,139,33180,2,0,L|374:139,1,112.500004291535,2|0,0:0|0:0,0:0:0:0:
457,186,33630,6,0,B|490:230|490:230|387:252|323:220,1,225.000008583069,6|0,0:0|0:0,0:0:0:0:
252,139,34380,2,0,P|222:177|217:239,1,112.500004291535,2|0,0:0|0:0,0:0:0:0:
278,312,34830,6,0,L|332:375,2,75,6|0|8,0:0|0:0|0:0,0:0:0:0:
216,238,35280,2,0,P|161:202|79:224,1,150,2|0,0:0|0:0,0:0:0:0:
140,294,35730,2,0,L|207:373,1,75,10|0,0:0|0:0,0:0:0:0:
278,312,36030,6,0,L|356:312,1,75,6|4,0:0|0:0,0:0:0:0:
431,267,36330,2,0,L|387:199,1,75,8|4,0:0|0:0,0:0:0:0:
310,160,36630,2,0,L|310:235,1,75,10|4,0:0|0:0,0:0:0:0:
216,238,36930,2,0,L|216:149,1,75,8|0,0:0|0:0,0:0:0:0:
260,84,37230,5,14,0:0:0:0:
256,192,37380,12,0,40830,0:0:0:0:
