osu file format v14

[General]
AudioFilename: audio.mp3
AudioLeadIn: 0
PreviewTime: 111432
Countdown: 0
SampleSet: Soft
StackLeniency: 0.5
Mode: 0
LetterboxInBreaks: 0
WidescreenStoryboard: 0

[Editor]
DistanceSpacing: 1.5
BeatDivisor: 4
GridSize: 4
TimelineZoom: 2.2

[Metadata]
Title:Hitorigoto (you Remix Short ver.)
TitleUnicode:ヒトリゴト(you Remix Short ver.)
Artist:Claris
ArtistUnicode:Claris
Creator:Neptunee
Version:Sagiri
Source:エロマンガ先生
Tags:sagiri queen hitorigoto xfraczynho Einja Mentai Epicsteve2 Asuka_- Missa1912
BeatmapID:1298904
BeatmapSetID:615826

[Difficulty]
HPDrainRate:6
CircleSize:4.2
OverallDifficulty:9
ApproachRate:9.6
SliderMultiplier:2.1
SliderTickRate:1

[Events]
//Background and Video events
0,0,"BG.jpg",0,0
//Break Periods
2,22489,32752
2,84204,94435
//Storyboard Layer 0 (Background)
//Storyboard Layer 1 (Fail)
//Storyboard Layer 2 (Pass)
//Storyboard Layer 3 (Foreground)
//Storyboard Sound Samples

[TimingPoints]
347,342.857142857143,4,2,8,30,1,0
347,-100,4,2,8,30,0,0
9947,-400,4,2,8,30,0,0
10289,-100,4,2,8,30,0,0
10632,-400,4,2,8,30,0,0
10975,-100,4,2,8,60,0,0
27775,-200,4,2,8,60,0,0
33604,-133.333333333333,4,2,8,30,0,0
71661,-133.333333333333,4,2,8,50,0,0
83661,-133.333333333333,4,2,8,5,0,0
84004,-133.333333333333,4,2,8,60,0,0
116918,-133.333333333333,4,2,8,60,0,1
122061,-200,4,2,8,60,0,1
122404,-133.333333333333,4,2,8,60,0,1
126347,-285.714285714286,4,2,8,60,0,1
126861,-133.333333333333,4,2,8,60,0,1
138175,-133.333333333333,4,2,8,60,0,1
138861,-133.333333333333,4,2,8,50,0,0
149832,-133.333333333333,4,2,8,40,0,0

[HitObjects]
72,152,347,6,0,P|124:112|176:108,1,105,6|0,0:0|0:0,0:0:0:0:
224,52,689,2,0,P|252:96|242:145,1,105,8|0,0:0|0:0,0:0:0:0:
100,260,1032,1,0,0:0:0:0:
161,106,1204,1,8,0:0:0:0:
232,344,1375,1,2,0:0:0:0:
298,194,1547,1,0,0:0:0:0:
344,280,1718,6,0,P|328:216|272:188,1,105,2|0,0:0|0:0,0:0:0:0:
216,204,2061,2,0,P|228:148|272:120,1,105,8|0,0:0|0:0,0:0:0:0:
424,72,2404,1,0,0:0:0:0:
328,196,2575,1,0,0:0:0:0:
480,152,2747,1,0,0:0:0:0:
328,116,2918,1,0,0:0:0:0:
412,248,3089,5,0,0:0:0:0:
256,220,3261,1,0,0:0:0:0:
144,332,3432,1,0,0:0:0:0:
304,332,3604,1,0,0:0:0:0:
180,236,3775,1,0,0:0:0:0:
60,340,3947,1,0,0:0:0:0:
216,316,4118,1,0,0:0:0:0:
136,180,4289,1,0,0:0:0:0:
280,248,4461,5,0,0:0:0:0:
220,104,4632,1,0,0:0:0:0:
356,184,4804,1,0,0:0:0:0:
308,36,4975,1,0,0:0:0:0:
428,136,5147,1,0,0:0:0:0:
308,240,5318,1,0,0:0:0:0:
464,240,5489,1,0,0:0:0:0:
336,332,5661,1,0,0:0:0:0:
204,188,5832,6,0,P|184:112|196:80,1,105,2|0,0:0|0:0,0:0:0:0:
260,128,6175,2,0,P|328:100|376:112,1,105,8|0,0:0|0:0,0:0:0:0:
508,156,6518,1,2,0:0:0:0:
356,280,6689,1,0,0:0:0:0:
357,104,6861,1,8,0:0:0:0:
454,227,7032,1,0,0:0:0:0:
464,328,7204,6,0,P|448:248|468:204,1,105,2|0,0:0|0:0,0:0:0:0:
396,172,7547,2,0,P|336:180|296:216,1,105,8|0,0:0|0:0,0:0:0:0:
216,340,7889,1,2,0:0:0:0:
302,207,8061,1,0,0:0:0:0:
156,260,8232,1,8,0:0:0:0:
320,292,8404,1,0,0:0:0:0:
72,276,8575,5,2,0:0:0:0:
180,140,8747,1,0,0:0:0:0:
232,288,8918,1,8,0:0:0:0:
108,192,9089,1,0,0:0:0:0:
264,172,9261,1,2,0:0:0:0:
372,272,9432,1,0,0:0:0:0:
244,364,9604,1,8,0:0:0:0:
396,200,9775,1,0,0:0:0:0:
100,288,9947,6,0,P|128:280|144:276,1,39.375,6|0,0:0|0:0,0:0:0:0:
448,212,10289,6,2,P|392:200|360:196,1,52.5,2|0,0:0|0:0,0:0:0:0:
200,160,10461,1,2,0:3:0:0:
164,152,10546,1,2,0:3:0:0:
128,148,10632,6,0,P|92:144|84:144,1,39.375,2|0,0:3|0:0,0:0:0:0:
68,332,10975,6,2,L|68:268,1,52.5,8|0,0:0|0:0,0:0:0:0:
180,56,11147,2,2,L|180:112,1,52.5,2|0,0:0|0:0,0:0:0:0:
332,332,11318,6,0,L|332:224,1,105,6|0,0:0|0:0,0:0:0:0:
332,48,11661,1,8,0:0:0:0:
180,224,11832,1,0,0:0:0:0:
392,160,12004,1,2,0:0:0:0:
240,108,12175,1,0,0:0:0:0:
248,284,12347,1,8,0:0:0:0:
328,124,12518,1,0,0:0:0:0:
180,224,12689,6,0,P|104:208|80:164,1,105,2|0,0:0|0:0,0:0:0:0:
28,20,13032,1,8,0:0:0:0:
156,156,13204,1,0,0:0:0:0:
36,252,13375,1,2,0:0:0:0:
88,80,13547,1,0,0:0:0:0:
180,224,13718,1,8,0:0:0:0:
334,136,13889,1,0,0:0:0:0:
300,304,14061,6,0,P|268:212|248:196,1,105,2|0,0:0|0:0,0:0:0:0:
132,88,14404,1,8,0:0:0:0:
108,264,14575,1,0,0:0:0:0:
232,136,14747,2,0,P|296:128|352:144,1,105,2|0,0:0|0:0,0:0:0:0:
488,212,15089,1,8,0:0:0:0:
334,136,15261,1,0,0:0:0:0:
496,288,15432,6,0,P|416:240|408:200,1,105,2|0,0:0|0:0,0:0:0:0:
368,64,15775,2,0,P|304:68|264:108,1,105,8|0,0:0|0:0,0:0:0:0:
188,228,16118,2,0,P|152:272|104:280,1,105,2|0,0:0|0:0,0:0:0:0:
168,72,16461,2,0,P|224:136|220:188,1,105
216,320,16804,5,2,0:0:0:0:
276,80,16975,1,0,0:0:0:0:
148,276,17147,1,8,0:0:0:0:
312,208,17318,1,0,0:0:0:0:
180,124,17489,1,0,0:0:0:0:
240,272,17661,1,0,0:0:0:0:
108,184,17832,1,0,0:0:0:0:
248,196,18004,1,0,0:0:0:0:
68,332,18175,5,2,0:0:0:0:
248,196,18347,1,0,0:0:0:0:
136,372,18518,1,8,0:0:0:0:
156,180,18689,1,0,0:0:0:0:
16,252,18861,1,0,0:0:0:0:
168,292,19032,1,0,0:0:0:0:
64,172,19204,1,0,0:0:0:0:
44,328,19375,1,0,0:0:0:0:
135,131,19547,5,2,0:0:0:0:
384,124,19718,1,0,0:0:0:0:
200,292,19889,1,8,0:0:0:0:
268,52,20061,1,0,0:0:0:0:
352,288,20232,1,2,0:0:0:0:
112,208,20404,1,0,0:0:0:0:
364,200,20575,1,8,0:0:0:0:
152,60,20747,1,0,0:0:0:0:
256,192,20918,12,0,22289,0:0:0:0:
444,284,33261,5,0,0:0:0:0:
364,232,33604,2,0,P|324:192|272:184,1,78.7500030040742
280,256,33947,2,0,P|308:300|312:336,1,78.7500030040742
232,324,34289,2,0,P|208:284|164:268,1,78.7500030040742
104,252,34632,6,0,P|104:188|132:152,1,78.7500030040742
180,136,34975,2,0,P|248:152|284:132,1,78.7500030040742
328,120,35318,2,0,L|328:36,1,78.7500030040742
404,16,35661,2,0,L|404:104,1,78.7500030040742
404,94,36004,1,0,0:0:0:0:
316,204,36175,5,0,0:0:0:0:
156,132,36347,1,0,0:0:0:0:
256,276,36518,1,0,0:0:0:0:
256,104,36689,2,0,B|308:108|308:108|344:96,1,78.7500030040742,0|0,0:0|0:0,0:0:0:0:
480,8,37032,1,0,0:0:0:0:
408,168,37204,1,0,0:0:0:0:
312,24,37375,5,0,0:0:0:0:
320,196,37547,2,0,B|264:216|264:216|216:208,1,78.7500030040742,0|0,0:0|0:0,0:0:0:0:
72,192,37889,2,0,B|120:184|120:184|152:160,1,78.7500030040742,0|0,0:0|0:0,0:0:0:0:
284,60,38232,1,0,0:0:0:0:
408,260,38404,1,0,0:0:0:0:
172,192,38575,1,0,0:0:0:0:
276,356,38747,5,0,0:0:0:0:
104,288,39089,2,0,L|48:224,1,78.7500030040742,0|0,0:0|0:0,0:0:0:0:
56,148,39432,2,0,L|120:96,1,78.7500030040742
192,124,39775,2,0,L|120:188,1,78.7500030040742
248,324,40118,6,0,P|304:296|320:260,1,78.7500030040742
378,241,40461,2,0,P|342:209|288:208,1,78.7500030040742
238,229,40804,2,0,P|238:177|268:136,1,78.7500030040742
315,109,41147,2,0,P|283:81|235:77,1,78.7500030040742
238,229,41489,1,0,0:0:0:0:
95,58,41661,5,0,0:0:0:0:
148,232,41832,1,0,0:0:0:0:
208,60,42004,1,0,0:0:0:0:
63,175,42175,1,0,0:0:0:0:
224,308,42347,1,0,0:0:0:0:
264,132,42518,1,0,0:0:0:0:
148,232,42689,1,0,0:0:0:0:
336,268,42861,5,0,0:0:0:0:
412,112,43032,2,0,B|376:88|312:88,1,78.7500030040742
204,188,43375,2,0,B|240:212|278:210,1,78.7500030040742
200,44,43718,1,0,0:0:0:0:
356,224,43889,1,0,0:0:0:0:
276,76,44061,1,0,0:0:0:0:
272,224,44232,6,0,L|272:308,1,78.7500030040742
200,152,44575,2,0,L|200:248,1,78.7500030040742
336,320,44918,1,0,0:0:0:0:
200,230,45089,1,0,0:0:0:0:
380,260,45261,1,0,0:0:0:0:
224,352,45432,1,0,0:0:0:0:
200,152,45604,5,0,0:0:0:0:
364,72,45775,1,0,0:0:0:0:
296,240,45947,1,0,0:0:0:0:
220,76,46118,1,0,0:0:0:0:
356,192,46289,1,0,0:0:0:0:
220,312,46461,1,0,0:0:0:0:
284,144,46632,1,0,0:0:0:0:
428,252,46804,1,0,0:0:0:0:
248,228,46975,6,0,L|172:160,1,78.7500030040742
280,348,47318,2,0,L|204:284,1,78.7500030040742
88,172,47661,1,0,0:0:0:0:
260,120,47832,1,0,0:0:0:0:
219,297,48004,1,0,0:0:0:0:
152,128,48175,1,0,0:0:0:0:
268,212,48347,6,0,L|308:232,1,39.3750015020371,0|0,0:0|0:0,0:0:0:0:
452,280,48518,2,0,B|464:240|464:240|440:184,1,78.7500030040742,0|0,0:0|0:0,0:0:0:0:
372,64,48861,2,0,B|332:88|332:88|324:136,1,78.7500030040742,0|0,0:0|0:0,0:0:0:0:
328,240,49204,2,0,L|328:288,1,39.3750015020371,0|0,0:0|0:0,0:0:0:0:
192,144,49375,2,0,L|136:144,1,39.3750015020371,0|0,0:0|0:0,0:0:0:0:
328,279,49547,2,0,L|368:279,1,39.3750015020371,0|0,0:0|0:0,0:0:0:0:
484,280,49718,6,0,L|484:188,1,78.7500030040742
432,68,50061,2,0,L|432:160,1,78.7500030040742
432,328,50404,1,0,0:0:0:0:
340,172,50575,1,0,0:0:0:0:
212,300,50747,1,0,0:0:0:0:
384,248,50918,1,0,0:0:0:0:
464,84,51089,5,0,0:0:0:0:
492,264,51261,1,0,0:0:0:0:
340,172,51432,1,0,0:0:0:0:
432,328,51604,1,0,0:0:0:0:
272,244,51775,1,0,0:0:0:0:
420,140,51947,1,0,0:0:0:0:
240,172,52118,1,0,0:0:0:0:
344,24,52289,1,0,0:0:0:0:
340,172,52461,6,0,L|340:264,1,78.7500030040742
408,376,52804,2,0,L|408:284,1,78.7500030040742
400,116,53147,1,0,0:0:0:0:
256,228,53318,1,0,0:0:0:0:
236,72,53489,1,0,0:0:0:0:
360,208,53661,1,0,0:0:0:0:
232,336,53832,5,0,0:0:0:0:
256,228,54004,2,0,L|263:144,1,78.7500030040742
165,220,54347,2,0,L|173:128,1,78.7500030040742,0|0,0:0|0:0,0:0:0:0:
69,211,54689,2,0,L|77:120,1,78.7500030040742,0|0,0:0|0:0,0:0:0:0:
88,28,55032,1,0,0:0:0:0:
88,28,55204,6,0,P|144:56|152:72,1,78.7500030040742,2|0,0:0|0:0,0:0:0:0:
176,140,55547,2,0,P|224:164|248:212,1,78.7500030040742,2|0,0:0|0:0,0:0:0:0:
168,216,55889,2,0,L|116:288,1,78.7500030040742,8|0,0:0|0:0,0:0:0:0:
49,3,56232,2,0,P|81:39|121:51,1,78.7500030040742
228,320,56575,6,0,P|280:296|296:272,1,78.7500030040742,2|0,0:0|0:0,0:0:0:0:
344,332,56918,2,0,P|376:288|372:232,1,78.7500030040742,2|0,0:0|0:0,0:0:0:0:
452,304,57261,2,0,P|452:240|428:208,1,78.7500030040742,8|0,0:0|0:0,0:0:0:0:
512,196,57604,2,0,P|472:152|448:144,1,78.7500030040742
372,272,57947,1,0,0:0:0:0:
288,112,58118,5,0,0:0:0:0:
144,144,58289,2,0,B|100:172|100:172|88:216,1,78.7500030040742,0|0,0:0|0:0,0:0:0:0:
76,348,58632,1,8,0:0:0:0:
188,248,58804,1,0,0:0:0:0:
44,204,58975,1,0,0:0:0:0:
144,316,59147,1,0,0:0:0:0:
232,196,59318,5,2,0:0:0:0:
300,328,59489,2,0,B|342:351|342:351|374:346,1,78.7500030040742,2|0,0:0|0:0,0:0:0:0:
468,228,59832,2,0,B|456:184|456:184|420:160,1,78.7500030040742,2|8,0:0|0:0,0:0:0:0:
188,68,60175,1,0,0:0:0:0:
368,184,60347,1,0,0:0:0:0:
224,188,60518,1,0,0:0:0:0:
432,296,60689,5,2,0:0:0:0:
228,296,60861,1,0,0:0:0:0:
228,296,61032,2,0,B|184:272|184:272|172:228,1,78.7500030040742,2|0,0:0|0:0,0:0:0:0:
104,232,61375,2,0,B|156:213|156:213|180:228,1,78.7500030040742,8|0,0:0|0:0,0:0:0:0:
228,152,61718,2,0,B|212:204|212:204|180:232,1,78.7500030040742
180,332,62061,6,0,B|180:288|180:288|180:244,1,78.7500030040742,2|0,0:0|0:0,0:0:0:0:
228,73,62404,2,0,L|228:157,1,78.7500030040742,2|0,0:0|0:0,0:0:0:0:
304,280,62747,2,0,L|304:188,1,78.7500030040742,8|0,0:0|0:0,0:0:0:0:
432,284,63089,2,0,L|432:372,1,78.7500030040742
280,376,63432,5,0,0:0:0:0:
304,201,63604,1,0,0:0:0:0:
188,308,63775,1,0,0:0:0:0:
112,164,63947,1,0,0:0:0:0:
304,201,64118,1,8,0:0:0:0:
120,264,64289,1,0,0:0:0:0:
204,140,64461,1,0,0:0:0:0:
188,308,64632,1,0,0:0:0:0:
112,164,64804,5,2,0:0:0:0:
236,236,64975,2,0,B|284:220|284:220|316:188,1,78.7500030040742,2|0,0:0|0:0,0:0:0:0:
468,124,65318,2,0,B|444:164|444:164|440:216,1,78.7500030040742,2|8,0:0|0:0,0:0:0:0:
452,316,65661,1,0,0:0:0:0:
304,168,65832,1,0,0:0:0:0:
160,296,66004,1,0,0:0:0:0:
76,140,66175,5,2,0:0:0:0:
216,96,66347,2,0,P|244:136|244:184,1,78.7500030040742,0|0,0:0|0:0,0:0:0:0:
360,140,66689,2,0,P|324:176|288:188,1,78.7500030040742,2|0,0:0|0:0,0:0:0:0:
356,272,67032,2,0,P|304:256|276:224,1,78.7500030040742,2|0,0:0|0:0,0:0:0:0:
240,324,67375,2,0,P|236:268|248:236,1,78.7500030040742,2|0,0:0|0:0,0:0:0:0:
144,264,67718,6,0,P|176:228|216:212,1,78.7500030040742,0|0,0:0|0:0,0:0:0:0:
120,160,68061,2,0,P|176:160|208:168,1,78.7500030040742,2|0,0:0|0:0,0:0:0:0:
172,64,68404,2,0,P|212:104|224:136,1,78.7500030040742,2|0,0:0|0:0,0:0:0:0:
304,60,68747,2,0,L|308:144,1,78.7500030040742,2|0,0:0|0:0,0:0:0:0:
316,316,69089,6,0,L|312:224,1,78.7500030040742,2|0,0:0|0:0,0:0:0:0:
216,108,69432,2,0,L|216:192,1,78.7500030040742,2|0,0:0|0:0,0:0:0:0:
212,360,69775,2,0,L|212:256,1,78.7500030040742,2|0,0:0|0:0,0:0:0:0:
100,144,70118,2,0,L|100:224,1,78.7500030040742,2|2,0:0|0:0,0:0:0:0:
100,380,70461,6,0,L|100:296,1,78.7500030040742,0|0,0:0|0:0,0:0:0:0:
24,192,70804,2,0,L|24:256,1,39.3750015020371,2|0,0:0|0:0,0:0:0:0:
28,296,70975,2,0,L|56:276,1,19.6875007510186
48,316,71061,2,0,L|72:292,1,19.6875007510186
72,328,71147,2,0,L|88:300,1,19.6875007510186
100,336,71232,2,0,L|108:304,1,19.6875007510186
132,332,71318,2,0,L|128:304,1,19.6875007510186
160,320,71404,2,0,L|140:296,1,19.6875007510186
176,292,71489,2,0,L|144:272,1,19.6875007510186
184,260,71575,2,0,L|156:256,1,19.6875007510186
183,221,71660,5,6,0:0:0:0:
316,108,71832,1,0,0:0:0:0:
320,256,72004,1,8,0:0:0:0:
196,152,72175,1,0,0:0:0:0:
328,40,72347,2,0,L|400:40,1,39.3750015020371,2|0,0:0|0:0,0:0:0:0:
452,52,72518,1,0,0:0:0:0:
452,52,72603,1,0,0:0:0:0:
452,52,72689,1,8,0:0:0:0:
320,256,72861,1,0,0:0:0:0:
464,236,73032,5,2,0:0:0:0:
320,136,73204,1,0,0:0:0:0:
220,276,73375,1,8,0:0:0:0:
216,104,73547,1,0,0:0:0:0:
320,256,73718,2,0,L|368:292,1,39.3750015020371,2|0,0:0|0:0,0:0:0:0:
440,176,73889,2,0,L|472:132,1,39.3750015020371,0|0,0:0|0:0,0:0:0:0:
240,208,74061,1,8,0:0:0:0:
140,116,74232,1,0,0:0:0:0:
144,284,74404,5,2,0:0:0:0:
292,76,74575,1,0,0:0:0:0:
52,160,74747,1,8,0:0:0:0:
252,272,74918,1,0,0:0:0:0:
140,116,75089,2,0,L|188:88,1,39.3750015020371,2|0,0:0|0:0,0:0:0:0:
292,76,75261,1,0,0:0:0:0:
292,76,75347,1,0,0:0:0:0:
292,76,75432,1,8,0:0:0:0:
344,312,75604,1,0,0:0:0:0:
272,336,75775,5,2,0:0:0:0:
216,104,75947,1,0,0:0:0:0:
452,100,76118,1,8,0:0:0:0:
240,256,76289,1,0,0:0:0:0:
460,180,76461,2,0,L|448:224,1,39.3750015020371,2|0,0:0|0:0,0:0:0:0:
240,256,76632,2,0,L|224:300,1,39.3750015020371,0|0,0:0|0:0,0:0:0:0:
360,180,76804,1,8,0:0:0:0:
216,104,76975,1,0,0:0:0:0:
88,348,77147,5,2,0:0:0:0:
284,152,77318,1,0,0:0:0:0:
16,208,77489,1,8,0:0:0:0:
244,368,77661,1,0,0:0:0:0:
132,112,77832,2,0,L|96:56,1,39.3750015020371,2|0,0:0|0:0,0:0:0:0:
88,184,78004,1,0,0:0:0:0:
88,184,78089,1,0,0:0:0:0:
88,184,78175,1,8,0:0:0:0:
344,108,78347,1,0,0:0:0:0:
176,324,78518,5,2,0:0:0:0:
92,64,78689,1,0,0:0:0:0:
324,212,78861,1,8,0:0:0:0:
60,288,79032,1,0,0:0:0:0:
276,116,79204,2,0,L|332:84,1,39.3750015020371,2|0,0:0|0:0,0:0:0:0:
220,284,79375,2,0,L|260:332,1,39.3750015020371,0|0,0:0|0:0,0:0:0:0:
416,148,79547,1,8,0:0:0:0:
144,196,79718,1,0,0:0:0:0:
404,308,79889,5,2,0:0:0:0:
132,104,80061,1,2,0:0:0:0:
264,368,80232,1,2,0:0:0:0:
348,80,80404,1,2,0:0:0:0:
80,312,80575,1,2,0:0:0:0:
116,20,80747,1,2,0:0:0:0:
356,280,80918,1,2,0:0:0:0:
20,164,81089,1,2,0:0:0:0:
268,24,81261,5,0,0:0:0:0:
288,40,81347,1,2,0:0:0:0:
304,56,81432,2,0,L|304:104,1,39.3750015020371,2|2,0:0|0:0,0:0:0:0:
392,232,81604,1,2,0:0:0:0:
400,260,81689,1,2,0:0:0:0:
408,292,81775,2,0,L|408:248,1,39.3750015020371,2|2,0:0|0:0,0:0:0:0:
288,260,81947,2,0,P|336:242|346:225,1,39.3750015020371,2|0,0:0|0:0,0:0:0:0:
411,61,82118,2,0,P|356:71|345:80,1,39.3750015020371,0|0,0:0|0:0,0:0:0:0:
289,268,82289,2,0,P|330:257|341:252,1,39.3750015020371,2|0,0:0|0:0,0:0:0:0:
411,48,82461,2,0,P|367:62|357:80,1,39.3750015020371,0|0,0:0|0:0,0:0:0:0:
256,192,82632,12,4,84004,0:0:0:0:
144,104,94975,5,0,0:0:0:0:
144,104,95147,2,0,B|180:132|180:132|200:172,1,78.7500030040742,0|0,0:0|0:0,0:0:0:0:
310,107,95489,2,0,B|280:128|280:128|272:172,1,78.7500030040742
160,184,95832,2,0,B|192:208|192:208|204:256,1,78.7500030040742
324,176,96175,2,0,B|300:196|300:196|288:260,1,78.7500030040742
288,328,96518,6,0,B|248:320|248:320|224:280,1,78.7500030040742
253,148,96861,2,0,B|292:175|292:175|333:176,1,78.7500030040742
280,80,97204,2,0,B|320:112|320:112|380:112,1,78.7500030040742
428,128,97547,2,0,B|404:172|404:172|412:220,1,78.7500030040742
416,332,97889,5,0,0:0:0:0:
416,332,98061,2,0,B|368:312|368:312|320:312,1,78.7500030040742,0|0,0:0|0:0,0:0:0:0:
204,296,98404,2,0,B|244:268|244:268|284:268,1,78.7500030040742
412,240,98747,2,0,B|372:212|372:212|332:212,1,78.7500030040742
260,208,99089,6,0,B|260:152|260:152|232:112,1,78.7500030040742
284,192,99432,2,0,B|280:136|280:136|256:104,1,78.7500030040742,0|0,0:0|0:0,0:0:0:0:
296,40,99775,2,0,B|340:32|340:32|380:48,1,78.7500030040742,0|0,0:0|0:0,0:0:0:0:
432,144,100118,2,0,B|424:184|424:184|388:216,1,78.7500030040742
276,308,100461,5,0,0:0:0:0:
276,308,100632,2,0,B|228:296|228:296|208:264,1,78.7500030040742,0|0,0:0|0:0,0:0:0:0:
176,156,100975,2,0,B|132:176|132:176|120:208,1,78.7500030040742,0|0,0:0|0:0,0:0:0:0:
104,308,101318,2,0,B|140:272|140:272|188:264,2,78.7500030040742,0|0|0,0:0|0:0|0:0,0:0:0:0:
40,352,101832,5,0,0:0:0:0:
40,352,102004,2,0,B|32:296|32:296|40:256,1,78.7500030040742,0|0,0:0|0:0,0:0:0:0:
116,248,102347,2,0,B|112:200|112:200|128:144,1,78.7500030040742,0|0,0:0|0:0,0:0:0:0:
172,60,102689,1,0,0:0:0:0:
172,60,102861,1,0,0:0:0:0:
132,212,103204,6,0,L|208:160,1,78.7500030040742
312,100,103547,1,0,0:0:0:0:
288,232,103718,1,0,0:0:0:0:
412,136,103889,6,0,L|368:228,1,78.7500030040742
296,344,104232,1,0,0:0:0:0:
176,240,104404,1,0,0:0:0:0:
172,164,104575,6,0,L|256:164,1,78.7500030040742
250,85,104918,2,0,L|250:169,1,78.7500030040742
250,242,105261,2,0,L|250:150,1,78.7500030040742
368,188,105604,1,0,0:0:0:0:
152,188,105775,1,0,0:0:0:0:
320,284,105947,5,6,0:0:0:0:
248,100,106118,1,0,0:0:0:0:
436,184,106289,1,8,0:0:0:0:
264,344,106461,1,0,0:0:0:0:
304,188,106632,2,0,P|252:164|236:164,1,39.3750015020371,2|0,0:0|0:0,0:0:0:0:
72,96,106804,1,0,0:0:0:0:
72,136,106889,1,0,0:0:0:0:
72,176,106975,1,8,0:0:0:0:
72,216,107061,1,0,0:0:0:0:
72,252,107147,2,0,L|72:296,1,39.3750015020371,0|0,0:0|0:0,0:0:0:0:
216,200,107318,6,0,L|216:140,1,39.3750015020371,2|0,0:0|0:0,0:0:0:0:
312,280,107489,1,0,0:0:0:0:
132,204,107661,1,8,0:0:0:0:
260,352,107832,1,0,0:0:0:0:
292,156,108004,2,0,L|344:104,1,39.3750015020371,2|0,0:0|0:0,0:0:0:0:
412,296,108175,2,0,L|372:248,1,39.3750015020371,0|0,0:0|0:0,0:0:0:0:
236,100,108347,1,8,0:0:0:0:
201,81,108432,1,0,0:0:0:0:
163,84,108518,1,0,0:0:0:0:
292,280,108689,5,2,0:0:0:0:
76,184,108861,2,0,L|112:224,1,39.3750015020371,0|0,0:0|0:0,0:0:0:0:
236,348,109032,1,8,0:0:0:0:
404,184,109204,2,0,L|372:216,1,39.3750015020371,0|0,0:0|0:0,0:0:0:0:
236,348,109375,1,2,0:0:0:0:
204,88,109547,2,0,L|164:120,1,39.3750015020371,0|0,0:0|0:0,0:0:0:0:
51,189,109718,1,8,0:0:0:0:
116,12,109889,2,0,P|132:60|144:72,1,39.3750015020371,0|0,0:0|0:0,0:0:0:0:
196,188,110061,6,0,P|240:212|252:224,1,39.3750015020371,2|0,0:0|0:0,0:0:0:0:
316,336,110232,2,0,P|360:312|372:300,1,39.3750015020371,0|0,0:0|0:0,0:0:0:0:
470,190,110404,1,8,0:0:0:0:
278,50,110575,1,0,0:0:0:0:
204,124,110747,2,0,P|144:108|136:108,1,39.3750015020371,2|0,0:0|0:0,0:0:0:0:
320,232,110918,2,0,P|272:220|248:224,1,39.3750015020371
428,320,111089,1,8,0:0:0:0:
204,124,111261,2,0,L|224:176,1,39.3750015020371,0|0,0:0|0:0,0:0:0:0:
288,308,111432,5,2,0:0:0:0:
488,64,111604,1,2,0:0:0:0:
208,208,111775,1,2,0:0:0:0:
508,312,111947,1,2,0:0:0:0:
192,308,112118,1,2,0:0:0:0:
348,36,112289,1,2,0:0:0:0:
72,188,112461,1,2,0:0:0:0:
380,252,112632,1,2,0:0:0:0:
148,40,112804,5,2,0:0:0:0:
428,188,112975,1,2,0:0:0:0:
156,348,113147,1,2,0:0:0:0:
332,88,113318,1,2,0:0:0:0:
472,368,113489,1,2,0:0:0:0:
228,168,113661,1,2,0:0:0:0:
500,40,113832,1,2,0:0:0:0:
268,256,114004,1,2,0:0:0:0:
364,80,114175,6,0,L|324:44,1,39.3750015020371,2|2,0:0|0:0,0:0:0:0:
316,188,114347,2,0,L|352:220,1,39.3750015020371,2|2,0:0|0:0,0:0:0:0:
324,92,114518,2,0,L|288:64,1,39.3750015020371,2|2,0:0|0:0,0:0:0:0:
320,232,114689,2,0,L|356:268,1,39.3750015020371,2|2,0:0|0:0,0:0:0:0:
280,96,114861,1,2,0:0:0:0:
243,81,114946,1,2,0:0:0:0:
204,82,115032,1,2,0:0:0:0:
169,100,115118,1,2,0:0:0:0:
156,136,115204,1,2,0:0:0:0:
190,154,115289,1,2,0:0:0:0:
216,183,115375,1,2,0:0:0:0:
230,220,115461,1,0,0:0:0:0:
248,256,115547,6,0,L|268:304,1,39.3750015020371,2|0,0:0|0:0,0:0:0:0:
304,376,115718,1,2,0:3:0:0:
364,204,115889,1,8,0:0:0:0:
184,360,116061,1,0,0:0:0:0:
416,324,116232,1,0,0:0:0:0:
180,204,116404,1,0,0:0:0:0:
448,208,116575,2,0,P|416:172|408:168,1,39.3750015020371,8|0,0:0|0:0,0:0:0:0:
324,96,116747,2,0,P|280:72|268:72,1,39.3750015020371,0|0,0:0|0:0,0:0:0:0:
180,36,116918,6,0,P|120:24|84:32,1,78.7500030040742,6|0,0:0|0:0,0:0:0:0:
20,248,117261,1,8,0:0:0:0:
212,109,117432,1,0,0:0:0:0:
116,336,117604,2,0,L|116:276,1,39.3750015020371,2|0,0:0|0:0,0:0:0:0:
272,240,117775,2,0,L|212:240,1,39.3750015020371,0|0,0:0|0:0,0:0:0:0:
120,204,117947,1,8,0:0:0:0:
150,141,118032,1,0,0:0:0:0:
212,109,118118,1,0,0:0:0:0:
284,100,118204,1,0,0:0:0:0:
356,100,118289,6,0,L|416:100,1,39.3750015020371,2|0,0:0|0:0,0:0:0:0:
432,236,118461,2,0,L|432:296,1,39.3750015020371,2|0,0:0|0:0,0:0:0:0:
356,100,118632,1,8,0:0:0:0:
236,264,118803,1,2,0:0:0:0:
192,72,118975,2,0,L|136:72,1,39.3750015020371,2|0,0:0|0:0,0:0:0:0:
184,184,119147,2,0,L|184:232,1,39.3750015020371,0|0,0:0|0:0,0:0:0:0:
300,344,119318,2,0,L|300:284,1,39.3750015020371,8|0,0:0|0:0,0:0:0:0:
292,144,119489,2,0,L|244:172,1,39.3750015020371,0|0,0:0|0:0,0:0:0:0:
144,272,119661,5,6,0:0:0:0:
280,76,119832,1,0,0:0:0:0:
424,268,120004,1,0,0:0:0:0:
208,176,120175,1,0,0:0:0:0:
436,108,120347,2,0,L|384:108,1,39.3750015020371,2|0,0:0|0:0,0:0:0:0:
272,224,120518,2,0,L|272:272,1,39.3750015020371,0|0,0:0|0:0,0:0:0:0:
188,356,120689,2,0,L|152:308,1,39.3750015020371,8|0,0:0|0:0,0:0:0:0:
56,208,120861,2,0,L|112:188,1,39.3750015020371,0|0,0:0|0:0,0:0:0:0:
252,124,121032,6,0,P|200:104|180:100,1,39.3750015020371,6|0,0:0|0:0,0:0:0:0:
104,68,121204,1,2,0:0:0:0:
156,296,121375,1,8,0:0:0:0:
368,192,121547,1,0,0:0:0:0:
228,380,121718,1,2,0:0:0:0:
108,176,121889,1,0,0:0:0:0:
348,116,122061,6,0,P|296:128|260:156,1,78.75
196,200,122404,6,0,P|156:232|152:240,1,39.3750015020371,2|0,0:0|0:0,0:0:0:0:
92,316,122575,1,0,0:0:0:0:
312,224,122747,1,8,0:0:0:0:
108,176,122918,1,0,0:0:0:0:
240,352,123089,1,2,0:0:0:0:
300,316,123174,1,0,0:0:0:0:
356,268,123261,2,0,P|384:228|388:208,1,39.3750015020371,0|0,0:0|0:0,0:0:0:0:
408,164,123432,2,0,P|424:108|420:92,1,39.3750015020371,8|0,0:0|0:0,0:0:0:0:
308,80,123604,2,0,P|280:116|276:132,1,39.3750015020371,0|0,0:0|0:0,0:0:0:0:
200,224,123775,5,2,0:0:0:0:
60,44,123947,1,2,0:0:0:0:
104,280,124118,1,8,0:0:0:0:
336,132,124289,1,2,0:0:0:0:
92,144,124461,2,0,P|144:128|160:128,1,39.3750015020371,2|0,0:0|0:0,0:0:0:0:
200,224,124632,2,0,P|144:244|132:244,1,39.3750015020371,0|0,0:0|0:0,0:0:0:0:
72,72,124804,1,8,0:0:0:0:
140,53,124889,1,0,0:0:0:0:
210,59,124975,1,0,0:0:0:0:
276,92,125061,1,0,0:0:0:0:
336,132,125147,6,0,P|376:172|384:184,1,39.3750015020371,2|0,0:0|0:0,0:0:0:0:
380,216,125318,1,0,0:0:0:0:
200,224,125489,1,8,0:0:0:0:
312,36,125661,1,2,0:0:0:0:
292,296,125832,2,0,P|264:256|256:248,1,39.3750015020371,2|0,0:0|0:0,0:0:0:0:
380,216,126004,2,0,P|400:168|416:152,1,39.3750015020371,0|0,0:0|0:0,0:0:0:0:
284,128,126175,2,0,P|260:84|240:72,1,39.3750015020371,8|0,0:0|0:0,0:0:0:0:
380,72,126347,6,0,P|384:56|400:32,1,36.749998878479,0|2,0:0|0:0,0:0:0:0:
356,144,126689,5,0,0:0:0:0:
72,88,126861,6,0,P|88:48|100:36,1,39.3750015020371,8|0,0:0|0:0,0:0:0:0:
52,164,127032,1,0,0:0:0:0:
376,64,127204,2,0,P|388:16|392:8,1,39.3750015020371,2|0,0:0|0:0,0:0:0:0:
356,144,127375,1,0,0:0:0:0:
152,28,127547,1,8,0:0:0:0:
104,156,127889,6,0,P|144:176|168:204,1,78.7500030040742,6|0,0:0|0:0,0:0:0:0:
344,356,128232,1,8,0:0:0:0:
100,232,128404,1,0,0:0:0:0:
360,252,128575,2,0,L|416:268,1,39.3750015020371,2|0,0:0|0:0,0:0:0:0:
288,128,128747,2,0,L|296:84,1,39.3750015020371,0|0,0:0|0:0,0:0:0:0:
456,176,128918,1,8,0:0:0:0:
385,174,129003,1,0,0:0:0:0:
316,191,129089,1,0,0:0:0:0:
252,220,129175,1,0,0:0:0:0:
196,264,129261,6,0,P|168:296|164:304,1,39.3750015020371,2|0,0:0|0:0,0:0:0:0:
136,356,129432,1,2,0:0:0:0:
320,104,129604,1,8,0:0:0:0:
324,340,129775,1,2,0:0:0:0:
236,120,129947,2,0,P|248:180|256:192,1,39.3750015020371,2|0,0:0|0:0,0:0:0:0:
344,216,130118,2,0,P|392:232|408:232,1,39.3750015020371,0|0,0:0|0:0,0:0:0:0:
252,316,130289,1,8,0:0:0:0:
255,245,130374,1,0,0:0:0:0:
283,181,130460,1,0,0:0:0:0:
328,124,130547,1,0,0:0:0:0:
376,72,130632,6,0,P|416:44|424:40,1,39.3750015020371,2|0,0:0|0:0,0:0:0:0:
476,20,130804,1,0,0:0:0:0:
468,264,130975,2,0,L|412:240,1,39.3750015020371,8|0,0:0|0:0,0:0:0:0:
320,200,131147,1,0,0:0:0:0:
104,292,131318,2,0,P|144:248|148:240,1,39.3750015020371,2|0,0:0|0:0,0:0:0:0:
208,60,131489,2,0,P|180:96|180:112,1,39.3750015020371,0|0,0:0|0:0,0:0:0:0:
284,276,131661,2,0,P|256:240|248:236,1,39.3750015020371,8|0,0:0|0:0,0:0:0:0:
83,146,131832,2,0,P|111:178|139:182,1,39.3750015020371,0|0,0:0|0:0,0:0:0:0:
411,268,132004,5,2,0:0:0:0:
148,344,132175,1,0,0:0:0:0:
340,216,132347,2,0,L|340:272,1,39.3750015020371,8|0,0:0|0:0,0:0:0:0:
424,172,132518,1,0,0:0:0:0:
192,124,132689,2,0,L|136:124,1,39.3750015020371,2|0,0:0|0:0,0:0:0:0:
236,208,132861,1,0,0:0:0:0:
68,40,133032,1,8,0:0:0:0:
432,340,133375,5,2,0:0:0:0:
172,244,133547,1,0,0:0:0:0:
448,268,133718,1,8,0:0:0:0:
176,316,133889,1,0,0:0:0:0:
328,264,134061,2,0,P|360:260|384:240,1,39.3750015020371,2|0,0:0|0:0,0:0:0:0:
424,120,134232,2,0,P|392:120|372:128,1,39.3750015020371,0|0,0:0|0:0,0:0:0:0:
228,164,134404,1,8,0:0:0:0:
161,189,134489,1,0,0:0:0:0:
104,230,134575,1,0,0:0:0:0:
52,280,134661,1,0,0:0:0:0:
12,340,134747,5,2,0:0:0:0:
296,272,134918,1,0,0:0:0:0:
44,384,135089,1,0,0:0:0:0:
260,212,135261,1,0,0:0:0:0:
8,228,135432,2,0,P|32:192|44:184,1,39.3750015020371,2|0,0:0|0:0,0:0:0:0:
240,132,135604,2,0,P|224:160|208:172,1,39.3750015020371,0|2,0:0|0:0,0:0:0:0:
44,300,135775,1,8,0:0:0:0:
68,236,135860,1,0,0:0:0:0:
116,184,135946,1,0,0:0:0:0:
168,136,136032,1,0,0:0:0:0:
232,108,136118,5,2,0:0:0:0:
464,360,136289,1,0,0:0:0:0:
260,20,136461,1,8,0:0:0:0:
324,352,136632,1,0,0:0:0:0:
380,8,136804,1,2,0:0:0:0:
132,348,136975,1,8,0:0:0:0:
484,104,137147,1,8,0:0:0:0:
40,236,137318,1,2,0:0:0:0:
476,216,137489,5,0,0:0:0:0:
104,116,137661,2,0,P|144:132|156:144,1,39.3750015020371
261,189,137832,2,0,P|297:209|313:229,1,39.3750015020371
388,307,138004,2,0,P|352:299|340:291,1,39.3750015020371
204,232,138175,2,0,P|176:216|160:200,1,39.3750015020371
296,208,138347,1,0,0:0:0:0:
326,232,138432,1,0,0:0:0:0:
352,260,138518,1,0,0:0:0:0:
351,298,138603,1,0,0:0:0:0:
325,327,138689,1,0,0:0:0:0:
287,332,138775,1,0,0:0:0:0:
152,316,138861,6,0,P|104:276|88:240,1,78.7500030040742,2|0,0:0|0:0,0:0:0:0:
28,248,139204,2,0,P|60:204|108:196,1,78.7500030040742,8|0,0:0|0:0,0:0:0:0:
148,224,139547,2,0,P|148:168|128:140,1,78.7500030040742,2|0,0:0|0:0,0:0:0:0:
72,120,139889,2,0,P|104:88|144:80,1,78.7500030040742,8|0,0:0|0:0,0:0:0:0:
292,104,140232,5,2,0:0:0:0:
260,260,140404,1,0,0:0:0:0:
380,156,140575,1,0,0:0:0:0:
228,204,140747,1,0,0:0:0:0:
340,316,140918,1,2,0:0:0:0:
308,164,141089,1,0,0:0:0:0:
436,252,141261,1,8,0:0:0:0:
280,264,141432,1,0,0:0:0:0:
140,192,141604,6,0,P|132:136|144:104,1,78.7500030040742,2|0,0:0|0:0,0:0:0:0:
104,256,141947,2,0,P|152:268|188:252,1,78.7500030040742,8|0,0:0|0:0,0:0:0:0:
256,272,142289,2,0,P|248:224|212:180,1,78.7500030040742,2|0,0:0|0:0,0:0:0:0:
224,340,142632,2,0,P|292:340|320:320,1,78.7500030040742,8|0,0:0|0:0,0:0:0:0:
444,272,142975,5,2,0:0:0:0:
340,156,143147,1,0,0:0:0:0:
344,312,143318,1,8,0:0:0:0:
260,180,143489,1,0,0:0:0:0:
416,196,143661,1,2,0:0:0:0:
440,352,143832,1,0,0:0:0:0:
344,228,144004,1,8,0:0:0:0:
372,384,144175,1,0,0:0:0:0:
480,268,144347,6,0,P|492:212|484:176,1,78.7500030040742,2|0,0:0|0:0,0:0:0:0:
364,96,144689,2,0,P|324:136|316:172,1,78.7500030040742,8|0,0:0|0:0,0:0:0:0:
284,312,145032,2,0,P|256:248|232:224,1,78.7500030040742,2|0,0:0|0:0,0:0:0:0:
160,112,145375,2,0,P|136:156|132:196,1,78.7500030040742,8|0,0:0|0:0,0:0:0:0:
104,340,145718,5,2,0:0:0:0:
52,192,145889,1,0,0:0:0:0:
204,232,146061,1,8,0:0:0:0:
56,284,146232,1,0,0:0:0:0:
160,164,146404,1,2,0:0:0:0:
232,304,146575,1,0,0:0:0:0:
292,156,146747,1,8,0:0:0:0:
172,260,146918,1,0,0:0:0:0:
328,264,147089,6,0,L|416:264,1,78.7500030040742,2|0,0:0|0:0,0:0:0:0:
408,104,147432,2,0,L|408:188,1,78.7500030040742,8|0,0:0|0:0,0:0:0:0:
248,180,147775,2,0,L|336:180,1,78.7500030040742,2|0,0:0|0:0,0:0:0:0:
324,20,148118,2,0,L|324:100,1,78.7500030040742,8|0,0:0|0:0,0:0:0:0:
168,88,148461,5,2,0:0:0:0:
324,88,148632,1,0,0:0:0:0:
220,208,148804,1,8,0:0:0:0:
220,52,148975,1,0,0:0:0:0:
316,176,149147,1,2,0:0:0:0:
472,176,149318,1,0,0:0:0:0:
364,292,149489,1,8,0:0:0:0:
364,132,149661,1,0,0:0:0:0:
464,252,149832,6,0,L|464:336,1,78.7500030040742,6|0,0:0|0:0,0:0:0:0:
392,252,150175,2,0,L|392:344,1,78.7500030040742,8|0,0:0|0:0,0:0:0:0:
320,252,150518,2,0,L|320:340,1,78.7500030040742,2|0,0:0|0:0,0:0:0:0:
244,252,150861,2,0,L|244:344,1,78.7500030040742,8|0,0:0|0:0,0:0:0:0:
424,176,151204,6,0,L|512:176,1,78.7500030040742,2|0,0:0|0:0,0:0:0:0:
345,176,151547,2,0,L|437:176,1,78.7500030040742,8|0,0:0|0:0,0:0:0:0:
266,176,151889,2,0,L|358:176,1,78.7500030040742,2|0,0:0|0:0,0:0:0:0:
187,176,152232,2,0,L|283:176,1,78.7500030040742,8|0,0:0|0:0,0:0:0:0:
108,104,152575,6,0,P|152:72|192:60,1,78.7500030040742,2|0,0:0|0:0,0:0:0:0:
268,196,152918,2,0,P|228:232|192:236,1,78.7500030040742,8|0,0:0|0:0,0:0:0:0:
252,60,153261,2,0,P|284:88|296:128,1,78.7500030040742,2|0,0:0|0:0,0:0:0:0:
120,208,153604,2,0,P|92:160|96:132,1,78.7500030040742,8|0,0:0|0:0,0:0:0:0:
312,220,153947,6,0,L|368:156,1,78.7500030040742,2|0,0:0|0:0,0:0:0:0:
256,164,154289,2,0,L|316:224,1,78.7500030040742,8|0,0:0|0:0,0:0:0:0:
202,221,154632,2,0,L|258:161,1,78.7500030040742,2|0,0:0|0:0,0:0:0:0:
144,167,154975,2,0,L|204:223,1,78.7500030040742,8|0,0:0|0:0,0:0:0:0:
400,104,155318,5,2,0:0:0:0:
304,300,155661,1,8,0:0:0:0:
92,104,156004,1,2,0:0:0:0:
212,304,156347,1,8,0:0:0:0:
472,272,156689,5,2,0:0:0:0:
296,152,157032,1,8,0:0:0:0:
44,312,157375,1,2,0:0:0:0:
216,152,157718,1,8,0:0:0:0:
464,76,158061,5,8,0:0:0:0:
208,260,158232,1,8,0:0:0:0:
408,16,158404,1,8,0:0:0:0:
432,328,158575,1,8,0:0:0:0:
216,96,158747,1,8,0:0:0:0:
368,372,158918,1,8,0:0:0:0:
140,156,159089,1,8,0:0:0:0:
452,100,159261,1,8,0:0:0:0:
256,192,159432,12,0,160804,0:0:0:0:
