osu file format v14

[General]
AudioFilename: audio.mp3
AudioLeadIn: 0
PreviewTime: -1
Countdown: 0
SampleSet: None
StackLeniency: 0.7
Mode: 3
LetterboxInBreaks: 0
SpecialStyle: 0
WidescreenStoryboard: 0

[Editor]
Bookmarks: 16012,106678
DistanceSpacing: 1
BeatDivisor: 8
GridSize: 8
TimelineZoom: 2.160001

[Metadata]
Title:Click (K-Run Remix)
TitleUnicode:Click (K-Run Remix)
Artist:Claris
ArtistUnicode:Claris
Creator:Lam-
Version:Running Away
Source:
Tags:
BeatmapID:1001648
BeatmapSetID:468293

[Difficulty]
HPDrainRate:7.5
CircleSize:4
OverallDifficulty:7.2
ApproachRate:5
SliderMultiplier:1.4
SliderTickRate:1

[Events]
//Background and Video events
//Break Periods
//Storyboard Layer 0 (Background)
//Storyboard Layer 1 (Fail)
//Storyboard Layer 2 (Pass)
//Storyboard Layer 3 (Foreground)
//Storyboard Sound Samples

[TimingPoints]
1790,444.444444444444,4,2,0,30,1,0
12012,-57.1428571428571,4,2,0,30,0,0
12039,-80,4,2,0,30,0,0
12067,-133.333333333333,4,2,0,30,0,0
12095,-400,4,2,0,30,0,0
12123,-285.714285714286,4,2,0,30,0,0
12151,-222.222222222222,4,2,0,30,0,0
12178,-166.666666666667,4,2,0,30,0,0
12206,-133.333333333333,4,2,0,30,0,0
12234,-100,4,2,0,30,0,0
12262,-95.2380952380952,4,2,0,30,0,0
12289,-90.9090909090909,4,2,0,30,0,0
12317,-83.3333333333333,4,2,0,30,0,0
12345,-76.9230769230769,4,2,0,30,0,0
12373,-66.6666666666667,4,2,0,30,0,0
12401,-58.8235294117647,4,2,0,30,0,0
12428,-57.1428571428571,4,2,0,30,0,0
12456,-100,4,2,0,30,0,0
60456,-133.333333333333,4,2,0,30,0,0
61234,-100,4,2,0,30,0,0
104901,-112.359550561798,4,2,0,30,0,0
104956,-114.942528735632,4,2,0,30,0,0
105012,-119.047619047619,4,2,0,30,0,0
105067,-125,4,2,0,30,0,0
105123,-133.333333333333,4,2,0,30,0,0
105178,-144.927536231884,4,2,0,30,0,0
105234,-161.290322580645,4,2,0,30,0,0
105289,-185.185185185185,4,2,0,30,0,0
105345,-222.222222222222,4,2,0,30,0,0
106123,-100,4,2,0,30,0,0
106234,-55.5555555555556,4,2,0,30,0,0
106289,-133.333333333333,4,2,0,30,0,0
106345,-111.111111111111,4,2,0,30,0,0
106401,-100,4,2,0,30,0,0
106456,-86.9565217391304,4,2,0,30,0,0
106678,-100,4,2,0,30,0,0
135123,-133.333333333333,4,2,0,30,0,0
135901,-100,4,2,0,30,0,0

[HitObjects]
448,192,1790,5,0,0:0:0:0:
320,192,1790,1,0,0:0:0:0:
64,192,1790,1,0,0:0:0:0:
64,192,2234,1,0,0:0:0:0:
192,192,2678,1,0,0:0:0:0:
320,192,3012,1,0,0:0:0:0:
64,192,3345,1,0,0:0:0:0:
448,192,3567,1,0,0:0:0:0:
192,192,3901,1,0,0:0:0:0:
320,192,4234,1,0,0:0:0:0:
448,192,4456,1,0,0:0:0:0:
448,192,4901,1,0,0:0:0:0:
320,192,5123,1,0,0:0:0:0:
64,192,5123,1,0,0:0:0:0:
64,192,5345,1,0,0:0:0:0:
320,192,5345,1,0,0:0:0:0:
192,192,5678,1,0,0:0:0:0:
448,192,6012,1,0,0:0:0:0:
64,192,6234,1,0,0:0:0:0:
64,192,6678,1,0,0:0:0:0:
448,192,6901,1,0,0:0:0:0:
192,192,6901,1,0,0:0:0:0:
448,192,7123,1,0,0:0:0:0:
192,192,7123,1,0,0:0:0:0:
192,192,7456,1,0,0:0:0:0:
192,192,7789,1,0,0:0:0:0:
448,192,7789,1,0,0:0:0:0:
64,192,7901,1,0,0:0:0:0:
320,192,8012,1,0,0:0:0:0:
192,192,8123,1,0,0:0:0:0:
64,192,8123,1,0,0:0:0:0:
64,192,8456,128,0,8901:0:0:0:0:
192,192,8901,1,0,0:0:0:0:
448,192,8901,1,0,0:0:0:0:
192,192,9345,1,0,0:0:0:0:
64,192,9789,1,0,0:0:0:0:
448,192,10123,1,0,0:0:0:0:
64,192,10456,1,0,0:0:0:0:
192,192,10456,1,0,0:0:0:0:
320,192,10678,1,0,0:0:0:0:
448,192,10678,1,0,0:0:0:0:
192,192,11012,1,0,0:0:0:0:
64,192,11345,1,0,0:0:0:0:
320,192,11567,1,0,0:0:0:0:
64,192,12012,128,0,12456:0:0:0:0:
448,192,12456,1,0,0:0:0:0:
320,192,12456,1,0,0:0:0:0:
448,192,13123,1,0,0:0:0:0:
320,192,13345,1,0,0:0:0:0:
64,192,14234,1,0,0:0:0:0:
192,192,14234,1,0,0:0:0:0:
64,192,14901,1,0,0:0:0:0:
448,192,15012,1,0,0:0:0:0:
192,192,15123,1,0,0:0:0:0:
320,192,15234,1,0,0:0:0:0:
64,192,15345,1,0,0:0:0:0:
192,192,15419,1,0,0:0:0:0:
320,192,15493,1,0,0:0:0:0:
448,192,15567,1,0,0:0:0:0:
192,192,15678,1,0,0:0:0:0:
320,192,15789,1,0,0:0:0:0:
192,192,15901,1,0,0:0:0:0:
64,192,16012,1,0,0:0:0:0:
448,192,16012,128,0,16345:0:0:0:0:
448,192,16456,1,0,0:0:0:0:
192,192,16456,128,0,16789:0:0:0:0:
320,192,16901,128,0,17123:0:0:0:0:
64,192,17234,1,0,0:0:0:0:
448,192,17345,1,0,0:0:0:0:
320,192,17345,1,0,0:0:0:0:
448,192,17567,128,0,18012:0:0:0:0:
192,192,17789,128,0,18012:0:0:0:0:
192,192,18123,128,0,18456:0:0:0:0:
448,192,18234,1,0,0:0:0:0:
320,192,18234,1,0,0:0:0:0:
64,192,18456,1,0,0:0:0:0:
64,192,18678,128,0,19123:0:0:0:0:
448,192,19123,1,0,0:0:0:0:
320,192,19123,1,0,0:0:0:0:
192,192,19345,1,0,0:0:0:0:
320,192,19567,128,0,19789:0:0:0:0:
320,192,19901,1,0,0:0:0:0:
192,192,20012,1,0,0:0:0:0:
64,192,20012,1,0,0:0:0:0:
448,192,20234,1,0,0:0:0:0:
448,192,20456,128,0,20789:0:0:0:0:
448,192,20901,1,0,0:0:0:0:
64,192,20901,1,0,0:0:0:0:
192,192,21123,1,0,0:0:0:0:
192,192,21345,128,0,21567:0:0:0:0:
192,192,21678,1,0,0:0:0:0:
448,192,21789,1,0,0:0:0:0:
320,192,21789,1,0,0:0:0:0:
320,192,22012,1,0,0:0:0:0:
64,192,22234,128,0,22456:0:0:0:0:
192,192,22678,128,0,22901:0:0:0:0:
448,192,22678,1,0,0:0:0:0:
448,192,23123,128,0,23567:0:0:0:0:
192,192,23567,1,0,0:0:0:0:
64,192,23567,128,0,23789:0:0:0:0:
448,192,24012,128,0,24234:0:0:0:0:
448,192,24345,1,0,0:0:0:0:
320,192,24456,1,0,0:0:0:0:
192,192,24456,1,0,0:0:0:0:
448,192,24678,1,0,0:0:0:0:
448,192,24901,128,0,25234:0:0:0:0:
64,192,25234,1,0,0:0:0:0:
192,192,25345,1,0,0:0:0:0:
320,192,25345,1,0,0:0:0:0:
448,192,25567,128,0,25789:0:0:0:0:
64,192,25789,128,0,26012:0:0:0:0:
320,192,26012,1,0,0:0:0:0:
448,192,26086,1,0,0:0:0:0:
64,192,26160,1,0,0:0:0:0:
192,192,26234,1,0,0:0:0:0:
320,192,26234,1,0,0:0:0:0:
448,192,26345,1,0,0:0:0:0:
320,192,26456,1,0,0:0:0:0:
192,192,26567,1,0,0:0:0:0:
64,192,26678,128,0,27123:0:0:0:0:
448,192,27123,1,0,0:0:0:0:
192,192,27123,1,0,0:0:0:0:
192,192,27567,1,0,0:0:0:0:
192,192,27901,1,0,0:0:0:0:
64,192,28012,1,0,0:0:0:0:
448,192,28012,1,0,0:0:0:0:
448,192,28456,1,0,0:0:0:0:
64,192,28456,1,0,0:0:0:0:
192,192,28678,1,0,0:0:0:0:
448,192,28789,1,0,0:0:0:0:
64,192,28789,1,0,0:0:0:0:
64,192,29012,1,0,0:0:0:0:
320,192,29123,1,0,0:0:0:0:
448,192,29123,1,0,0:0:0:0:
448,192,29345,1,0,0:0:0:0:
192,192,29456,1,0,0:0:0:0:
64,192,29456,1,0,0:0:0:0:
64,192,29678,1,0,0:0:0:0:
320,192,29789,128,0,30234:0:0:0:0:
448,192,29789,128,0,30234:0:0:0:0:
64,192,30234,1,0,0:0:0:0:
320,192,30456,1,0,0:0:0:0:
192,192,30678,1,0,0:0:0:0:
320,192,30901,1,0,0:0:0:0:
448,192,31123,1,0,0:0:0:0:
64,192,31345,1,0,0:0:0:0:
192,192,31456,1,0,0:0:0:0:
320,192,31678,1,0,0:0:0:0:
448,192,31901,1,0,0:0:0:0:
192,192,32012,1,0,0:0:0:0:
64,192,32234,1,0,0:0:0:0:
192,192,32456,1,0,0:0:0:0:
320,192,32678,1,0,0:0:0:0:
448,192,32901,1,0,0:0:0:0:
192,192,33123,1,0,0:0:0:0:
320,192,33234,1,0,0:0:0:0:
64,192,33456,1,0,0:0:0:0:
192,192,33678,1,0,0:0:0:0:
448,192,33789,1,0,0:0:0:0:
64,192,34012,1,0,0:0:0:0:
192,192,34234,1,0,0:0:0:0:
320,192,34456,1,0,0:0:0:0:
448,192,34678,1,0,0:0:0:0:
192,192,34901,1,0,0:0:0:0:
64,192,35012,1,0,0:0:0:0:
448,192,35234,1,0,0:0:0:0:
320,192,35456,1,0,0:0:0:0:
64,192,35567,1,0,0:0:0:0:
192,192,35678,1,0,0:0:0:0:
448,192,35789,1,0,0:0:0:0:
320,192,35901,1,0,0:0:0:0:
192,192,36012,1,0,0:0:0:0:
64,192,36123,1,0,0:0:0:0:
192,192,36234,1,0,0:0:0:0:
320,192,36345,1,0,0:0:0:0:
448,192,36456,1,0,0:0:0:0:
64,192,36567,1,0,0:0:0:0:
192,192,36678,1,0,0:0:0:0:
320,192,36789,1,0,0:0:0:0:
192,192,36901,1,0,0:0:0:0:
64,192,37012,1,0,0:0:0:0:
320,192,37123,1,0,0:0:0:0:
448,192,37234,1,0,0:0:0:0:
64,192,37345,1,0,0:0:0:0:
192,192,37567,1,0,0:0:0:0:
64,192,37789,1,0,0:0:0:0:
320,192,38012,1,0,0:0:0:0:
448,192,38234,1,0,0:0:0:0:
320,192,38456,1,0,0:0:0:0:
64,192,38567,1,0,0:0:0:0:
192,192,38789,1,0,0:0:0:0:
320,192,39012,1,0,0:0:0:0:
448,192,39123,1,0,0:0:0:0:
64,192,39345,1,0,0:0:0:0:
448,192,39567,1,0,0:0:0:0:
320,192,39678,1,0,0:0:0:0:
192,192,39789,1,0,0:0:0:0:
64,192,39901,1,0,0:0:0:0:
320,192,40012,1,0,0:0:0:0:
192,192,40123,1,0,0:0:0:0:
64,192,40234,1,0,0:0:0:0:
448,192,40345,1,0,0:0:0:0:
192,192,40456,1,0,0:0:0:0:
320,192,40567,1,0,0:0:0:0:
448,192,40678,1,0,0:0:0:0:
64,192,40789,1,0,0:0:0:0:
320,192,40901,1,0,0:0:0:0:
64,192,41123,1,0,0:0:0:0:
320,192,41345,1,0,0:0:0:0:
192,192,41567,1,0,0:0:0:0:
64,192,41789,1,0,0:0:0:0:
192,192,42012,1,0,0:0:0:0:
320,192,42123,1,0,0:0:0:0:
448,192,42234,1,0,0:0:0:0:
320,192,42345,1,0,0:0:0:0:
64,192,42456,1,0,0:0:0:0:
192,192,42456,1,0,0:0:0:0:
320,192,42901,1,0,0:0:0:0:
64,192,43123,128,0,43789:0:0:0:0:
192,192,43123,1,0,0:0:0:0:
448,192,43345,1,0,0:0:0:0:
192,192,43567,128,0,43789:0:0:0:0:
320,192,43567,1,0,0:0:0:0:
448,192,43789,1,0,0:0:0:0:
320,192,43845,1,0,0:0:0:0:
192,192,43901,1,0,0:0:0:0:
64,192,43956,1,0,0:0:0:0:
448,192,44012,1,0,0:0:0:0:
320,192,44012,1,0,0:0:0:0:
320,192,44123,1,0,0:0:0:0:
192,192,44123,1,0,0:0:0:0:
64,192,44234,1,0,0:0:0:0:
448,192,44456,128,0,44678:0:0:0:0:
320,192,44456,128,0,44678:0:0:0:0:
64,192,44789,1,0,0:0:0:0:
320,192,44901,1,0,0:0:0:0:
448,192,44901,1,0,0:0:0:0:
448,192,45123,128,0,45789:0:0:0:0:
320,192,45123,128,0,45789:0:0:0:0:
64,192,45567,1,0,0:0:0:0:
64,192,45789,1,0,0:0:0:0:
192,192,45789,1,0,0:0:0:0:
320,192,46234,128,0,46456:0:0:0:0:
192,192,46234,128,0,46456:0:0:0:0:
448,192,46567,1,0,0:0:0:0:
320,192,46678,1,0,0:0:0:0:
192,192,46678,1,0,0:0:0:0:
320,192,46901,128,0,47567:0:0:0:0:
192,192,46901,128,0,47567:0:0:0:0:
448,192,47345,1,0,0:0:0:0:
64,192,47567,1,0,0:0:0:0:
448,192,47567,1,0,0:0:0:0:
192,192,48012,128,0,48234:0:0:0:0:
64,192,48012,128,0,48234:0:0:0:0:
448,192,48345,1,0,0:0:0:0:
64,192,48456,1,0,0:0:0:0:
192,192,48456,1,0,0:0:0:0:
192,192,48678,128,0,49345:0:0:0:0:
64,192,48678,128,0,49345:0:0:0:0:
320,192,49123,1,0,0:0:0:0:
320,192,49345,1,0,0:0:0:0:
448,192,49345,1,0,0:0:0:0:
64,192,49456,1,0,0:0:0:0:
64,192,49678,1,0,0:0:0:0:
320,192,49789,1,0,0:0:0:0:
448,192,50012,128,0,50234:0:0:0:0:
64,192,50234,1,0,0:0:0:0:
192,192,50234,1,0,0:0:0:0:
320,192,50345,1,0,0:0:0:0:
448,192,50456,128,0,50678:0:0:0:0:
64,192,50567,1,0,0:0:0:0:
192,192,50678,1,0,0:0:0:0:
448,192,50901,1,0,0:0:0:0:
448,192,51012,1,0,0:0:0:0:
192,192,51123,1,0,0:0:0:0:
64,192,51123,1,0,0:0:0:0:
448,192,51234,1,0,0:0:0:0:
192,192,51345,1,0,0:0:0:0:
320,192,51456,1,0,0:0:0:0:
448,192,51567,128,0,51789:0:0:0:0:
64,192,51567,128,0,51789:0:0:0:0:
320,192,51901,1,0,0:0:0:0:
64,192,52012,1,0,0:0:0:0:
448,192,52012,1,0,0:0:0:0:
448,192,52234,128,0,52678:0:0:0:0:
64,192,52234,128,0,52678:0:0:0:0:
192,192,52678,1,0,0:0:0:0:
64,192,52901,1,0,0:0:0:0:
448,192,52901,128,0,53123:0:0:0:0:
320,192,53123,128,0,53345:0:0:0:0:
192,192,53345,128,0,53567:0:0:0:0:
64,192,53345,128,0,53567:0:0:0:0:
448,192,53678,1,0,0:0:0:0:
192,192,53789,1,0,0:0:0:0:
320,192,53789,1,0,0:0:0:0:
448,192,54012,128,0,54234:0:0:0:0:
320,192,54012,128,0,54234:0:0:0:0:
64,192,54456,1,0,0:0:0:0:
64,192,54678,1,0,0:0:0:0:
192,192,54678,1,0,0:0:0:0:
64,192,54901,1,0,0:0:0:0:
320,192,54901,1,0,0:0:0:0:
448,192,54901,1,0,0:0:0:0:
64,192,55345,1,0,0:0:0:0:
192,192,55456,1,0,0:0:0:0:
448,192,55567,1,0,0:0:0:0:
320,192,55567,1,0,0:0:0:0:
64,192,55789,1,0,0:0:0:0:
448,192,56012,1,0,0:0:0:0:
192,192,56234,1,0,0:0:0:0:
320,192,56456,1,0,0:0:0:0:
448,192,56456,1,0,0:0:0:0:
448,192,56678,1,0,0:0:0:0:
192,192,56678,1,0,0:0:0:0:
64,192,56678,1,0,0:0:0:0:
448,192,57123,1,0,0:0:0:0:
320,192,57234,1,0,0:0:0:0:
192,192,57345,1,0,0:0:0:0:
64,192,57345,1,0,0:0:0:0:
448,192,57567,1,0,0:0:0:0:
64,192,57789,1,0,0:0:0:0:
448,192,58012,1,0,0:0:0:0:
192,192,58234,1,0,0:0:0:0:
64,192,58234,1,0,0:0:0:0:
448,192,58456,128,0,60345:0:0:0:0:
320,192,58456,1,0,0:0:0:0:
192,192,58456,1,0,0:0:0:0:
64,192,60345,1,0,0:0:0:0:
192,192,60382,1,0,0:0:0:0:
320,192,60419,1,0,0:0:0:0:
448,192,60456,1,0,0:0:0:0:
64,192,61234,1,0,0:0:0:0:
192,192,61289,1,0,0:0:0:0:
320,192,61345,1,0,0:0:0:0:
448,192,61345,1,0,0:0:0:0:
64,192,61567,1,0,0:0:0:0:
320,192,61678,1,0,0:0:0:0:
448,192,61789,1,0,0:0:0:0:
64,192,61789,1,0,0:0:0:0:
192,192,61789,1,0,0:0:0:0:
192,192,62234,128,0,62456:0:0:0:0:
320,192,62234,1,0,0:0:0:0:
192,192,62678,1,0,0:0:0:0:
448,192,62678,1,0,0:0:0:0:
320,192,63123,128,0,63345:0:0:0:0:
320,192,63456,1,0,0:0:0:0:
64,192,63567,1,0,0:0:0:0:
192,192,63567,1,0,0:0:0:0:
320,192,63789,1,0,0:0:0:0:
64,192,64012,128,0,64234:0:0:0:0:
192,192,64345,128,0,64567:0:0:0:0:
448,192,64456,1,0,0:0:0:0:
64,192,64456,1,0,0:0:0:0:
320,192,64678,128,0,65234:0:0:0:0:
448,192,64901,128,0,65234:0:0:0:0:
448,192,65345,128,0,65789:0:0:0:0:
320,192,65345,1,0,0:0:0:0:
64,192,65789,128,0,66012:0:0:0:0:
64,192,66123,1,0,0:0:0:0:
320,192,66234,1,0,0:0:0:0:
448,192,66234,1,0,0:0:0:0:
64,192,66456,1,0,0:0:0:0:
64,192,66678,128,0,67012:0:0:0:0:
320,192,67123,1,0,0:0:0:0:
64,192,67123,128,0,67567:0:0:0:0:
320,192,67567,128,0,67789:0:0:0:0:
320,192,67901,1,0,0:0:0:0:
448,192,68012,1,0,0:0:0:0:
64,192,68012,1,0,0:0:0:0:
320,192,68234,1,0,0:0:0:0:
64,192,68456,1,0,0:0:0:0:
320,192,68567,1,0,0:0:0:0:
192,192,68901,128,0,69345:0:0:0:0:
448,192,68901,1,0,0:0:0:0:
64,192,69345,128,0,69678:0:0:0:0:
320,192,69789,1,0,0:0:0:0:
64,192,69789,128,0,70012:0:0:0:0:
192,192,70234,128,0,70456:0:0:0:0:
192,192,70567,1,0,0:0:0:0:
448,192,70678,1,0,0:0:0:0:
64,192,70678,1,0,0:0:0:0:
320,192,70901,1,0,0:0:0:0:
64,192,71123,128,0,71345:0:0:0:0:
192,192,71456,128,0,71678:0:0:0:0:
448,192,71567,1,0,0:0:0:0:
64,192,71567,1,0,0:0:0:0:
320,192,71789,128,0,72345:0:0:0:0:
448,192,72012,128,0,72345:0:0:0:0:
320,192,72456,1,0,0:0:0:0:
448,192,72456,128,0,72901:0:0:0:0:
192,192,72901,128,0,73123:0:0:0:0:
64,192,72901,1,0,0:0:0:0:
192,192,73234,1,0,0:0:0:0:
320,192,73345,1,0,0:0:0:0:
448,192,73345,1,0,0:0:0:0:
64,192,73567,1,0,0:0:0:0:
64,192,73789,128,0,74012:0:0:0:0:
448,192,73789,1,0,0:0:0:0:
64,192,74123,1,0,0:0:0:0:
192,192,74234,1,0,0:0:0:0:
320,192,74234,1,0,0:0:0:0:
448,192,74456,1,0,0:0:0:0:
448,192,74678,128,0,74901:0:0:0:0:
64,192,74678,1,0,0:0:0:0:
448,192,75012,1,0,0:0:0:0:
192,192,75123,1,0,0:0:0:0:
64,192,75123,1,0,0:0:0:0:
448,192,75345,1,0,0:0:0:0:
64,192,75345,1,0,0:0:0:0:
192,192,75567,1,0,0:0:0:0:
320,192,75567,1,0,0:0:0:0:
320,192,75789,1,0,0:0:0:0:
192,192,75789,1,0,0:0:0:0:
320,192,76012,128,0,76456:0:0:0:0:
192,192,76012,128,0,76456:0:0:0:0:
448,192,76456,1,0,0:0:0:0:
64,192,76456,128,0,76678:0:0:0:0:
64,192,76901,1,0,0:0:0:0:
448,192,76901,1,0,0:0:0:0:
192,192,77345,128,0,77567:0:0:0:0:
192,192,77678,1,0,0:0:0:0:
448,192,77789,1,0,0:0:0:0:
320,192,77789,1,0,0:0:0:0:
192,192,78012,1,0,0:0:0:0:
64,192,78234,128,0,78456:0:0:0:0:
192,192,78567,128,0,78789:0:0:0:0:
448,192,78678,1,0,0:0:0:0:
64,192,78678,1,0,0:0:0:0:
320,192,78901,128,0,79456:0:0:0:0:
448,192,79123,128,0,79456:0:0:0:0:
320,192,79567,1,0,0:0:0:0:
448,192,79567,128,0,80012:0:0:0:0:
192,192,80012,128,0,80234:0:0:0:0:
192,192,80345,1,0,0:0:0:0:
320,192,80456,1,0,0:0:0:0:
64,192,80456,1,0,0:0:0:0:
192,192,80678,1,0,0:0:0:0:
448,192,80901,128,0,81234:0:0:0:0:
448,192,81345,128,0,81678:0:0:0:0:
192,192,81345,1,0,0:0:0:0:
320,192,81789,128,0,82012:0:0:0:0:
320,192,82123,1,0,0:0:0:0:
192,192,82234,1,0,0:0:0:0:
64,192,82234,1,0,0:0:0:0:
448,192,82456,1,0,0:0:0:0:
64,192,82678,1,0,0:0:0:0:
448,192,82789,1,0,0:0:0:0:
320,192,83123,128,0,83567:0:0:0:0:
64,192,83123,1,0,0:0:0:0:
448,192,83567,1,0,0:0:0:0:
64,192,83567,128,0,83789:0:0:0:0:
64,192,84012,128,0,84234:0:0:0:0:
320,192,84012,1,0,0:0:0:0:
64,192,84456,128,0,84678:0:0:0:0:
64,192,84789,1,0,0:0:0:0:
320,192,84901,1,0,0:0:0:0:
192,192,84901,1,0,0:0:0:0:
448,192,85123,1,0,0:0:0:0:
64,192,85345,128,0,85567:0:0:0:0:
192,192,85678,128,0,85901:0:0:0:0:
448,192,85789,1,0,0:0:0:0:
64,192,85789,1,0,0:0:0:0:
320,192,86012,128,0,86567:0:0:0:0:
448,192,86234,128,0,86567:0:0:0:0:
320,192,86678,1,0,0:0:0:0:
448,192,86678,128,0,86901:0:0:0:0:
192,192,87123,128,0,87345:0:0:0:0:
192,192,87456,1,0,0:0:0:0:
448,192,87567,1,0,0:0:0:0:
64,192,87567,1,0,0:0:0:0:
192,192,87789,1,0,0:0:0:0:
448,192,88012,1,0,0:0:0:0:
192,192,88123,1,0,0:0:0:0:
192,192,88345,1,0,0:0:0:0:
448,192,88456,1,0,0:0:0:0:
320,192,88456,1,0,0:0:0:0:
192,192,88678,1,0,0:0:0:0:
448,192,88901,1,0,0:0:0:0:
64,192,88901,128,0,89123:0:0:0:0:
64,192,89234,1,0,0:0:0:0:
448,192,89345,1,0,0:0:0:0:
320,192,89345,1,0,0:0:0:0:
64,192,89567,1,0,0:0:0:0:
64,192,89789,128,0,90678:0:0:0:0:
192,192,90234,1,0,0:0:0:0:
448,192,90234,1,0,0:0:0:0:
320,192,90456,1,0,0:0:0:0:
448,192,90678,128,0,91012:0:0:0:0:
192,192,91123,128,0,91456:0:0:0:0:
448,192,91123,1,0,0:0:0:0:
320,192,91567,128,0,91789:0:0:0:0:
64,192,91901,1,0,0:0:0:0:
448,192,92012,1,0,0:0:0:0:
320,192,92012,1,0,0:0:0:0:
448,192,92234,128,0,92678:0:0:0:0:
192,192,92456,128,0,92678:0:0:0:0:
192,192,92789,128,0,93123:0:0:0:0:
448,192,92901,1,0,0:0:0:0:
320,192,92901,1,0,0:0:0:0:
64,192,93123,1,0,0:0:0:0:
64,192,93345,128,0,93789:0:0:0:0:
448,192,93789,1,0,0:0:0:0:
320,192,93789,1,0,0:0:0:0:
192,192,94012,1,0,0:0:0:0:
192,192,94234,128,0,94456:0:0:0:0:
64,192,94234,1,0,0:0:0:0:
192,192,94567,1,0,0:0:0:0:
448,192,94678,1,0,0:0:0:0:
64,192,94678,1,0,0:0:0:0:
448,192,94901,1,0,0:0:0:0:
448,192,95123,128,0,95345:0:0:0:0:
448,192,95567,1,0,0:0:0:0:
64,192,95567,1,0,0:0:0:0:
320,192,95789,1,0,0:0:0:0:
320,192,96012,128,0,96234:0:0:0:0:
320,192,96345,1,0,0:0:0:0:
64,192,96456,1,0,0:0:0:0:
192,192,96456,1,0,0:0:0:0:
320,192,96678,1,0,0:0:0:0:
64,192,96901,128,0,97123:0:0:0:0:
192,192,97345,128,0,97567:0:0:0:0:
320,192,97345,1,0,0:0:0:0:
448,192,97789,128,0,98234:0:0:0:0:
192,192,98234,1,0,0:0:0:0:
64,192,98234,128,0,98456:0:0:0:0:
448,192,98678,128,0,98901:0:0:0:0:
448,192,99012,1,0,0:0:0:0:
64,192,99123,1,0,0:0:0:0:
192,192,99123,1,0,0:0:0:0:
320,192,99345,1,0,0:0:0:0:
448,192,99567,128,0,100012:0:0:0:0:
320,192,99901,1,0,0:0:0:0:
192,192,100012,1,0,0:0:0:0:
64,192,100012,1,0,0:0:0:0:
448,192,100234,128,0,100456:0:0:0:0:
64,192,100456,128,0,100678:0:0:0:0:
192,192,100678,1,0,0:0:0:0:
320,192,100752,1,0,0:0:0:0:
448,192,100827,1,0,0:0:0:0:
192,192,100901,1,0,0:0:0:0:
64,192,100901,1,0,0:0:0:0:
448,192,101012,1,0,0:0:0:0:
320,192,101123,1,0,0:0:0:0:
192,192,101234,1,0,0:0:0:0:
64,192,101345,128,0,101789:0:0:0:0:
448,192,101789,1,0,0:0:0:0:
320,192,101789,1,0,0:0:0:0:
320,192,102234,1,0,0:0:0:0:
64,192,102567,1,0,0:0:0:0:
320,192,102678,1,0,0:0:0:0:
448,192,103123,1,0,0:0:0:0:
64,192,103123,1,0,0:0:0:0:
192,192,103345,1,0,0:0:0:0:
448,192,103456,1,0,0:0:0:0:
64,192,103456,1,0,0:0:0:0:
64,192,103678,1,0,0:0:0:0:
192,192,103789,1,0,0:0:0:0:
448,192,103789,1,0,0:0:0:0:
320,192,104012,1,0,0:0:0:0:
192,192,104123,1,0,0:0:0:0:
64,192,104123,1,0,0:0:0:0:
64,192,104345,1,0,0:0:0:0:
320,192,104456,128,0,104901:0:0:0:0:
448,192,104456,128,0,104901:0:0:0:0:
64,192,106123,1,0,0:0:0:0:
192,192,106178,1,0,0:0:0:0:
448,192,106234,1,0,0:0:0:0:
320,192,106234,1,0,0:0:0:0:
64,192,106678,1,0,0:0:0:0:
320,192,106901,1,0,0:0:0:0:
192,192,107123,1,0,0:0:0:0:
320,192,107345,1,0,0:0:0:0:
448,192,107567,1,0,0:0:0:0:
64,192,107789,1,0,0:0:0:0:
192,192,107901,1,0,0:0:0:0:
320,192,108123,1,0,0:0:0:0:
448,192,108345,1,0,0:0:0:0:
64,192,108456,1,0,0:0:0:0:
320,192,108567,1,0,0:0:0:0:
448,192,108678,1,0,0:0:0:0:
192,192,108901,1,0,0:0:0:0:
320,192,109123,1,0,0:0:0:0:
192,192,109345,1,0,0:0:0:0:
64,192,109567,1,0,0:0:0:0:
192,192,109678,1,0,0:0:0:0:
448,192,109901,1,0,0:0:0:0:
320,192,110123,1,0,0:0:0:0:
448,192,110456,1,0,0:0:0:0:
320,192,110567,1,0,0:0:0:0:
192,192,110678,1,0,0:0:0:0:
64,192,110789,1,0,0:0:0:0:
192,192,110901,1,0,0:0:0:0:
320,192,111012,1,0,0:0:0:0:
448,192,111123,1,0,0:0:0:0:
64,192,111234,1,0,0:0:0:0:
320,192,111345,1,0,0:0:0:0:
192,192,111456,1,0,0:0:0:0:
64,192,111567,1,0,0:0:0:0:
192,192,111678,1,0,0:0:0:0:
320,192,111789,1,0,0:0:0:0:
64,192,111901,1,0,0:0:0:0:
448,192,112012,1,0,0:0:0:0:
192,192,112123,1,0,0:0:0:0:
448,192,112234,1,0,0:0:0:0:
320,192,112456,1,0,0:0:0:0:
448,192,112678,1,0,0:0:0:0:
64,192,112789,1,0,0:0:0:0:
320,192,112901,1,0,0:0:0:0:
64,192,113012,1,0,0:0:0:0:
448,192,113123,1,0,0:0:0:0:
192,192,113345,1,0,0:0:0:0:
320,192,113456,1,0,0:0:0:0:
64,192,113567,1,0,0:0:0:0:
320,192,113678,1,0,0:0:0:0:
448,192,113789,1,0,0:0:0:0:
192,192,113901,1,0,0:0:0:0:
448,192,114012,1,0,0:0:0:0:
192,192,114234,1,0,0:0:0:0:
448,192,114345,1,0,0:0:0:0:
320,192,114456,1,0,0:0:0:0:
192,192,114567,1,0,0:0:0:0:
320,192,114678,1,0,0:0:0:0:
64,192,114789,1,0,0:0:0:0:
192,192,114901,1,0,0:0:0:0:
64,192,115012,1,0,0:0:0:0:
448,192,115123,1,0,0:0:0:0:
64,192,115234,1,0,0:0:0:0:
192,192,115345,1,0,0:0:0:0:
320,192,115456,1,0,0:0:0:0:
448,192,115567,1,0,0:0:0:0:
192,192,115678,1,0,0:0:0:0:
448,192,115789,1,0,0:0:0:0:
64,192,116012,1,0,0:0:0:0:
192,192,116234,1,0,0:0:0:0:
320,192,116456,1,0,0:0:0:0:
64,192,116678,1,0,0:0:0:0:
192,192,116789,1,0,0:0:0:0:
448,192,117012,1,0,0:0:0:0:
320,192,117123,1,0,0:0:0:0:
64,192,117123,1,0,0:0:0:0:
320,192,117567,1,0,0:0:0:0:
448,192,117789,128,0,118456:0:0:0:0:
192,192,118012,1,0,0:0:0:0:
320,192,118234,128,0,118456:0:0:0:0:
64,192,118456,1,0,0:0:0:0:
192,192,118512,1,0,0:0:0:0:
320,192,118567,1,0,0:0:0:0:
448,192,118623,1,0,0:0:0:0:
64,192,118678,1,0,0:0:0:0:
192,192,118678,1,0,0:0:0:0:
320,192,118789,1,0,0:0:0:0:
192,192,118789,1,0,0:0:0:0:
448,192,118901,1,0,0:0:0:0:
448,192,119123,128,0,119345:0:0:0:0:
320,192,119123,128,0,119345:0:0:0:0:
64,192,119456,1,0,0:0:0:0:
448,192,119567,1,0,0:0:0:0:
320,192,119567,1,0,0:0:0:0:
448,192,119789,128,0,120456:0:0:0:0:
320,192,119789,128,0,120456:0:0:0:0:
64,192,120234,1,0,0:0:0:0:
64,192,120456,1,0,0:0:0:0:
192,192,120456,1,0,0:0:0:0:
320,192,120901,128,0,121123:0:0:0:0:
192,192,120901,128,0,121123:0:0:0:0:
64,192,121234,1,0,0:0:0:0:
320,192,121345,1,0,0:0:0:0:
192,192,121345,1,0,0:0:0:0:
320,192,121567,128,0,122234:0:0:0:0:
192,192,121567,128,0,122234:0:0:0:0:
448,192,122012,1,0,0:0:0:0:
64,192,122234,1,0,0:0:0:0:
448,192,122234,1,0,0:0:0:0:
192,192,122678,128,0,122901:0:0:0:0:
64,192,122678,128,0,122901:0:0:0:0:
448,192,123012,1,0,0:0:0:0:
64,192,123123,1,0,0:0:0:0:
192,192,123123,1,0,0:0:0:0:
192,192,123345,128,0,124012:0:0:0:0:
64,192,123345,128,0,124012:0:0:0:0:
320,192,123789,1,0,0:0:0:0:
320,192,124012,1,0,0:0:0:0:
448,192,124012,1,0,0:0:0:0:
64,192,124123,1,0,0:0:0:0:
64,192,124345,1,0,0:0:0:0:
320,192,124456,1,0,0:0:0:0:
448,192,124678,128,0,124901:0:0:0:0:
64,192,124901,1,0,0:0:0:0:
192,192,124901,1,0,0:0:0:0:
320,192,125012,1,0,0:0:0:0:
448,192,125123,128,0,125345:0:0:0:0:
192,192,125123,1,0,0:0:0:0:
64,192,125234,1,0,0:0:0:0:
192,192,125345,1,0,0:0:0:0:
448,192,125456,1,0,0:0:0:0:
320,192,125567,1,0,0:0:0:0:
192,192,125678,1,0,0:0:0:0:
448,192,125789,1,0,0:0:0:0:
64,192,125789,1,0,0:0:0:0:
320,192,125901,1,0,0:0:0:0:
192,192,126012,1,0,0:0:0:0:
320,192,126123,1,0,0:0:0:0:
448,192,126234,128,0,126456:0:0:0:0:
64,192,126234,128,0,126456:0:0:0:0:
320,192,126567,1,0,0:0:0:0:
64,192,126678,1,0,0:0:0:0:
448,192,126678,1,0,0:0:0:0:
448,192,126901,128,0,127345:0:0:0:0:
64,192,126901,128,0,127345:0:0:0:0:
192,192,127345,1,0,0:0:0:0:
64,192,127567,1,0,0:0:0:0:
448,192,127567,128,0,127789:0:0:0:0:
320,192,127789,128,0,128012:0:0:0:0:
192,192,128012,128,0,128234:0:0:0:0:
64,192,128012,128,0,128234:0:0:0:0:
448,192,128345,1,0,0:0:0:0:
320,192,128456,1,0,0:0:0:0:
192,192,128456,1,0,0:0:0:0:
448,192,128678,128,0,128901:0:0:0:0:
320,192,128678,128,0,128901:0:0:0:0:
64,192,129123,1,0,0:0:0:0:
64,192,129345,1,0,0:0:0:0:
192,192,129345,1,0,0:0:0:0:
64,192,129567,1,0,0:0:0:0:
320,192,129567,1,0,0:0:0:0:
448,192,129567,1,0,0:0:0:0:
64,192,130012,1,0,0:0:0:0:
192,192,130123,1,0,0:0:0:0:
448,192,130234,1,0,0:0:0:0:
320,192,130234,1,0,0:0:0:0:
64,192,130456,1,0,0:0:0:0:
448,192,130678,1,0,0:0:0:0:
192,192,130901,1,0,0:0:0:0:
320,192,131123,1,0,0:0:0:0:
448,192,131123,1,0,0:0:0:0:
448,192,131345,1,0,0:0:0:0:
192,192,131345,1,0,0:0:0:0:
64,192,131345,1,0,0:0:0:0:
448,192,131789,1,0,0:0:0:0:
192,192,131901,1,0,0:0:0:0:
448,192,132012,1,0,0:0:0:0:
64,192,132012,1,0,0:0:0:0:
64,192,132123,1,0,0:0:0:0:
320,192,132234,1,0,0:0:0:0:
192,192,132345,1,0,0:0:0:0:
64,192,132456,1,0,0:0:0:0:
320,192,132567,1,0,0:0:0:0:
448,192,132678,1,0,0:0:0:0:
192,192,132734,1,0,0:0:0:0:
64,192,132789,1,0,0:0:0:0:
448,192,132901,1,0,0:0:0:0:
320,192,132901,1,0,0:0:0:0:
192,192,133012,1,0,0:0:0:0:
448,192,133123,128,0,135012:0:0:0:0:
320,192,133123,1,0,0:0:0:0:
64,192,133123,1,0,0:0:0:0:
64,192,135012,1,0,0:0:0:0:
192,192,135049,1,0,0:0:0:0:
320,192,135086,1,0,0:0:0:0:
448,192,135123,1,0,0:0:0:0:
64,192,135901,1,0,0:0:0:0:
192,192,135956,1,0,0:0:0:0:
320,192,136012,1,0,0:0:0:0:
448,192,136012,1,0,0:0:0:0:
192,192,136234,1,0,0:0:0:0:
320,192,136345,1,0,0:0:0:0:
448,192,136456,1,0,0:0:0:0:
64,192,136456,1,0,0:0:0:0:
320,192,136901,1,0,0:0:0:0:
192,192,136901,128,0,137123:0:0:0:0:
448,192,137345,1,0,0:0:0:0:
192,192,137345,1,0,0:0:0:0:
320,192,137789,128,0,138012:0:0:0:0:
320,192,138123,1,0,0:0:0:0:
64,192,138234,1,0,0:0:0:0:
192,192,138234,1,0,0:0:0:0:
320,192,138456,1,0,0:0:0:0:
64,192,138678,128,0,138901:0:0:0:0:
192,192,139012,128,0,139234:0:0:0:0:
64,192,139123,1,0,0:0:0:0:
448,192,139123,1,0,0:0:0:0:
320,192,139345,128,0,139901:0:0:0:0:
448,192,139567,128,0,139901:0:0:0:0:
320,192,140012,1,0,0:0:0:0:
448,192,140012,128,0,140456:0:0:0:0:
64,192,140456,128,0,140678:0:0:0:0:
64,192,140789,1,0,0:0:0:0:
448,192,140901,1,0,0:0:0:0:
320,192,140901,1,0,0:0:0:0:
64,192,141123,1,0,0:0:0:0:
64,192,141345,128,0,141678:0:0:0:0:
64,192,141789,128,0,142234:0:0:0:0:
320,192,141789,1,0,0:0:0:0:
320,192,142234,128,0,142456:0:0:0:0:
320,192,142567,1,0,0:0:0:0:
448,192,142678,1,0,0:0:0:0:
64,192,142678,1,0,0:0:0:0:
320,192,142901,1,0,0:0:0:0:
64,192,143123,1,0,0:0:0:0:
320,192,143234,1,0,0:0:0:0:
448,192,143567,1,0,0:0:0:0:
192,192,143567,128,0,144012:0:0:0:0:
64,192,144012,128,0,144345:0:0:0:0:
64,192,144456,128,0,144678:0:0:0:0:
320,192,144456,1,0,0:0:0:0:
192,192,144901,128,0,145123:0:0:0:0:
192,192,145234,1,0,0:0:0:0:
64,192,145345,1,0,0:0:0:0:
448,192,145345,1,0,0:0:0:0:
320,192,145567,1,0,0:0:0:0:
64,192,145789,128,0,146012:0:0:0:0:
192,192,146123,128,0,146345:0:0:0:0:
448,192,146234,1,0,0:0:0:0:
64,192,146234,1,0,0:0:0:0:
320,192,146456,128,0,147012:0:0:0:0:
448,192,146678,128,0,147012:0:0:0:0:
320,192,147123,1,0,0:0:0:0:
448,192,147123,128,0,147567:0:0:0:0:
192,192,147567,128,0,147789:0:0:0:0:
192,192,147901,1,0,0:0:0:0:
320,192,148012,1,0,0:0:0:0:
448,192,148012,1,0,0:0:0:0:
64,192,148234,1,0,0:0:0:0:
64,192,148456,128,0,148678:0:0:0:0:
64,192,148789,1,0,0:0:0:0:
192,192,148901,1,0,0:0:0:0:
320,192,148901,1,0,0:0:0:0:
448,192,149123,1,0,0:0:0:0:
448,192,149345,128,0,149567:0:0:0:0:
448,192,149678,1,0,0:0:0:0:
192,192,149789,1,0,0:0:0:0:
64,192,149789,1,0,0:0:0:0:
320,192,150012,1,0,0:0:0:0:
192,192,150012,1,0,0:0:0:0:
448,192,150234,1,0,0:0:0:0:
320,192,150234,1,0,0:0:0:0:
320,192,150456,1,0,0:0:0:0:
192,192,150456,1,0,0:0:0:0:
64,192,150678,128,0,151123:0:0:0:0:
448,192,151123,1,0,0:0:0:0:
192,192,151123,128,0,151345:0:0:0:0:
64,192,151567,1,0,0:0:0:0:
448,192,151567,1,0,0:0:0:0:
192,192,152012,128,0,152234:0:0:0:0:
192,192,152345,1,0,0:0:0:0:
448,192,152456,1,0,0:0:0:0:
320,192,152456,1,0,0:0:0:0:
192,192,152678,1,0,0:0:0:0:
64,192,152901,128,0,153123:0:0:0:0:
192,192,153234,128,0,153456:0:0:0:0:
448,192,153345,1,0,0:0:0:0:
64,192,153345,1,0,0:0:0:0:
320,192,153567,128,0,154123:0:0:0:0:
448,192,153789,128,0,154123:0:0:0:0:
320,192,154234,1,0,0:0:0:0:
448,192,154234,128,0,154678:0:0:0:0:
192,192,154678,128,0,154901:0:0:0:0:
192,192,155012,1,0,0:0:0:0:
320,192,155123,1,0,0:0:0:0:
64,192,155123,1,0,0:0:0:0:
192,192,155345,1,0,0:0:0:0:
448,192,155567,128,0,155901:0:0:0:0:
448,192,156012,128,0,156345:0:0:0:0:
192,192,156012,1,0,0:0:0:0:
320,192,156456,128,0,156678:0:0:0:0:
320,192,156789,1,0,0:0:0:0:
192,192,156901,1,0,0:0:0:0:
64,192,156901,1,0,0:0:0:0:
448,192,157123,1,0,0:0:0:0:
64,192,157345,1,0,0:0:0:0:
448,192,157456,1,0,0:0:0:0:
320,192,157789,128,0,158234:0:0:0:0:
64,192,157789,1,0,0:0:0:0:
448,192,158234,1,0,0:0:0:0:
64,192,158234,128,0,158456:0:0:0:0:
64,192,158678,128,0,158901:0:0:0:0:
320,192,158678,1,0,0:0:0:0:
64,192,159123,128,0,159345:0:0:0:0:
64,192,159456,1,0,0:0:0:0:
320,192,159567,1,0,0:0:0:0:
192,192,159567,1,0,0:0:0:0:
448,192,159789,1,0,0:0:0:0:
64,192,160012,128,0,160234:0:0:0:0:
192,192,160345,128,0,160567:0:0:0:0:
448,192,160456,1,0,0:0:0:0:
64,192,160456,1,0,0:0:0:0:
320,192,160678,128,0,161234:0:0:0:0:
448,192,160901,128,0,161234:0:0:0:0:
320,192,161345,1,0,0:0:0:0:
448,192,161345,128,0,161567:0:0:0:0:
192,192,161789,128,0,162012:0:0:0:0:
192,192,162123,1,0,0:0:0:0:
448,192,162234,1,0,0:0:0:0:
64,192,162234,1,0,0:0:0:0:
192,192,162456,1,0,0:0:0:0:
448,192,162678,128,0,163012:0:0:0:0:
192,192,163012,1,0,0:0:0:0:
448,192,163123,1,0,0:0:0:0:
320,192,163123,1,0,0:0:0:0:
192,192,163345,1,0,0:0:0:0:
448,192,163567,1,0,0:0:0:0:
64,192,163567,128,0,163789:0:0:0:0:
64,192,163901,1,0,0:0:0:0:
448,192,164012,1,0,0:0:0:0:
320,192,164012,1,0,0:0:0:0:
64,192,164234,1,0,0:0:0:0:
64,192,164456,128,0,164678:0:0:0:0:
448,192,164678,1,0,0:0:0:0:
320,192,164678,1,0,0:0:0:0:
192,192,164789,1,0,0:0:0:0:
64,192,164789,1,0,0:0:0:0:
448,192,165012,1,0,0:0:0:0:
320,192,165012,1,0,0:0:0:0:
192,192,165234,1,0,0:0:0:0:
64,192,165234,1,0,0:0:0:0:
448,192,165345,128,0,165567:0:0:0:0:
320,192,165345,1,0,0:0:0:0:
448,192,165789,128,0,166012:0:0:0:0:
192,192,165789,1,0,0:0:0:0:
64,192,166012,1,0,0:0:0:0:
448,192,166123,1,0,0:0:0:0:
64,192,166345,1,0,0:0:0:0:
448,192,166456,128,0,166678:0:0:0:0:
192,192,166678,1,0,0:0:0:0:
64,192,166678,1,0,0:0:0:0:
448,192,166789,1,0,0:0:0:0:
64,192,167012,1,0,0:0:0:0:
320,192,167123,128,0,167345:0:0:0:0:
192,192,167123,1,0,0:0:0:0:
320,192,167567,128,0,167789:0:0:0:0:
64,192,167567,1,0,0:0:0:0:
192,192,167789,1,0,0:0:0:0:
320,192,167901,1,0,0:0:0:0:
448,192,168012,1,0,0:0:0:0:
320,192,168123,1,0,0:0:0:0:
192,192,168234,1,0,0:0:0:0:
64,192,168345,1,0,0:0:0:0:
448,192,168456,1,0,0:0:0:0:
320,192,168456,1,0,0:0:0:0:
64,192,168567,1,0,0:0:0:0:
448,192,168678,1,0,0:0:0:0:
192,192,168789,1,0,0:0:0:0:
64,192,168901,128,0,169123:0:0:0:0:
320,192,168901,1,0,0:0:0:0:
64,192,169345,128,0,169567:0:0:0:0:
448,192,169345,1,0,0:0:0:0:
320,192,169567,1,0,0:0:0:0:
64,192,169678,1,0,0:0:0:0:
320,192,169901,1,0,0:0:0:0:
64,192,170012,128,0,170234:0:0:0:0:
448,192,170123,1,0,0:0:0:0:
192,192,170234,1,0,0:0:0:0:
64,192,170345,1,0,0:0:0:0:
64,192,170567,1,0,0:0:0:0:
192,192,170678,128,0,170901:0:0:0:0:
192,192,171123,128,0,171345:0:0:0:0:
448,192,171123,1,0,0:0:0:0:
192,192,171456,1,0,0:0:0:0:
320,192,171567,1,0,0:0:0:0:
64,192,171678,1,0,0:0:0:0:
192,192,171789,1,0,0:0:0:0:
448,192,171901,1,0,0:0:0:0:
320,192,172012,1,0,0:0:0:0:
192,192,172123,1,0,0:0:0:0:
448,192,172234,1,0,0:0:0:0:
64,192,172345,1,0,0:0:0:0:
320,192,172456,128,0,172678:0:0:0:0:
320,192,172901,128,0,173123:0:0:0:0:
448,192,172901,1,0,0:0:0:0:
64,192,173123,1,0,0:0:0:0:
320,192,173234,1,0,0:0:0:0:
64,192,173456,1,0,0:0:0:0:
320,192,173567,128,0,173789:0:0:0:0:
448,192,173789,1,0,0:0:0:0:
64,192,173789,1,0,0:0:0:0:
320,192,174012,128,0,174234:0:0:0:0:
448,192,174234,128,0,174456:0:0:0:0:
192,192,174678,1,0,0:0:0:0:
448,192,174678,128,0,174901:0:0:0:0:
64,192,174901,1,0,0:0:0:0:
448,192,175012,1,0,0:0:0:0:
448,192,175234,1,0,0:0:0:0:
320,192,175345,1,0,0:0:0:0:
64,192,175456,1,0,0:0:0:0:
320,192,175567,1,0,0:0:0:0:
192,192,175678,1,0,0:0:0:0:
448,192,175789,1,0,0:0:0:0:
320,192,175901,1,0,0:0:0:0:
192,192,176012,128,0,176234:0:0:0:0:
192,192,176456,128,0,176678:0:0:0:0:
64,192,176456,1,0,0:0:0:0:
448,192,176678,1,0,0:0:0:0:
192,192,176789,1,0,0:0:0:0:
192,192,177123,128,0,177345:0:0:0:0:
64,192,177567,1,0,0:0:0:0:
448,192,177567,1,0,0:0:0:0:
448,192,177789,1,0,0:0:0:0:
320,192,177789,1,0,0:0:0:0:
64,192,178012,1,0,0:0:0:0:
192,192,178012,1,0,0:0:0:0:
320,192,178123,1,0,0:0:0:0:
448,192,178123,1,0,0:0:0:0:
64,192,178345,1,0,0:0:0:0:
192,192,178345,1,0,0:0:0:0:
320,192,178456,1,0,0:0:0:0:
448,192,178456,1,0,0:0:0:0:
64,192,178678,128,0,179012:0:0:0:0:
320,192,179012,1,0,0:0:0:0:
448,192,179123,128,0,179567:0:0:0:0:
64,192,179123,128,0,179567:0:0:0:0:
320,192,179567,1,0,0:0:0:0:
192,192,179901,1,0,0:0:0:0:
320,192,180234,1,0,0:0:0:0:
192,192,180567,1,0,0:0:0:0:
320,192,180901,1,0,0:0:0:0:
192,192,181123,1,0,0:0:0:0:
448,192,181345,1,0,0:0:0:0:
320,192,181678,1,0,0:0:0:0:
448,192,182012,1,0,0:0:0:0:
320,192,182345,1,0,0:0:0:0:
448,192,182678,1,0,0:0:0:0:
320,192,182901,1,0,0:0:0:0:
64,192,183123,1,0,0:0:0:0:
192,192,183456,1,0,0:0:0:0:
64,192,183789,1,0,0:0:0:0:
192,192,184123,1,0,0:0:0:0:
64,192,184456,1,0,0:0:0:0:
192,192,184678,1,0,0:0:0:0:
320,192,184901,1,0,0:0:0:0:
448,192,185234,1,0,0:0:0:0:
320,192,185567,1,0,0:0:0:0:
448,192,185901,1,0,0:0:0:0:
320,192,186234,1,0,0:0:0:0:
448,192,186456,1,0,0:0:0:0:
320,192,186678,128,0,187012:0:0:0:0:
64,192,187012,1,0,0:0:0:0:
320,192,187345,128,0,187678:0:0:0:0:
64,192,187678,1,0,0:0:0:0:
320,192,188012,128,0,188234:0:0:0:0:
64,192,188234,1,0,0:0:0:0:
192,192,188456,128,0,188789:0:0:0:0:
448,192,188789,1,0,0:0:0:0:
192,192,189123,128,0,189456:0:0:0:0:
448,192,189456,1,0,0:0:0:0:
192,192,189789,128,0,190012:0:0:0:0:
448,192,190012,1,0,0:0:0:0:
64,192,190234,128,0,190567:0:0:0:0:
448,192,190567,1,0,0:0:0:0:
64,192,190901,128,0,191234:0:0:0:0:
448,192,191234,1,0,0:0:0:0:
64,192,191567,128,0,191789:0:0:0:0:
448,192,191789,1,0,0:0:0:0:
192,192,192012,128,0,192345:0:0:0:0:
320,192,192345,1,0,0:0:0:0:
192,192,192678,128,0,193012:0:0:0:0:
320,192,193012,1,0,0:0:0:0:
192,192,193345,128,0,193567:0:0:0:0:
320,192,193567,1,0,0:0:0:0:
64,192,193789,1,0,0:0:0:0:
192,192,193789,1,0,0:0:0:0:
64,192,194456,1,0,0:0:0:0:
448,192,194678,1,0,0:0:0:0:
192,192,194678,1,0,0:0:0:0:
192,192,195345,1,0,0:0:0:0:
64,192,195345,1,0,0:0:0:0:
192,192,195567,1,0,0:0:0:0:
64,192,195567,1,0,0:0:0:0:
192,192,195901,1,0,0:0:0:0:
64,192,195901,1,0,0:0:0:0:
192,192,196234,1,0,0:0:0:0:
64,192,196234,1,0,0:0:0:0:
448,192,196456,1,0,0:0:0:0:
192,192,196456,1,0,0:0:0:0:
448,192,197123,1,0,0:0:0:0:
320,192,197123,1,0,0:0:0:0:
320,192,197345,1,0,0:0:0:0:
192,192,197345,1,0,0:0:0:0:
320,192,198012,1,0,0:0:0:0:
192,192,198012,1,0,0:0:0:0:
64,192,198234,1,0,0:0:0:0:
448,192,198234,1,0,0:0:0:0:
320,192,198901,1,0,0:0:0:0:
192,192,198901,1,0,0:0:0:0:
320,192,199123,1,0,0:0:0:0:
192,192,199123,1,0,0:0:0:0:
320,192,199789,1,0,0:0:0:0:
192,192,199789,1,0,0:0:0:0:
448,192,200012,1,0,0:0:0:0:
64,192,200012,1,0,0:0:0:0:
320,192,200345,1,0,0:0:0:0:
192,192,200345,1,0,0:0:0:0:
320,192,200567,1,0,0:0:0:0:
192,192,200567,1,0,0:0:0:0:
448,192,200678,1,0,0:0:0:0:
64,192,200678,1,0,0:0:0:0:
192,192,200901,1,0,0:0:0:0:
64,192,201789,1,0,0:0:0:0:
448,192,201789,1,0,0:0:0:0:
448,192,202456,1,0,0:0:0:0:
320,192,202456,1,0,0:0:0:0:
448,192,202678,1,0,0:0:0:0:
320,192,202678,1,0,0:0:0:0:
448,192,203012,1,0,0:0:0:0:
320,192,203012,1,0,0:0:0:0:
448,192,203345,1,0,0:0:0:0:
320,192,203345,1,0,0:0:0:0:
448,192,203567,1,0,0:0:0:0:
64,192,203567,1,0,0:0:0:0:
448,192,204234,1,0,0:0:0:0:
320,192,204234,1,0,0:0:0:0:
192,192,204456,1,0,0:0:0:0:
64,192,204456,1,0,0:0:0:0:
192,192,205123,1,0,0:0:0:0:
64,192,205123,1,0,0:0:0:0:
64,192,205345,1,0,0:0:0:0:
448,192,205345,1,0,0:0:0:0:
64,192,206012,1,0,0:0:0:0:
448,192,206234,128,0,207567:0:0:0:0:
64,192,207567,128,0,208012:0:0:0:0:
320,192,208012,1,0,0:0:0:0:
192,192,209789,1,0,0:0:0:0:
64,192,211567,1,0,0:0:0:0:
320,192,213345,1,0,0:0:0:0:
448,192,214234,1,0,0:0:0:0:
192,192,215123,1,0,0:0:0:0:
64,192,216901,1,0,0:0:0:0:
320,192,218678,1,0,0:0:0:0:
448,192,220234,1,0,0:0:0:0:
64,192,220234,1,0,0:0:0:0:
448,192,220678,1,0,0:0:0:0:
192,192,220901,1,0,0:0:0:0:
320,192,221123,1,0,0:0:0:0:
192,192,221345,1,0,0:0:0:0:
448,192,221345,1,0,0:0:0:0:
64,192,221567,1,0,0:0:0:0:
320,192,221567,1,0,0:0:0:0:
448,192,221789,1,0,0:0:0:0:
64,192,221789,1,0,0:0:0:0:
320,192,222012,1,0,0:0:0:0:
192,192,222012,1,0,0:0:0:0:
64,192,222123,1,0,0:0:0:0:
192,192,222160,1,0,0:0:0:0:
320,192,222197,1,0,0:0:0:0:
448,192,222234,1,0,0:0:0:0:
448,192,223123,1,0,0:0:0:0:
64,192,223123,1,0,0:0:0:0:
320,192,223178,1,0,0:0:0:0:
192,192,223234,1,0,0:0:0:0:
64,192,223289,1,0,0:0:0:0:
448,192,223345,1,0,0:0:0:0:
192,192,223456,1,0,0:0:0:0:
448,192,223567,1,0,0:0:0:0:
320,192,223567,1,0,0:0:0:0:
64,192,224012,1,0,0:0:0:0:
448,192,224012,1,0,0:0:0:0:
