osu file format v14

[General]
AudioFilename: audio.mp3
AudioLeadIn: 0
PreviewTime: 41966
Countdown: 0
SampleSet: Soft
StackLeniency: 0.7
Mode: 3
LetterboxInBreaks: 0
SpecialStyle: 0
WidescreenStoryboard: 0

[Editor]
DistanceSpacing: 0.7
BeatDivisor: 4
GridSize: 8
TimelineZoom: 2.3

[Metadata]
Title:CheerS (TV Size)
TitleUnicode:CheerS (TV Size)
Artist:ClariS
ArtistUnicode:ClariS
Creator:Savageeeee
Version:Harmonious Healing
Source:はたらく細胞
Tags:ml-ysg jpop j-pop pop Karin- hataraku saibou saibo cells at work biology cyte cell anime japanese ending ED Hayashi Kei 林慧 ハヤシケイ megane 毛蟹 Kegani LIVE LAB
BeatmapID:4509469
BeatmapSetID:2142337

[Difficulty]
HPDrainRate:8.5
CircleSize:4
OverallDifficulty:8.2
ApproachRate:5
SliderMultiplier:1.4
SliderTickRate:1

[Events]
//Background and Video events
0,0,"bg.jpg",0,0
//Break Periods
//Storyboard Layer 0 (Background)
//Storyboard Layer 1 (Fail)
//Storyboard Layer 2 (Pass)
//Storyboard Layer 3 (Foreground)
//Storyboard Layer 4 (Overlay)
//Storyboard Sound Samples

[TimingPoints]
786,588.235294117647,4,2,1,50,1,0
43138,-100,4,2,1,50,0,1
61962,-100,4,2,1,50,0,0
71374,-100,4,2,1,50,0,1
80785,-100,4,2,1,50,0,0

[HitObjects]
64,192,491,128,0,786:0:0:0:0:
448,192,565,128,0,638:0:0:0:0:
320,192,638,128,0,712:0:0:0:0:
192,192,712,128,0,786:0:0:0:0:
320,192,786,128,0,1227:0:0:0:0:
448,192,786,128,0,1815:0:0:0:0:
64,192,1080,128,0,1668:0:0:0:0:
192,192,1227,128,0,1374:0:0:0:0:
320,192,1374,128,0,1815:0:0:0:0:
192,192,1668,128,0,1962:0:0:0:0:
64,192,1815,128,0,1962:0:0:0:0:
320,192,1962,128,0,2550:0:0:0:0:
448,192,1962,128,0,2256:0:0:0:0:
64,192,2109,128,0,2256:0:0:0:0:
192,192,2256,128,0,2550:0:0:0:0:
64,192,2550,128,0,3138:0:0:0:0:
448,192,2550,128,0,2844:0:0:0:0:
192,192,2844,128,0,3138:0:0:0:0:
448,192,3138,128,0,3286:0:0:0:0:
320,192,3138,128,0,3286:0:0:0:0:
192,192,3433,128,0,3580:0:0:0:0:
320,192,3433,128,0,3580:0:0:0:0:
64,192,3727,128,0,3874:0:0:0:0:
192,192,3727,128,0,3874:0:0:0:0:
64,192,4021,128,0,4168:0:0:0:0:
448,192,4021,128,0,4168:0:0:0:0:
192,192,4609,128,2,4756:0:0:0:0:
320,192,4609,128,0,4756:0:0:0:0:
64,192,4903,128,0,5344:0:0:0:40:Hat Snare.wav
320,192,4903,128,0,5344:0:0:0:0:
448,192,4903,128,0,5344:0:0:0:0:
192,192,5197,128,0,5491:0:0:0:0:
64,192,5491,128,2,6668:0:0:0:0:
320,192,5491,1,4,0:0:0:0:
448,192,5491,1,0,0:0:0:0:
320,192,5785,128,0,5933:0:0:0:0:
448,192,5785,128,0,5933:0:0:0:0:
320,192,6080,128,8,6374:0:0:0:0:
448,192,6080,128,2,6374:0:0:0:0:
192,192,6374,1,0,0:0:0:60:Hat Open.wav
448,192,6521,1,0,0:0:0:0:
192,192,6668,128,2,7844:0:0:0:0:
320,192,6668,128,0,6962:0:0:0:0:
448,192,6815,1,0,0:0:0:0:
64,192,6962,128,0,7256:0:0:0:60:Hat Open.wav
320,192,7109,1,0,0:0:0:0:
448,192,7256,128,10,7403:0:0:0:0:
320,192,7403,128,0,7550:0:0:0:0:
64,192,7550,128,0,7844:0:0:0:60:Hat Open.wav
320,192,7844,1,2,0:0:0:0:
448,192,7844,128,0,9021:0:0:0:0:
64,192,8138,128,0,8285:0:0:0:60:Hat Open.wav
192,192,8138,128,0,8285:0:0:0:0:
64,192,8433,128,8,8727:0:0:0:0:
192,192,8433,128,2,8727:0:0:0:0:
320,192,8727,1,0,0:0:0:60:Hat Open.wav
64,192,8874,1,0,0:0:0:0:
192,192,9021,128,2,9168:0:0:0:0:
320,192,9021,128,0,10197:0:0:0:0:
64,192,9168,1,8,0:0:0:0:
448,192,9168,1,0,0:0:0:0:
192,192,9315,128,0,9609:0:0:0:60:Hat Open.wav
448,192,9462,1,0,0:0:0:0:
64,192,9609,128,10,9756:0:0:0:0:
192,192,9756,128,0,9903:0:0:0:0:
448,192,9903,128,0,10197:0:0:0:60:Hat Open.wav
64,192,10197,128,2,11374:0:0:0:0:
192,192,10197,1,0,0:0:0:0:
320,192,10491,128,0,10638:0:0:0:60:Hat Open.wav
448,192,10491,128,0,10638:0:0:0:0:
320,192,10785,128,2,11080:0:0:0:0:
448,192,10785,128,8,11080:0:0:0:0:
192,192,11080,1,0,0:0:0:60:Hat Open.wav
448,192,11227,1,0,0:0:0:0:
192,192,11374,128,2,11668:0:0:0:0:
320,192,11374,128,0,12550:0:0:0:0:
64,192,11521,1,0,0:0:0:0:
448,192,11668,128,0,11962:0:0:0:60:Hat Open.wav
192,192,11815,1,0,0:0:0:0:
64,192,11962,128,10,12109:0:0:0:0:
448,192,12109,128,0,12256:0:0:0:0:
192,192,12256,128,0,12550:0:0:0:60:Hat Open.wav
64,192,12550,1,2,0:0:0:0:
448,192,12550,128,0,13580:0:0:0:60:Hat Open.wav
64,192,12844,128,8,12991:0:0:0:0:
192,192,12844,128,0,12991:0:0:0:0:
320,192,12844,1,0,0:0:0:0:
64,192,13138,128,8,13433:0:0:0:0:
192,192,13138,128,0,13433:0:0:0:0:
320,192,13138,1,0,0:0:0:0:
320,192,13433,128,0,13727:0:0:0:0:
192,192,13580,128,8,13727:0:0:0:0:
64,192,13727,128,2,13874:0:0:0:0:
448,192,13727,128,0,13874:0:0:0:0:
192,192,14021,128,2,14168:0:0:0:0:
320,192,14021,128,0,14168:0:0:0:0:
64,192,14315,128,4,14903:0:0:0:0:
320,192,14315,128,8,14462:0:0:0:0:
448,192,14315,128,0,14462:0:0:0:0:
192,192,14903,1,2,0:0:0:0:
320,192,14903,1,4,0:0:0:0:
448,192,14903,1,0,0:0:0:0:
448,192,15197,1,0,0:0:0:0:
192,192,15344,1,0,0:0:0:0:
64,192,15491,1,0,0:0:0:30:Hat Close.wav
448,192,15491,1,0,0:0:0:0:
448,192,15785,1,0,0:0:0:0:
64,192,15933,1,0,0:0:0:0:
192,192,16080,1,0,0:0:0:30:Hat Close.wav
448,192,16080,1,0,0:0:0:0:
320,192,16374,1,0,0:0:0:0:
448,192,16374,1,0,0:0:0:0:
64,192,16668,1,0,0:0:0:30:Hat Close.wav
448,192,16668,1,0,0:0:0:0:
192,192,16962,1,2,0:0:0:0:
448,192,16962,1,0,0:0:0:0:
64,192,17256,1,2,0:0:0:0:
320,192,17256,1,0,0:0:0:0:
64,192,17550,1,0,0:0:0:0:
448,192,17550,1,0,0:0:0:0:
64,192,17844,1,0,0:0:0:30:Hat Close.wav
320,192,17844,1,0,0:0:0:0:
64,192,18138,1,0,0:0:0:15:Hat Close.wav
192,192,18138,1,0,0:0:0:0:
320,192,18285,1,0,0:0:0:15:Hat Close.wav
64,192,18433,1,0,0:0:0:30:Hat Close.wav
448,192,18433,1,0,0:0:0:0:
64,192,18727,1,0,0:0:0:15:Hat Close.wav
320,192,18727,1,0,0:0:0:0:
64,192,19021,1,0,0:0:0:30:Hat Close.wav
64,192,19315,1,2,0:0:0:0:
192,192,19315,1,0,0:0:0:25:Hat Open.wav
320,192,19609,1,2,0:0:0:0:
448,192,19609,1,0,0:0:0:0:
320,192,19903,1,0,0:0:0:0:
192,192,20197,1,0,0:0:0:30:Hat Close.wav
320,192,20197,1,0,0:0:0:0:
64,192,20491,1,2,0:0:0:0:
320,192,20491,1,0,0:0:0:0:
192,192,20785,1,2,0:0:0:0:
448,192,20785,1,0,0:0:0:0:
320,192,20933,1,0,0:0:0:0:
192,192,21080,1,0,0:0:0:0:
192,192,21374,1,0,0:0:0:30:Hat Close.wav
192,192,21668,1,2,0:0:0:0:
448,192,21668,1,0,0:0:0:0:
64,192,21962,1,2,0:0:0:0:
320,192,21962,1,0,0:0:0:0:
64,192,22256,1,0,0:0:0:0:
448,192,22256,1,0,0:0:0:0:
192,192,22550,1,0,0:0:0:0:
448,192,22550,1,0,0:0:0:0:
64,192,22844,1,2,0:0:0:0:
192,192,22844,1,0,0:0:0:40:Hat Open.wav
320,192,22844,1,0,0:0:0:0:
64,192,23433,128,0,23531:0:0:0:30:Hat Close.wav
448,192,23433,128,0,23531:0:0:0:0:
320,192,23531,1,0,0:0:0:30:Hat Close.wav
192,192,23629,1,0,0:0:0:30:Hat Close.wav
64,192,23727,128,0,24168:0:0:0:25:Splash.wav
448,192,23727,128,0,24168:0:0:0:0:
320,192,24021,128,0,24168:0:0:0:0:
192,192,24168,128,0,24315:0:0:0:0:
64,192,24315,128,4,25197:0:0:0:0:
320,192,24315,1,2,0:0:0:0:
448,192,24315,128,0,24756:0:0:0:0:
192,192,24609,1,0,0:0:0:30:Snare.wav
320,192,24756,128,0,24903:0:0:0:0:
192,192,24903,1,2,0:0:0:0:
448,192,24903,128,0,25197:0:0:0:30:Snare.wav
320,192,25197,1,0,0:0:0:30:Snare.wav
192,192,25271,1,0,0:0:0:30:Snare.wav
448,192,25344,1,0,0:0:0:30:Snare.wav
320,192,25418,1,0,0:0:0:30:Snare.wav
64,192,25491,1,2,0:0:0:0:
192,192,25491,128,0,26668:0:0:0:0:
320,192,25687,128,0,25933:0:0:0:30:Snare.wav
448,192,25785,1,0,0:0:0:0:
64,192,25933,128,0,26080:0:0:0:0:
320,192,26080,1,2,0:0:0:0:
448,192,26080,128,0,26374:0:0:0:30:Snare.wav
64,192,26374,128,0,26668:0:0:0:30:Snare.wav
320,192,26668,128,2,27256:0:0:0:0:
448,192,26668,128,0,26962:0:0:0:0:
192,192,26962,128,0,27256:0:0:0:30:Snare.wav
64,192,27256,128,2,27844:0:0:0:0:
448,192,27256,1,0,0:0:0:0:
192,192,27550,128,0,27844:0:0:0:30:Snare.wav
320,192,27550,1,0,0:0:0:0:
320,192,27844,128,2,28285:0:0:0:0:
448,192,27844,128,0,28138:0:0:0:30:Snare.wav
64,192,27991,1,0,0:0:0:30:Snare.wav
192,192,28138,128,0,28285:0:0:0:30:Snare.wav
448,192,28285,1,0,0:0:0:30:Snare.wav
64,192,28433,1,2,0:0:0:0:
192,192,28433,1,0,0:0:0:30:Snare.wav
320,192,28727,1,0,0:0:0:30:Snare.wav
192,192,28800,1,0,0:0:0:0:
448,192,28874,1,0,0:0:0:0:
320,192,28947,1,0,0:0:0:0:
64,192,29021,128,2,29609:0:0:0:0:
192,192,29021,1,0,0:0:0:0:
320,192,29315,1,0,0:0:0:30:Snare.wav
192,192,29462,128,0,29609:0:0:0:0:
320,192,29609,1,2,0:0:0:0:
448,192,29609,128,0,30197:0:0:0:30:Snare.wav
64,192,29903,1,0,0:0:0:30:Snare.wav
320,192,30050,128,0,30197:0:0:0:30:Snare.wav
64,192,30197,1,2,0:0:0:0:
192,192,30197,128,0,30638:0:0:0:0:
320,192,30491,128,0,30785:0:0:0:30:Snare.wav
448,192,30638,128,0,30785:0:0:0:0:
64,192,30785,1,2,0:0:0:0:
192,192,30785,1,0,0:0:0:0:
448,192,31080,128,0,31521:0:0:0:30:Snare.wav
64,192,31374,128,8,31521:0:0:0:0:
192,192,31374,128,0,31815:0:0:0:0:
320,192,31374,128,0,31815:0:0:0:0:
64,192,31668,128,2,32109:0:0:0:0:
448,192,31668,128,0,31815:0:0:0:0:
192,192,31962,128,8,32403:0:0:0:0:
320,192,31962,128,0,32109:0:0:0:0:
448,192,31962,128,0,32109:0:0:0:0:
64,192,32256,128,2,32403:0:0:0:0:
320,192,32256,128,0,32403:0:0:0:60:Hat Open.wav
448,192,32256,128,0,32403:0:0:0:0:
192,192,32844,128,8,32991:0:0:0:0:
320,192,32844,128,0,32991:0:0:0:50:Tom2.wav
64,192,33138,1,8,0:0:0:0:
192,192,33138,128,0,33727:0:0:0:50:Splash.wav
320,192,33138,128,0,33727:0:0:0:0:
448,192,33138,1,0,0:0:0:0:
64,192,33727,1,4,0:0:0:0:
448,192,33727,128,2,34168:0:0:0:0:
320,192,34021,128,0,34315:0:0:0:0:
192,192,34168,128,0,34315:0:0:0:0:
64,192,34315,128,0,34756:0:0:0:30:Hat Close.wav
448,192,34315,128,0,34903:0:0:0:0:
192,192,34609,128,2,34756:0:0:0:0:
320,192,34756,128,0,35050:0:0:0:0:
64,192,34903,128,8,35491:0:0:0:0:
192,192,34903,128,0,35197:0:0:0:30:Hat Close.wav
448,192,35050,128,0,35197:0:0:0:0:
320,192,35197,128,0,36080:0:0:0:0:
192,192,35491,128,0,35638:0:0:0:30:Hat Close.wav
448,192,35638,128,0,35785:0:0:0:0:
64,192,35785,1,2,0:0:0:0:
192,192,35785,128,0,35933:0:0:0:0:
448,192,35933,128,0,36080:0:0:0:0:
64,192,36080,128,2,36521:0:0:0:0:
192,192,36080,1,0,0:0:0:30:Hat Close.wav
448,192,36374,128,0,36668:0:0:0:0:
320,192,36521,128,0,36668:0:0:0:0:
64,192,36668,128,0,37256:0:0:0:30:Hat Close.wav
192,192,36668,128,0,37109:0:0:0:0:
448,192,36962,1,2,0:0:0:0:
320,192,37109,128,0,37403:0:0:0:0:
192,192,37256,128,8,37550:0:0:0:0:
448,192,37256,128,0,37697:0:0:0:30:Hat Close.wav
64,192,37403,128,0,37550:0:0:0:0:
320,192,37550,128,0,37844:0:0:0:0:
192,192,37697,1,2,0:0:0:0:
64,192,37844,1,8,0:0:0:0:
192,192,37844,1,0,0:0:0:60:Hat Open.wav
448,192,37844,1,0,0:0:0:0:
192,192,38138,1,0,0:0:0:50:Tom2.wav
320,192,38138,128,0,38433:0:0:0:0:
64,192,38433,128,4,39462:0:0:0:0:
192,192,38433,1,2,0:0:0:0:
448,192,38433,128,0,38727:0:0:0:0:
320,192,38727,128,0,39021:0:0:0:0:
192,192,39021,128,0,39315:0:0:0:0:
448,192,39315,128,0,39462:0:0:0:0:
192,192,39462,128,0,39535:0:0:0:0:
320,192,39535,128,0,39609:0:0:0:0:
64,192,39609,128,0,39903:0:0:0:0:
448,192,39609,128,0,40638:0:0:0:0:
192,192,39903,128,0,40197:0:0:0:0:
320,192,40197,128,0,40491:0:0:0:0:
64,192,40491,128,0,40638:0:0:0:0:
320,192,40785,1,8,0:0:0:0:
192,192,40785,1,0,0:0:0:50:Tom3.wav
64,192,40785,1,0,0:0:0:0:
64,192,41080,1,8,0:0:0:0:
192,192,41080,1,0,0:0:0:50:Tom3.wav
448,192,41080,1,0,0:0:0:0:
64,192,41374,1,8,0:0:0:0:
192,192,41374,1,0,0:0:0:60:Hat Open.wav
320,192,41374,1,0,0:0:0:0:
448,192,41374,1,0,0:0:0:0:
320,192,41962,128,0,42403:0:0:0:0:
448,192,41962,128,0,42697:0:0:0:0:
64,192,42256,128,0,42991:0:0:0:0:
192,192,42256,128,0,42403:0:0:0:0:
192,192,42550,128,0,42991:0:0:0:0:
320,192,42550,128,0,42697:0:0:0:0:
320,192,42844,128,0,43138:0:0:0:0:
448,192,42844,128,0,42991:0:0:0:0:
64,192,43138,128,2,44609:0:0:0:0:
192,192,43138,1,4,0:0:0:0:
448,192,43138,128,0,43212:0:0:0:0:
448,192,43433,128,0,43506:0:0:0:0:
192,192,43727,1,2,0:0:0:0:
320,192,43727,1,8,0:0:0:0:
448,192,43727,128,0,43800:0:0:0:0:
192,192,44021,128,0,44168:0:0:0:60:Hat Open.wav
448,192,44021,128,0,44094:0:0:0:0:
320,192,44168,128,0,44315:0:0:0:0:
192,192,44315,128,2,44609:0:0:0:0:
448,192,44315,128,0,44388:0:0:0:0:
320,192,44609,128,0,44903:0:0:0:60:Hat Open.wav
448,192,44609,128,0,44683:0:0:0:0:
64,192,44903,128,8,45197:0:0:0:0:
192,192,44903,1,2,0:0:0:0:
448,192,44903,128,0,44977:0:0:0:0:
192,192,45197,128,0,45491:0:0:0:60:Hat Open.wav
448,192,45197,128,0,45271:0:0:0:0:
320,192,45344,128,0,46080:0:0:0:0:
64,192,45491,128,2,45565:0:0:0:0:
448,192,45491,128,0,46668:0:0:0:0:
64,192,45785,128,0,45859:0:0:0:60:Hat Open.wav
64,192,46080,128,8,46153:0:0:0:0:
192,192,46080,1,2,0:0:0:0:
64,192,46374,128,0,46447:0:0:0:60:Hat Open.wav
320,192,46374,128,0,46668:0:0:0:0:
64,192,46668,128,2,46962:0:0:0:0:
192,192,46668,128,0,47256:0:0:0:0:
320,192,46962,128,0,47256:0:0:0:60:Hat Open.wav
448,192,46962,128,0,47035:0:0:0:0:
64,192,47256,128,2,47550:0:0:0:0:
448,192,47256,128,8,47550:0:0:0:0:
192,192,47550,128,0,47624:0:0:0:60:Hat Open.wav
320,192,47550,128,0,47844:0:0:0:0:
448,192,47697,128,0,47844:0:0:0:30:Snare.wav
64,192,47844,128,2,49021:0:0:0:0:
192,192,47844,1,0,0:0:0:0:
320,192,48138,128,0,48285:0:0:0:60:Hat Open.wav
448,192,48138,128,0,48285:0:0:0:0:
192,192,48433,128,8,48580:0:0:0:0:
320,192,48433,1,2,0:0:0:0:
448,192,48433,128,0,48580:0:0:0:0:
192,192,48727,128,0,49021:0:0:0:60:Hat Open.wav
320,192,48727,128,0,48874:0:0:0:0:
320,192,49021,1,2,0:0:0:0:
448,192,49021,128,0,50197:0:0:0:0:
64,192,49315,128,0,49462:0:0:0:60:Hat Open.wav
192,192,49315,128,0,49462:0:0:0:0:
64,192,49609,128,2,49756:0:0:0:0:
192,192,49609,1,8,0:0:0:0:
320,192,49609,128,0,49756:0:0:0:0:
192,192,49903,128,0,50050:0:0:0:60:Hat Open.wav
320,192,49903,128,0,50197:0:0:0:0:
64,192,50197,128,2,51080:0:0:0:0:
192,192,50197,1,0,0:0:0:0:
448,192,50491,128,0,50638:0:0:0:60:Hat Open.wav
320,192,50638,128,0,50785:0:0:0:0:
192,192,50785,128,2,51080:0:0:0:0:
448,192,50785,1,8,0:0:0:0:
320,192,51080,1,0,0:0:0:60:Hat Open.wav
448,192,51080,1,0,0:0:0:0:
192,192,51374,128,2,51521:0:0:0:0:
320,192,51374,128,0,51962:0:0:0:0:
448,192,51521,1,8,0:0:0:0:
64,192,51668,128,0,51815:0:0:0:60:Hat Open.wav
192,192,51668,128,0,51962:0:0:0:0:
64,192,51962,128,10,52403:0:0:0:0:
448,192,51962,128,4,52109:0:0:0:0:
192,192,52256,128,8,52403:0:0:0:0:
448,192,52256,128,0,52403:0:0:0:0:
320,192,52403,1,8,0:0:0:0:
64,192,52550,128,4,52624:0:0:0:0:
192,192,52550,1,2,0:0:0:0:
448,192,52550,128,0,54021:0:0:0:0:
64,192,52844,128,0,52918:0:0:0:60:Hat Open.wav
64,192,53138,128,8,53212:0:0:0:0:
192,192,53138,1,2,0:0:0:0:
320,192,53138,1,0,0:0:0:0:
320,192,53433,128,0,53580:0:0:0:60:Hat Open.wav
64,192,53433,128,0,53506:0:0:0:0:
192,192,53580,128,0,53727:0:0:0:0:
64,192,53727,128,2,53800:0:0:0:0:
320,192,53727,128,0,54021:0:0:0:0:
64,192,54021,128,0,54315:0:0:0:60:Hat Open.wav
192,192,54021,128,0,54094:0:0:0:0:
192,192,54315,1,2,0:0:0:0:
320,192,54315,128,8,54388:0:0:0:0:
448,192,54315,128,0,54609:0:0:0:0:
64,192,54609,128,0,54683:0:0:0:60:Hat Open.wav
320,192,54609,128,0,54903:0:0:0:0:
192,192,54756,128,0,55491:0:0:0:0:
64,192,54903,128,2,55491:0:0:0:0:
448,192,54903,128,0,54977:0:0:0:0:
448,192,55197,128,0,55271:0:0:0:60:Hat Open.wav
320,192,55491,128,2,55565:0:0:0:0:
448,192,55491,128,8,56080:0:0:0:0:
64,192,55785,128,0,55933:0:0:0:60:Hat Open.wav
320,192,55785,128,0,55859:0:0:0:0:
192,192,55933,128,0,56080:0:0:0:0:
64,192,56080,128,2,56374:0:0:0:0:
320,192,56080,128,0,56668:0:0:0:0:
192,192,56374,128,0,56668:0:0:0:60:Hat Open.wav
64,192,56521,1,8,0:0:0:0:
448,192,56521,1,0,0:0:0:0:
64,192,56668,128,8,57109:0:0:0:0:
448,192,56668,128,2,57109:0:0:0:0:
320,192,56815,1,0,0:0:0:50:Tom1.wav
192,192,56962,1,0,0:0:0:50:Tom2.wav
320,192,56962,128,0,57109:0:0:0:0:
192,192,57109,128,0,57256:0:0:0:50:Tom3.wav
64,192,57256,1,4,0:0:0:0:
320,192,57256,1,2,0:0:0:0:
448,192,57256,128,0,58433:0:0:0:0:
64,192,57550,128,0,57697:0:0:0:0:
192,192,57550,128,0,57697:0:0:0:0:
64,192,57844,128,0,57991:0:0:0:0:
320,192,57844,128,0,57991:0:0:0:0:
64,192,58138,1,2,0:0:0:0:
192,192,58138,128,0,58285:0:0:0:0:
320,192,58138,128,0,58433:0:0:0:0:
64,192,58433,128,8,59609:0:0:0:0:
192,192,58433,1,4,0:0:0:0:
320,192,58727,128,0,58874:0:0:0:0:
448,192,58727,128,0,58874:0:0:0:0:
192,192,59021,128,0,59168:0:0:0:0:
448,192,59021,128,0,59168:0:0:0:0:
192,192,59315,128,2,59609:0:0:0:0:
320,192,59315,128,0,59462:0:0:0:0:
448,192,59315,1,0,0:0:0:0:
320,192,59609,1,2,0:0:0:0:
448,192,59609,128,4,60491:0:0:0:0:
64,192,59903,128,0,60050:0:0:0:0:
192,192,60050,128,0,60197:0:0:0:0:
320,192,60197,128,0,60491:0:0:0:60:Hat Open.wav
64,192,60491,1,2,0:0:0:0:
192,192,60491,1,0,0:0:0:0:
192,192,60785,128,8,60933:0:0:0:0:
320,192,60785,128,4,61374:0:0:0:0:
448,192,60785,128,0,61080:0:0:0:0:
64,192,61080,1,8,0:0:0:0:
192,192,61080,128,0,61374:0:0:0:0:
64,192,61227,128,2,61374:0:0:0:0:
448,192,61227,128,0,61521:0:0:0:60:Hat Open.wav
64,192,61521,128,2,61962:0:0:0:0:
192,192,61521,128,4,61815:0:0:0:0:
320,192,61521,128,0,61668:0:0:0:0:
192,192,61962,128,2,62109:0:0:0:0:
320,192,61962,128,4,62109:0:0:0:0:
448,192,61962,1,0,0:0:0:0:
448,192,62256,1,0,0:0:0:0:
192,192,62403,1,0,0:0:0:0:
64,192,62550,1,0,0:0:0:30:Hat Close.wav
448,192,62550,1,0,0:0:0:0:
320,192,62844,128,2,62991:0:0:0:0:
448,192,62844,128,0,62991:0:0:0:0:
192,192,62991,1,0,0:0:0:0:
64,192,63138,128,8,63285:0:0:0:0:
320,192,63138,1,0,0:0:0:30:Hat Close.wav
448,192,63138,128,0,63285:0:0:0:0:
64,192,63433,1,0,0:0:0:0:
192,192,63433,1,0,0:0:0:0:
64,192,63727,1,0,0:0:0:30:Hat Close.wav
320,192,63727,1,0,0:0:0:0:
64,192,64021,128,2,64168:0:0:0:0:
448,192,64021,128,0,64168:0:0:0:0:
192,192,64315,1,2,0:0:0:0:
320,192,64315,128,0,64462:0:0:0:30:Hat Close.wav
448,192,64315,128,0,64462:0:0:0:0:
64,192,64609,1,0,0:0:0:0:
320,192,64609,1,0,0:0:0:0:
192,192,64903,1,0,0:0:0:30:Hat Close.wav
320,192,64903,1,0,0:0:0:0:
320,192,65197,128,2,65344:0:0:0:0:
448,192,65197,128,0,65344:0:0:0:0:
64,192,65491,128,8,65638:0:0:0:0:
192,192,65491,128,0,65638:0:0:0:30:Hat Close.wav
448,192,65491,128,0,65785:0:0:0:0:
320,192,65638,128,0,65785:0:0:0:0:
64,192,65785,1,2,0:0:0:0:
192,192,65785,1,0,0:0:0:0:
64,192,66080,1,8,0:0:0:0:
448,192,66080,1,0,0:0:0:60:Hat Open.wav
320,192,66153,1,0,0:0:0:0:
192,192,66227,1,0,0:0:0:0:
64,192,66300,1,0,0:0:0:0:
448,192,66374,1,0,0:0:0:0:
320,192,66447,1,0,0:0:0:0:
192,192,66521,1,0,0:0:0:0:
64,192,66594,1,0,0:0:0:0:
192,192,66668,1,4,0:0:0:0:
320,192,66668,1,2,0:0:0:0:
448,192,66668,128,0,67109:0:0:0:0:
320,192,66962,1,0,0:0:0:0:
64,192,67109,128,0,67844:0:0:0:0:
192,192,67256,128,2,67697:0:0:0:0:
320,192,67256,128,0,67550:0:0:0:0:
448,192,67256,1,0,0:0:0:0:
448,192,67550,1,0,0:0:0:60:Hat Open.wav
320,192,67697,128,0,67991:0:0:0:0:
192,192,67844,128,2,68285:0:0:0:0:
448,192,67844,128,0,67991:0:0:0:0:
64,192,67991,128,0,68285:0:0:0:0:
320,192,68138,128,0,68433:0:0:0:60:Hat Open.wav
448,192,68138,128,0,69021:0:0:0:0:
64,192,68433,128,2,68874:0:0:0:0:
192,192,68433,128,0,68874:0:0:0:0:
320,192,68727,128,0,69021:0:0:0:0:
64,192,69021,128,2,69168:0:0:0:0:
192,192,69021,128,0,69168:0:0:0:0:
192,192,69315,128,0,69462:0:0:0:0:
320,192,69609,128,0,69756:0:0:0:0:
448,192,69609,128,0,69756:0:0:0:0:
64,192,69903,128,0,70050:0:0:0:0:
448,192,69903,128,0,70050:0:0:0:0:
192,192,70491,128,0,70638:0:0:0:40:Hat Snare.wav
320,192,70491,128,0,70638:0:0:0:0:
64,192,70785,128,0,71227:0:0:0:40:Hat Snare.wav
320,192,70785,128,0,71227:0:0:0:0:
448,192,70785,128,0,71227:0:0:0:0:
192,192,71080,128,0,71374:0:0:0:0:
64,192,71374,1,4,0:0:0:0:
320,192,71374,1,2,0:0:0:0:
448,192,71374,128,0,72550:0:0:0:0:
64,192,71668,128,0,71815:0:0:0:0:
192,192,71668,128,0,71815:0:0:0:0:
64,192,71962,128,2,72256:0:0:0:0:
192,192,71962,128,8,72256:0:0:0:0:
320,192,72256,1,0,0:0:0:60:Hat Open.wav
64,192,72403,1,0,0:0:0:0:
192,192,72550,128,2,72844:0:0:0:0:
320,192,72550,128,0,73727:0:0:0:0:
64,192,72697,1,0,0:0:0:0:
448,192,72844,128,0,73138:0:0:0:60:Hat Open.wav
192,192,72991,1,0,0:0:0:0:
64,192,73138,128,10,73285:0:0:0:0:
192,192,73285,128,0,73433:0:0:0:0:
448,192,73433,128,0,73727:0:0:0:60:Hat Open.wav
64,192,73727,128,2,74903:0:0:0:0:
192,192,73727,1,0,0:0:0:0:
320,192,74021,128,0,74168:0:0:0:60:Hat Open.wav
448,192,74021,128,0,74168:0:0:0:0:
320,192,74315,128,8,74609:0:0:0:0:
448,192,74315,128,2,74609:0:0:0:0:
192,192,74609,1,0,0:0:0:60:Hat Open.wav
448,192,74756,1,0,0:0:0:0:
192,192,74903,128,2,75344:0:0:0:0:
320,192,74903,128,0,75197:0:0:0:0:
448,192,75050,1,0,0:0:0:0:
64,192,75197,128,0,75491:0:0:0:60:Hat Open.wav
320,192,75344,1,0,0:0:0:0:
192,192,75491,1,10,0:0:0:0:
448,192,75491,128,4,75638:0:0:0:0:
320,192,75638,128,0,75785:0:0:0:0:
64,192,75785,128,0,76080:0:0:0:60:Hat Open.wav
192,192,75785,1,0,0:0:0:0:
192,192,76080,1,2,0:0:0:0:
320,192,76080,1,4,0:0:0:0:
448,192,76080,128,0,77256:0:0:0:0:
64,192,76374,128,0,76521:0:0:0:60:Hat Open.wav
192,192,76374,128,0,76521:0:0:0:0:
64,192,76668,128,8,76962:0:0:0:0:
192,192,76668,128,2,76962:0:0:0:0:
320,192,76962,1,0,0:0:0:60:Hat Open.wav
64,192,77109,1,0,0:0:0:0:
192,192,77256,128,2,78433:0:0:0:0:
320,192,77256,128,0,77550:0:0:0:0:
448,192,77403,1,0,0:0:0:0:
64,192,77550,128,0,77844:0:0:0:60:Hat Open.wav
320,192,77697,1,0,0:0:0:0:
448,192,77844,128,10,77991:0:0:0:0:
64,192,77991,128,0,78138:0:0:0:0:
320,192,78138,128,0,78433:0:0:0:60:Hat Open.wav
64,192,78433,128,2,79609:0:0:0:0:
448,192,78433,1,0,0:0:0:0:
320,192,78727,128,0,78874:0:0:0:60:Hat Open.wav
448,192,78727,128,0,78874:0:0:0:0:
192,192,79021,1,8,0:0:0:0:
320,192,79021,128,2,79315:0:0:0:0:
448,192,79021,128,4,79315:0:0:0:0:
192,192,79315,128,2,79609:0:0:0:0:
320,192,79609,1,8,0:0:0:0:
448,192,79609,128,2,80050:0:0:0:0:
192,192,79756,1,8,0:0:0:0:
320,192,79756,1,0,0:0:0:0:
64,192,79903,128,2,80050:0:0:0:0:
192,192,79903,128,0,80344:0:0:0:0:
64,192,80197,128,8,80638:0:0:0:0:
320,192,80197,128,4,80344:0:0:0:0:
448,192,80197,128,0,80638:0:0:0:0:
192,192,80491,128,0,80638:0:0:0:0:
320,192,80491,128,0,80638:0:0:0:0:
64,192,80785,128,2,83138:0:0:0:0:
192,192,80785,128,4,80859:0:0:0:0:
320,192,80785,128,0,80859:0:0:0:50:Splash.wav
448,192,80785,128,0,80859:0:0:0:0:
320,192,81374,128,0,81447:0:0:0:0:
192,192,81815,128,0,81888:0:0:0:0:
448,192,82256,128,0,82330:0:0:0:0:
192,192,82550,128,0,82624:0:0:0:0:
320,192,82844,128,0,82918:0:0:0:0:
192,192,82991,1,0,0:0:0:0:
320,192,83138,128,0,83212:0:0:0:0:
448,192,83138,128,0,84977:0:0:0:0:
64,192,83727,128,0,83800:0:0:0:0:
192,192,84168,128,0,84241:0:0:0:0:
64,192,84462,1,0,0:0:0:0:
320,192,84609,128,0,84683:0:0:0:0:
64,192,84903,128,0,84977:0:0:0:0:
192,192,84903,128,0,84977:0:0:0:0:
320,192,85197,128,0,85271:0:0:0:0:
192,192,85344,1,0,0:0:0:0:
448,192,85491,128,0,85565:0:0:0:0:
64,192,85589,1,0,0:0:0:0:
192,192,85638,1,0,0:0:0:0:
320,192,85736,128,0,87844:0:0:0:0:
448,192,85736,128,0,87844:0:0:0:0:
