osu file format v14

[General]
AudioFilename: audio.mp3
AudioLeadIn: 0
PreviewTime: 188224
Countdown: 0
SampleSet: Soft
StackLeniency: 0.4
Mode: 0
LetterboxInBreaks: 0
WidescreenStoryboard: 1

[Editor]
Bookmarks: 39115,114359
DistanceSpacing: 0.7
BeatDivisor: 4
GridSize: 32
TimelineZoom: 2.999999

[Metadata]
Title:Careless
TitleUnicode:ケアレス
Artist:ClariS
ArtistUnicode:ClariS
Creator:Boppin
Version:Resolute
Source:マギアレコード 魔法少女まどか☆マギカ外伝 2nd SEASON -覚醒前夜-
Tags:Magia Record: Puella Magi Madoka*Magica Side Story Kakusei zenya magiarekodo mahou shoujo gaiden op opening japanese jpop j-pop pop anime クラリス Clara クララ Karen カレン 湯浅篤 Atsushi Yuasa 渡辺翔 full version
BeatmapID:3794452
BeatmapSetID:1847155

[Difficulty]
HPDrainRate:5.5
CircleSize:4
OverallDifficulty:8.6
ApproachRate:9.3
SliderMultiplier:2
SliderTickRate:1

[Events]
//Background and Video events
0,0,"92100281_p0.jpg",0,0
//Break Periods
//Storyboard Layer 0 (Background)
//Storyboard Layer 1 (Fail)
//Storyboard Layer 2 (Pass)
//Storyboard Layer 3 (Foreground)
//Storyboard Layer 4 (Overlay)
//Storyboard Sound Samples

[TimingPoints]
187,324.324324324324,4,2,1,35,1,0
187,-100,4,2,1,35,0,0
2781,-100,4,2,1,45,0,0
4646,-100,4,2,1,5,0,0
4727,-100,4,2,1,50,0,0
4889,-100,4,2,1,70,0,0
5214,-83.3333333333333,4,2,1,75,0,0
10808,-83.3333333333333,4,2,1,5,0,0
10889,-83.3333333333333,4,2,1,75,0,0
12105,-83.3333333333333,4,2,1,5,0,0
12186,-83.3333333333333,4,2,1,75,0,0
13403,-83.3333333333333,4,2,1,5,0,0
13484,-83.3333333333333,4,2,1,75,0,0
15754,-125,4,2,1,40,0,0
16078,-125,4,2,1,50,0,0
16403,-125,4,2,1,60,0,0
16727,-125,4,2,1,70,0,0
17051,-125,4,2,1,80,0,0
17538,-250,4,2,1,35,0,0
18024,-400,4,2,1,40,0,0
18349,-166.666666666667,4,2,1,55,0,0
28241,-500.000000000003,4,2,1,55,0,0
28565,-500.000000000003,4,2,1,5,0,0
28727,-133.333333333333,4,2,1,60,0,0
28970,-133.333333333333,4,2,1,5,0,0
29051,-133.333333333333,4,2,1,60,0,0
37646,-111.111111111111,4,2,1,60,0,0
38132,-249.999999999999,4,2,1,50,0,0
38457,-333.333333333332,4,2,1,45,0,0
38781,-499.999999999997,4,2,1,35,0,0
39105,-499.999999999997,4,2,1,60,0,0
40403,-125,4,2,1,60,0,0
42349,-500,4,2,1,60,0,0
42997,-125,4,2,1,60,0,0
43646,-200,4,2,1,60,0,0
44295,-125,4,2,1,60,0,0
49484,-200,4,2,1,55,0,0
53376,-125,4,2,1,60,0,0
53592,-125,4,2,1,60,0,0
54024,-125,4,2,1,50,0,0
54349,-125,4,2,1,40,0,0
54673,-125,4,2,1,30,0,0
57268,-125,4,2,1,55,0,0
57592,-125,4,2,1,60,0,0
57916,-125,4,2,1,65,0,0
58241,-125,4,2,1,75,0,0
58565,-1000,4,2,1,45,0,0
59214,-71.4285714285714,4,2,1,70,0,0
59457,-71.4285714285714,4,2,1,5,0,0
59538,-166.666666666667,4,2,1,50,0,0
59700,-166.666666666667,4,2,1,55,0,0
59862,-83.3333333333333,4,2,1,80,0,1
60105,-83.3333333333333,4,2,1,5,0,1
60186,-83.3333333333333,4,2,1,80,0,1
61403,-83.3333333333333,4,2,1,5,0,1
61484,-83.3333333333333,4,2,1,80,0,1
61727,-83.3333333333333,4,2,1,5,0,1
61808,-83.3333333333333,4,2,1,80,0,1
63997,-83.3333333333333,4,2,1,5,0,1
64078,-83.3333333333333,4,2,1,80,0,1
64322,-83.3333333333333,4,2,1,5,0,1
64403,-83.3333333333333,4,2,1,80,0,1
64727,-83.3333333333333,4,2,1,70,0,0
65051,-333.333333333334,4,2,1,55,0,0
65376,-83.3333333333333,4,2,1,80,0,1
66592,-83.3333333333333,4,2,1,5,0,1
66673,-83.3333333333333,4,2,1,80,0,1
66916,-83.3333333333333,4,2,1,5,0,1
66997,-83.3333333333333,4,2,1,80,0,1
69186,-83.3333333333333,4,2,1,5,0,1
69267,-83.3333333333333,4,2,1,80,0,1
69511,-83.3333333333333,4,2,1,5,0,1
69592,-83.3333333333333,4,2,1,80,0,1
70484,-83.3333333333333,4,2,1,5,0,1
70565,-83.3333333333333,4,2,1,80,0,1
76970,-83.3333333333333,4,2,1,5,0,1
77051,-83.3333333333333,4,2,1,80,0,1
79322,-125,4,2,1,65,0,0
79808,-333.333333333333,4,2,1,65,0,0
80295,-166.666666666667,4,2,1,65,0,0
80619,-250,4,2,1,40,0,0
83214,-250,4,2,1,50,0,0
87105,-250,4,2,1,45,0,0
87592,-250,4,2,1,55,0,0
90997,-200,4,2,1,55,0,0
92295,-500,4,2,1,55,0,0
93592,-181.818181818182,4,2,1,50,0,0
101376,-181.818181818182,4,2,1,65,0,0
102349,-181.818181818182,4,2,1,75,0,0
102835,-181.818181818182,4,2,1,65,0,0
103484,-400,4,2,1,55,0,0
103970,-133.333333333333,4,2,1,60,0,0
114349,-500,4,2,1,60,0,0
115646,-142.857142857143,4,2,1,60,0,0
116943,-500,4,2,1,60,0,0
118241,-142.857142857143,4,2,1,60,0,0
124727,-200,4,2,1,60,0,0
128619,-125,4,2,1,60,0,0
128835,-125,4,2,1,60,0,0
129267,-125,4,2,1,50,0,0
129592,-125,4,2,1,40,0,0
129916,-125,4,2,1,30,0,0
132511,-125,4,2,1,60,0,0
132835,-125,4,2,1,65,0,0
133160,-125,4,2,1,75,0,0
133484,-1000,4,2,1,80,0,0
133808,-1000,4,2,1,40,0,0
134457,-71.4285714285714,4,2,1,75,0,0
134781,-125,4,2,1,55,0,0
135105,-83.3333333333333,4,2,1,80,0,1
135349,-83.3333333333333,4,2,1,5,0,1
135430,-83.3333333333333,4,2,1,80,0,1
136646,-83.3333333333333,4,2,1,5,0,1
136727,-83.3333333333333,4,2,1,80,0,1
136970,-83.3333333333333,4,2,1,5,0,1
137051,-83.3333333333333,4,2,1,80,0,1
139241,-83.3333333333333,4,2,1,5,0,1
139322,-83.3333333333333,4,2,1,80,0,1
139565,-83.3333333333333,4,2,1,5,0,1
139646,-83.3333333333333,4,2,1,80,0,1
139970,-83.3333333333333,4,2,1,80,0,0
140295,-333.333333333333,4,2,1,60,0,0
140619,-83.3333333333333,4,2,1,80,0,1
141835,-83.3333333333333,4,2,1,5,0,1
141916,-83.3333333333333,4,2,1,80,0,1
142159,-83.3333333333333,4,2,1,5,0,1
142240,-83.3333333333333,4,2,1,80,0,1
144430,-83.3333333333333,4,2,1,5,0,1
144511,-83.3333333333333,4,2,1,80,0,1
144754,-83.3333333333333,4,2,1,5,0,1
144835,-83.3333333333333,4,2,1,80,0,1
145727,-83.3333333333333,4,2,1,5,0,1
145808,-83.3333333333333,4,2,1,80,0,1
152214,-83.3333333333333,4,2,1,5,0,1
152295,-83.3333333333333,4,2,1,80,0,1
153511,-83.3333333333333,4,2,1,5,0,1
153592,-83.3333333333333,4,2,1,80,0,1
155862,-83.3333333333333,4,2,1,50,0,0
157808,-200,4,2,1,65,0,0
158051,-200,4,2,1,5,0,0
158132,-200,4,2,1,55,0,0
158457,-142.857142857143,4,2,1,60,0,0
162997,-142.857142857143,4,2,1,50,0,0
163322,-142.857142857143,4,2,1,40,0,0
163646,-142.857142857143,4,2,1,60,0,0
168511,-400,4,2,1,40,0,0
168835,-181.818181818182,4,2,1,70,0,0
174024,-181.818181818182,4,2,1,55,0,0
174673,-181.818181818182,4,2,1,55,0,0
174997,-181.818181818182,4,2,1,60,0,0
175322,-117.64705882353,4,2,1,65,0,0
176295,-117.64705882353,4,2,1,70,0,0
176619,-117.64705882353,4,2,1,75,0,1
177268,-117.64705882353,4,2,1,80,0,1
177916,-117.64705882353,4,2,1,85,0,1
178565,-117.64705882353,4,2,1,90,0,1
179214,-416.666666666667,4,2,1,65,0,0
181646,-416.666666666667,4,2,1,5,0,0
181808,-416.666666666667,4,2,1,35,0,0
189349,-416.666666666667,4,2,1,5,0,0
189592,-416.666666666667,4,2,1,40,0,0
198673,-416.666666666667,4,2,1,65,0,0
199322,-71.4285714285714,4,2,1,60,0,0
199646,-166.666666666667,4,2,1,40,0,0
199970,-83.3333333333333,4,2,1,80,0,1
200214,-83.3333333333333,4,2,1,5,0,1
200295,-83.3333333333333,4,2,1,80,0,1
201511,-83.3333333333333,4,2,1,5,0,1
201592,-83.3333333333333,4,2,1,80,0,1
201835,-83.3333333333333,4,2,1,5,0,1
201916,-83.3333333333333,4,2,1,80,0,1
204105,-83.3333333333333,4,2,1,5,0,1
204186,-83.3333333333333,4,2,1,80,0,1
204430,-83.3333333333333,4,2,1,5,0,1
204511,-83.3333333333333,4,2,1,80,0,1
204835,-83.3333333333333,4,2,1,80,0,0
205159,-250,4,2,1,65,0,0
205484,-83.3333333333333,4,2,1,80,0,1
206700,-83.3333333333333,4,2,1,5,0,1
206781,-83.3333333333333,4,2,1,80,0,1
207024,-83.3333333333333,4,2,1,5,0,1
207105,-83.3333333333333,4,2,1,80,0,1
209295,-83.3333333333333,4,2,1,5,0,1
209376,-83.3333333333333,4,2,1,80,0,1
209619,-83.3333333333333,4,2,1,5,0,1
209700,-83.3333333333333,4,2,1,80,0,1
214565,-83.3333333333333,4,2,1,75,0,1
214889,-83.3333333333333,4,2,1,70,0,1
215214,-83.3333333333333,4,2,1,65,0,1
215538,-83.3333333333333,4,2,1,80,0,1
215781,-83.3333333333333,4,2,1,5,0,1
215862,-83.3333333333333,4,2,1,80,0,1
217078,-83.3333333333333,4,2,1,5,0,1
217159,-83.3333333333333,4,2,1,80,0,1
218132,-83.3333333333333,4,2,1,65,0,0
218781,-83.3333333333333,4,2,1,75,0,0
219430,-166.666666666667,4,2,1,60,0,0
220727,-166.666666666667,4,2,1,35,0,0
222673,-166.666666666667,4,2,1,55,0,0
222997,-166.666666666667,4,2,1,65,0,0
223322,-83.3333333333333,4,2,1,80,0,0
223565,-83.3333333333333,4,2,1,5,0,0
223646,-83.3333333333333,4,2,1,80,0,0
226159,-83.3333333333333,4,2,1,5,0,0
226240,-83.3333333333333,4,2,1,80,0,0
231349,-83.3333333333333,4,2,1,5,0,0
231430,-83.3333333333333,4,2,1,80,0,0
233700,-83.3333333333333,4,2,1,80,0,1
238565,-333.333333333333,4,2,1,80,0,0
238889,-333.333333333333,4,2,1,50,0,1
239862,-333.333333333333,4,2,1,65,0,1
240835,-333.333333333333,4,2,1,70,0,1
241159,-333.333333333333,4,2,1,75,0,1
241484,-333.333333333333,4,2,1,75,0,1
242295,-333.333333333333,4,2,1,85,0,1
242619,-333.333333333333,4,2,1,85,0,0
244078,-333.333333333333,4,2,1,55,0,0
248619,-333.333333333333,4,2,1,60,0,0
248781,-333.333333333333,4,2,1,65,0,0
248943,-333.333333333333,4,2,1,70,0,0
249105,-333.333333333333,4,2,1,75,0,0

[Colours]
Combo1 : 235,235,169
Combo2 : 255,202,202
Combo3 : 186,232,140

[HitObjects]
421,356,187,5,2,0:2:0:0:
466,344,349,1,0,0:2:0:0:
468,296,511,1,2,0:2:0:0:
424,279,673,1,0,0:2:0:0:
393,315,835,1,2,0:2:0:0:
248,377,1159,5,2,0:2:0:0:
273,304,1322,1,0,0:2:0:0:
268,297,1484,1,2,0:2:0:0:
242,370,1647,1,0,0:2:0:0:
95,273,1970,5,2,0:2:0:0:
50,261,2132,1,2,0:2:0:0:
48,213,2294,1,0,0:2:0:0:
92,196,2456,1,2,0:2:0:0:
123,232,2618,1,0,0:2:0:0:
232,142,2781,5,2,0:2:0:0:
304,122,2943,1,0,0:2:0:0:
308,47,3105,1,2,0:2:0:0:
238,20,3268,1,0,0:2:0:0:
191,79,3430,1,2,0:2:0:0:
428,364,3754,5,2,0:2:0:0:
470,238,3916,1,0,0:2:0:0:
463,229,4078,1,2,0:2:0:0:
421,354,4241,1,2,0:2:0:0:
247,375,4565,6,0,L|259:322,1,50,2|0,0:2|0:2,0:2:0:0:
218,263,4727,1,10,0:2:0:0:
315,192,4889,1,10,0:3:0:0:
201,46,5051,1,6,0:3:0:0:
0,85,5214,6,0,B|16:106|16:106|127:109|229:182,1,239.999992675781,6|0,1:2|1:2,0:2:0:0:
434,17,5700,2,0,P|367:20|352:80,1,119.999996337891,8|0,0:2|0:2,0:2:0:0:
345,366,6024,5,2,1:2:0:0:
388,290,6186,1,0,1:2:0:0:
293,151,6349,1,8,0:2:0:0:
19,373,6511,6,0,P|73:333|244:283,1,239.999992675781,6|0,1:2|1:2,0:2:0:0:
447,211,6997,2,0,P|466:137|482:83,1,119.999996337891,8|0,0:2|0:2,0:2:0:0:
316,237,7322,5,2,1:2:0:0:
208,115,7484,1,8,0:2:0:0:
341,4,7646,1,8,0:2:0:0:
68,123,7808,6,0,P|95:219|130:362,1,239.999992675781,6|0,1:2|1:2,0:2:0:0:
380,378,8295,2,0,P|432:339|408:285,1,119.999996337891,8|0,0:2|0:2,0:2:0:0:
409,19,8619,5,2,1:2:0:0:
467,71,8781,1,8,0:3:0:0:
427,139,8943,1,4,0:3:0:0:
228,48,9105,6,0,B|98:84|221:183|46:210,1,239.999992675781,6|0,1:2|1:2,0:2:0:0:
8,159,9592,1,8,0:2:0:0:
271,157,9754,2,0,P|189:122|40:83,1,239.999992675781,6|0,1:2|1:2,0:2:0:0:
361,21,10241,5,10,0:2:0:0:
411,8,10322,1,2,0:2:0:0:
453,39,10403,1,2,0:2:0:0:
455,91,10484,1,2,0:2:0:0:
418,124,10565,6,0,P|402:196|377:318,1,179.999994506836,2|0,1:2|0:2,0:2:0:0:
425,364,10889,2,0,P|493:359|498:304,1,119.999996337891,8|0,0:2|0:2,0:2:0:0:
251,318,11214,5,2,0:2:0:0:
194,381,11376,1,0,1:2:0:0:
85,322,11538,2,0,P|66:257|50:202,1,119.999996337891,8|0,0:2|0:2,0:2:0:0:
295,22,11862,6,0,P|278:79|245:203,1,179.999994506836,2|0,1:2|0:0,0:2:0:0:
305,252,12186,1,8,0:2:0:0:
468,102,12349,2,0,P|400:126|350:144,1,119.999996337891,0|0,1:2|0:2,0:2:0:0:
188,30,12673,1,0,1:2:0:0:
67,212,12835,2,0,P|135:236|185:254,1,119.999996337891,8|0,0:2|0:2,0:2:0:0:
468,380,13159,6,4,B|519:326|519:326|477:228,1,179.999994506836,6|0,1:2|0:2,1:2:0:0:
411,277,13484,1,8,0:2:0:0:
249,159,13646,6,2,P|261:100|273:41,1,119.999996337891,2|0,0:2|0:0,0:2:0:0:
363,95,13970,1,2,1:2:0:0:
153,206,14132,1,10,0:2:0:0:
258,318,14295,1,10,0:3:0:0:
131,379,14457,5,2,1:2:0:0:
332,190,14619,2,0,B|405:213|405:213|424:295|424:295|515:322,1,239.999992675781,14|8,0:2|0:3,0:2:0:0:
493,232,15024,1,4,0:3:0:0:
491,225,15105,1,10,0:2:0:0:
315,101,15268,5,8,0:3:0:0:
247,61,15430,1,8,0:3:0:0:
206,125,15592,1,4,0:3:0:0:
0,224,15754,6,0,L|55:240,2,53.3333333333333,6|2|2,1:2|1:2|1:2,0:2:0:0:
82,354,16078,2,0,L|137:338,2,53.3333333333333,2|10|10,0:2|0:2|0:2,0:2:0:0:
247,249,16403,5,10,0:3:0:0:
276,218,16511,1,10,0:3:0:0:
317,228,16619,1,10,0:3:0:0:
346,295,16727,5,6,0:3:0:0:
382,338,16835,1,6,0:3:0:0:
436,311,16943,1,6,0:3:0:0:
404,229,17051,5,10,0:2:0:0:
265,341,17214,1,10,0:2:0:0:
265,341,17538,6,0,L|270:362,2,13.3333333333333,2|2|2,0:2|0:0|0:0,0:2:0:0:
251,357,18024,6,0,L|263:314,1,37.5,2|0,0:2|0:2,0:2:0:0:
220,259,18349,6,0,L|155:235,1,59.9999981689454,6|0,0:2|0:2,0:2:0:0:
130,167,18673,2,0,L|65:191,1,59.9999981689454,0|0,0:2|0:2,0:2:0:0:
194,114,18997,5,2,0:2:0:0:
199,98,19159,1,0,0:2:0:0:
267,55,19322,1,2,0:2:0:0:
272,71,19484,1,0,0:2:0:0:
332,122,19646,5,2,0:2:0:0:
386,69,19808,1,0,0:2:0:0:
481,149,19970,1,2,0:2:0:0:
425,201,20132,2,0,P|418:242|403:324,1,119.999996337891,2|0,0:2|0:2,0:2:0:0:
333,353,20619,2,0,L|269:373,1,59.9999981689454,2|0,0:2|1:2,0:2:0:0:
193,281,20943,6,0,L|115:258,1,59.9999981689454,2|0,1:2|0:2,0:2:0:0:
68,302,21268,1,2,0:2:0:0:
64,288,21430,1,0,0:2:0:0:
8,232,21592,1,2,0:2:0:0:
12,218,21754,1,0,0:2:0:0:
69,167,21916,6,0,L|55:106,1,59.9999981689454,2|0,0:2|0:2,0:2:0:0:
212,0,22241,2,0,L|184:121,1,119.999996337891,2|0,0:2|0:2,0:2:0:0:
244,227,22727,5,2,0:2:0:0:
290,197,22889,1,2,0:2:0:0:
282,118,23051,1,2,0:2:0:0:
371,24,23214,2,0,L|394:85,1,59.9999981689454,2|0,0:2|1:2,0:2:0:0:
502,191,23538,5,2,0:2:0:0:
471,260,23700,1,0,0:2:0:0:
412,190,23862,1,2,0:2:0:0:
402,173,24024,1,0,0:2:0:0:
463,122,24186,1,2,0:2:0:0:
472,108,24349,1,0,0:2:0:0:
382,267,24511,5,2,0:2:0:0:
322,216,24673,1,2,0:2:0:0:
322,216,24754,1,2,0:2:0:0:
322,216,24835,2,0,L|203:249,1,119.999996337891,2|0,0:2|0:2,0:2:0:0:
161,314,25322,1,0,0:2:0:0:
74,233,25484,5,2,0:2:0:0:
113,164,25646,1,0,0:2:0:0:
53,119,25808,2,0,P|45:84|38:54,1,59.9999981689454,2|0,0:2|1:2,0:2:0:0:
209,15,26132,6,0,P|279:24|311:72,1,119.999996337891,6|0,1:2|0:2,0:2:0:0:
307,60,26619,1,0,0:2:0:0:
266,127,26781,1,2,0:2:0:0:
333,200,26943,1,0,0:2:0:0:
384,129,27105,5,2,0:2:0:0:
250,210,27268,1,0,0:2:0:0:
188,85,27430,5,2,0:2:0:0:
410,238,27592,1,2,0:2:0:0:
318,295,27754,5,2,0:2:0:0:
473,104,27916,1,10,0:2:0:0:
469,94,27997,1,8,0:2:0:0:
465,85,28078,1,10,0:2:0:0:
291,3,28241,6,0,L|302:49,1,40,2|0,1:2|0:2,0:2:0:0:
190,230,28727,6,0,P|161:191|94:198,1,112.500004291535,2|0,1:2|0:2,0:2:0:0:
45,245,29051,2,0,L|66:323,1,75.0000028610231,8|0,0:2|0:2,0:2:0:0:
193,323,29376,5,2,0:2:0:0:
257,365,29538,1,0,1:2:0:0:
327,300,29700,1,10,0:2:0:0:
314,224,29862,1,0,0:2:0:0:
389,161,30024,5,2,1:2:0:0:
453,206,30186,1,0,0:2:0:0:
388,15,30349,1,10,0:2:0:0:
343,77,30511,2,0,P|291:96|196:131,1,150.000005722046,2|0,0:2|1:2,0:2:0:0:
72,41,30997,2,0,L|-5:16,1,75.0000028610231,8|0,0:2|1:2,0:2:0:0:
159,13,31322,5,2,1:2:0:0:
137,86,31484,1,0,0:2:0:0:
43,159,31646,1,10,0:2:0:0:
22,231,31808,1,0,0:2:0:0:
101,322,31970,5,2,0:2:0:0:
174,270,32132,1,0,1:2:0:0:
254,311,32295,2,0,L|237:388,1,75.0000028610231,10|0,0:2|0:2,0:2:0:0:
481,258,32619,2,0,L|440:109,1,150.000005722046,2|8,1:2|0:2,0:2:0:0:
318,59,33105,5,2,0:2:0:0:
254,108,33268,1,2,0:2:0:0:
256,114,33349,1,8,0:2:0:0:
258,120,33430,1,0,1:2:0:0:
343,135,33592,1,10,0:2:0:0:
243,34,33754,1,0,1:2:0:0:
474,3,33916,6,0,L|441:154,1,150.000005722046,6|8,1:2|0:2,0:2:0:0:
512,268,34403,2,0,P|463:255|409:332,1,150.000005722046,2|0,0:2|1:2,0:2:0:0:
312,373,34889,1,10,0:2:0:0:
249,331,35051,1,0,0:2:0:0:
61,384,35214,6,0,L|94:235,1,150.000005722046,2|8,1:2|0:2,0:2:0:0:
3,21,35700,2,0,B|54:41|54:41|63:84|63:84|116:103,1,150.000005722046,2|0,0:2|1:2,0:2:0:0:
247,15,36186,2,0,L|269:91,1,75.0000028610231,10|0,0:2|1:2,0:2:0:0:
218,254,36511,5,6,0:2:0:0:
299,205,36673,1,2,0:2:0:0:
179,179,36835,1,10,0:2:0:0:
347,279,36997,1,2,0:2:0:0:
153,315,37159,5,2,1:2:0:0:
366,141,37322,1,8,0:3:0:0:
134,83,37484,1,6,0:3:0:0:
308,373,37646,2,0,P|347:331|474:312,1,179.999994506836,6|0,1:2|0:2,0:2:0:0:
509,31,38132,6,0,L|514:52,5,13.3333333333333,2|2|2|2|2|2,0:2|0:2|0:2|0:2|0:2|0:2,0:2:0:0:
445,80,38457,2,0,L|435:88,5,9.99999969482423,2|2|2|2|2|2,0:2|0:2|0:2|0:2|0:2|0:2,0:2:0:0:
388,26,38781,2,0,L|377:22,5,6.66666666666667,2|2|2|2|2|2,0:2|0:2|0:2|0:2|0:2|0:2,0:2:0:0:
305,83,39105,5,2,1:2:0:0:
342,225,39268,1,2,0:2:0:0:
190,113,39430,1,2,1:2:0:0:
227,255,39593,1,2,0:2:0:0:
267,170,39754,2,0,L|263:188,4,10,2|2|2|2|2,0:2|0:2|0:2|0:2|1:2,0:2:0:0:
52,312,40241,5,8,0:2:0:0:
52,312,40322,1,8,0:2:0:0:
52,312,40403,2,0,P|114:303|165:377,1,160,2|0,1:2|1:2,0:2:0:0:
295,252,40889,2,0,L|335:92,1,160,10|0,0:2|1:2,0:2:0:0:
224,28,41376,1,2,1:2:0:0:
156,70,41538,1,8,0:3:0:0:
478,218,41700,5,6,1:2:0:0:
512,75,41862,1,2,0:2:0:0:
355,182,42024,1,2,1:2:0:0:
390,39,42186,1,2,0:2:0:0:
432,131,42349,2,0,L|427:113,4,10,2|2|2|2|2,0:2|0:2|0:2|0:2|1:2,0:2:0:0:
492,360,42835,5,8,0:2:0:0:
492,360,42916,1,8,0:2:0:0:
492,360,42997,2,0,P|440:308|336:322,1,160,2|0,0:2|1:2,0:2:0:0:
309,368,43484,1,12,0:2:0:0:
231,313,43646,5,2,1:2:0:0:
231,313,43754,2,0,L|240:279,1,33.3333333333333,2|2,0:2|0:2,0:2:0:0:
150,371,43970,1,2,1:2:0:0:
150,371,44078,2,0,L|141:337,1,33.3333333333333,0|2,0:2|0:2,0:2:0:0:
0,173,44295,6,0,P|41:249|109:230,1,160,6|0,0:2|1:2,0:2:0:0:
141,171,44781,1,0,0:2:0:0:
35,19,44943,2,0,L|61:95,1,80,2|8,1:2|0:2,0:2:0:0:
144,29,45268,1,2,1:2:0:0:
210,90,45430,1,8,0:3:0:0:
210,90,45511,1,8,0:3:0:0:
210,90,45592,6,0,P|243:64|295:70,1,80,2|0,1:2|0:0,0:2:0:0:
337,14,45916,1,0,1:2:0:0:
481,127,46078,2,0,L|453:223,1,80,6|0,0:2|1:2,0:2:0:0:
310,299,46403,1,8,0:3:0:0:
348,367,46565,1,0,1:2:0:0:
395,304,46727,1,4,0:3:0:0:
395,304,46808,1,4,0:3:0:0:
395,304,46889,6,0,L|474:332,1,80,2|0,1:2|0:0,0:2:0:0:
297,216,47214,1,2,1:2:0:0:
199,288,47376,2,0,L|184:366,1,80,12|0,0:2|1:2,0:2:0:0:
103,256,47700,1,8,0:2:0:0:
217,140,47862,5,2,1:2:0:0:
195,67,48024,1,8,0:3:0:0:
133,138,48186,5,2,1:2:0:0:
295,48,48349,1,8,0:2:0:0:
113,9,48511,1,10,0:2:0:0:
66,72,48673,1,2,1:2:0:0:
173,210,48835,5,10,0:2:0:0:
329,122,48997,1,8,0:2:0:0:
408,229,49159,5,8,0:3:0:0:
469,282,49322,1,4,0:3:0:0:
342,384,49484,6,2,B|344:183|528:334|510:116,1,350,2|0,0:1|0:1,0:1:0:0:
511,118,50781,5,4,0:2:0:0:
343,384,51430,1,4,0:2:0:0:
294,110,52078,5,2,1:2:0:0:
163,203,52322,1,2,0:2:0:0:
310,269,52565,1,2,0:2:0:0:
347,185,52727,5,10,0:2:0:0:
217,279,52970,1,2,0:2:0:0:
200,118,53214,1,2,0:2:0:0:
256,192,53376,5,6,0:2:0:0:
399,23,53592,5,8,0:2:0:0:
448,0,53700,1,8,0:2:0:0:
496,25,53808,1,8,0:2:0:0:
503,79,53916,1,8,0:2:0:0:
433,103,54024,5,8,0:3:0:0:
398,110,54132,1,8,0:3:0:0:
387,141,54241,1,8,0:3:0:0:
378,157,54349,5,4,0:3:0:0:
379,169,54457,1,4,0:3:0:0:
387,178,54565,1,4,0:3:0:0:
425,243,54673,5,2,0:2:0:0:
399,310,55970,1,2,0:2:0:0:
0,11,57268,6,0,B|8:26|8:26|61:27|117:57,1,120,4|0,1:2|0:2,0:2:0:0:
114,43,57592,1,2,1:2:0:0:
131,36,57673,1,0,3:2:0:0:
151,38,57754,1,2,3:2:0:0:
174,54,57835,1,0,3:2:0:0:
181,87,57916,1,2,1:2:0:0:
164,126,57997,1,0,3:2:0:0:
123,138,58078,1,2,3:2:0:0:
86,117,58159,1,0,3:2:0:0:
38,129,58241,1,10,1:2:0:0:
14,174,58322,1,8,0:2:0:0:
25,228,58403,1,10,0:2:0:0:
81,250,58484,1,8,0:2:0:0:
124,216,58565,6,0,L|114:183,1,35,2|0,0:2|0:0,0:2:0:0:
42,50,59214,2,0,L|2:263,1,209.999993591309,2|0,0:2|0:2,0:2:0:0:
74,295,59538,2,0,B|83:319,5,19.9999993896485,2|2|2|2|2|0,0:2|0:2|0:2|0:2|0:2|0:0,0:2:0:0:
286,182,59862,6,0,B|391:196|319:266|423:289,1,179.999994506836,6|0,1:2|0:2,0:2:0:0:
467,228,60186,1,10,0:2:0:0:
273,286,60349,1,2,0:2:0:0:
402,144,60511,2,0,P|387:81|374:27,1,119.999996337891,2|0,1:2|1:2,0:2:0:0:
499,130,60835,1,8,0:2:0:0:
357,233,60997,1,2,0:2:0:0:
228,96,61159,6,0,B|170:121|170:121|160:177|160:177|93:205,1,179.999994506836,2|0,1:2|0:2,0:2:0:0:
0,252,61484,2,0,B|58:277|58:277|68:333|68:333|135:361,1,179.999994506836,10|0,0:2|0:2,0:2:0:0:
183,301,61808,1,2,1:2:0:0:
97,191,61970,1,2,0:2:0:0:
327,45,62132,2,0,P|309:118|300:165,1,119.999996337891,10|0,0:2|0:2,0:2:0:0:
424,364,62457,5,2,1:2:0:0:
372,280,62619,1,0,0:2:0:0:
298,364,62781,1,10,0:2:0:0:
486,257,62943,2,0,P|498:187|508:135,1,119.999996337891,2|0,0:2|1:2,0:2:0:0:
446,43,63268,1,0,0:2:0:0:
292,147,63430,2,0,P|349:164|418:187,1,119.999996337891,10|0,0:2|0:2,0:2:0:0:
164,370,63754,6,0,P|72:364|70:281,1,179.999994506836,2|0,1:2|0:2,0:2:0:0:
128,224,64078,2,0,B|237:237|169:299|270:321,1,179.999994506836,10|0,0:2|0:2,0:2:0:0:
351,275,64403,2,0,P|378:326|350:377,1,119.999996337891,2|0,1:2|1:2,0:2:0:0:
44,208,64727,5,10,0:2:0:0:
128,135,64889,1,8,0:3:0:0:
128,135,64970,1,4,0:3:0:0:
128,135,65051,2,2,L|132:118,5,9.99999969482423,2|2|2|2|2|2,0:2|0:2|0:2|0:2|0:2|0:2,0:2:0:0:
7,111,65376,5,10,0:2:0:0:
145,234,65538,1,2,0:2:0:0:
274,67,65700,2,0,P|336:82|490:171,1,239.999992675781,2|8,1:2|0:2,0:2:0:0:
441,19,66186,1,2,0:2:0:0:
286,169,66349,6,0,B|295:263|364:212|379:322,1,179.999994506836,2|0,1:2|0:2,0:2:0:0:
314,371,66673,2,0,P|253:336|141:331,1,179.999994506836,10|0,0:2|0:2,0:2:0:0:
87,378,66997,1,2,1:2:0:0:
215,243,67159,1,2,1:2:0:0:
0,150,67322,2,0,P|33:213|53:261,1,119.999996337891,10|0,0:2|0:2,0:2:0:0:
170,22,67646,6,0,P|108:41|114:99,1,119.999996337891,2|0,1:2|0:0,0:0:0:0:
168,134,67889,1,2,0:0:0:0:
172,142,67970,1,8,0:0:0:0:
334,12,68132,1,2,0:2:0:0:
455,212,68295,5,2,1:2:0:0:
392,97,68457,1,2,1:2:0:0:
236,227,68619,1,10,0:2:0:0:
237,284,68700,1,2,0:2:0:0:
285,317,68781,1,2,1:2:0:0:
339,299,68862,1,2,0:2:0:0:
353,253,68943,6,0,P|258:274|177:337,1,179.999994506836,10|0,0:2|0:2,0:2:0:0:
0,107,69268,2,0,P|95:128|176:191,1,179.999994506836,10|0,0:2|0:2,0:2:0:0:
249,108,69592,5,10,0:3:0:0:
342,152,69754,1,8,0:3:0:0:
409,35,69916,1,6,0:3:0:0:
512,84,70078,1,6,0:3:0:0:
512,84,70159,1,4,0:3:0:0:
512,84,70241,6,0,P|498:156|469:311,1,179.999994506836,4|8,1:2|0:2,0:2:0:0:
497,336,70565,2,0,L|369:370,1,119.999996337891,10|0,0:0|0:0,0:0:0:0:
238,117,70889,5,2,1:2:0:0:
214,310,71051,1,2,1:2:0:0:
153,104,71214,1,10,0:2:0:0:
301,322,71376,1,2,0:2:0:0:
34,383,71538,6,0,P|50:310|62:249,1,119.999996337891,0|0,1:2|0:2,0:2:0:0:
326,39,71862,2,0,P|337:97|350:156,1,119.999996337891,10|0,0:2|0:2,0:2:0:0:
139,81,72186,5,2,1:2:0:0:
284,196,72349,1,2,1:2:0:0:
196,19,72511,1,10,0:2:0:0:
226,257,72673,1,2,0:2:0:0:
0,142,72835,6,0,P|66:154|134:190,1,119.999996337891,6|0,1:2|0:0,0:2:0:0:
318,282,73159,1,10,0:2:0:0:
268,343,73322,1,2,0:2:0:0:
200,173,73484,5,2,1:2:0:0:
398,281,73646,1,2,1:2:0:0:
340,125,73808,1,10,0:2:0:0:
153,296,73970,1,0,1:2:0:0:
0,60,74132,6,0,P|73:65|84:119,1,119.999996337891,6|0,0:2|1:2,0:2:0:0:
33,155,74376,1,2,0:2:0:0:
33,155,74457,1,8,0:2:0:0:
164,53,74619,1,2,1:2:0:0:
280,234,74781,6,8,P|207:229|196:175,1,119.999996337891,14|0,0:2|1:2,0:2:0:0:
247,139,75025,1,2,0:2:0:0:
247,139,75106,1,8,0:2:0:0:
116,241,75268,1,10,1:2:0:0:
373,379,75430,6,0,P|393:285|427:144,1,239.999992675781,2|8,1:2|0:2,0:2:0:0:
260,1,75916,2,0,P|197:24|195:81,1,119.999996337891,2|0,0:2|1:2,0:2:0:0:
330,174,76241,1,2,0:2:0:0:
486,37,76403,2,0,P|407:58|359:71,1,119.999996337891,10|0,0:2|0:2,0:2:0:0:
226,239,76727,6,0,B|127:275|206:320|94:365,1,179.999994506836,2|0,1:2|0:2,0:2:0:0:
41,305,77051,2,0,L|66:183,1,119.999996337891,10|0,0:2|0:2,0:2:0:0:
264,332,77376,1,0,1:2:0:0:
154,172,77538,1,0,1:2:0:0:
352,27,77700,2,0,P|334:104|324:154,1,119.999996337891,10|0,0:2|0:2,0:2:0:0:
409,309,78024,5,2,1:2:0:0:
479,268,78186,1,0,1:2:0:0:
350,249,78349,5,8,0:2:0:0:
486,353,78511,1,8,0:2:0:0:
426,182,78673,5,10,0:2:0:0:
298,363,78835,1,8,0:2:0:0:
234,112,78997,5,8,0:2:0:0:
392,332,79159,1,8,0:2:0:0:
257,261,79322,6,0,P|195:262|162:349,1,160,6|0,1:2|0:2,0:2:0:0:
77,345,79808,2,0,P|63:363|68:342,1,59.9999981689454,8|0,0:3|0:2,0:2:0:0:
20,277,80295,2,0,P|-2:274|18:268,1,59.9999981689454,4|0,0:3|0:2,0:2:0:0:
78,214,80619,5,2,0:2:0:0:
44,148,81916,1,2,0:2:0:0:
401,145,83214,5,2,1:2:0:0:
473,125,83376,1,0,0:2:0:0:
477,50,83538,1,2,1:2:0:0:
407,23,83701,1,0,0:2:0:0:
360,82,83863,1,2,1:2:0:0:
250,370,84186,5,2,1:2:0:0:
278,270,84349,1,2,3:2:0:0:
276,265,84430,1,0,0:0:0:0:
274,260,84511,1,2,1:2:0:0:
244,360,84673,1,0,0:2:0:0:
91,249,84997,5,2,0:2:0:0:
19,229,85159,1,2,1:2:0:0:
15,154,85321,1,0,0:2:0:0:
85,127,85484,1,2,1:2:0:0:
132,186,85646,1,0,0:2:0:0:
266,356,85808,5,2,1:2:0:0:
338,336,85970,1,0,0:2:0:0:
342,261,86132,1,2,1:2:0:0:
272,234,86295,1,0,0:2:0:0:
225,293,86457,1,2,1:2:0:0:
379,132,86781,5,2,1:2:0:0:
413,21,86943,1,0,0:2:0:0:
325,59,87105,5,2,0:2:0:0:
427,211,87268,1,2,0:2:0:0:
427,211,87592,5,2,0:2:0:0:
426,216,87673,1,2,0:2:0:0:
425,221,87754,1,10,0:2:0:0:
370,280,87916,1,10,0:3:0:0:
450,382,88078,1,8,0:3:0:0:
512,330,88241,1,4,0:3:0:0:
510,325,88322,1,4,0:3:0:0:
508,320,88403,5,4,1:2:0:0:
296,212,88619,1,10,0:3:0:0:
358,145,88835,1,4,0:3:0:0:
320,119,88943,1,4,0:3:0:0:
273,126,89051,1,0,1:2:0:0:
132,272,89268,5,8,0:3:0:0:
73,217,89484,1,4,0:3:0:0:
86,197,89592,1,4,0:3:0:0:
110,194,89700,1,6,1:2:0:0:
266,366,89916,5,8,0:2:0:0:
250,334,90024,1,8,0:2:0:0:
217,324,90132,1,8,0:2:0:0:
186,337,90241,1,8,0:2:0:0:
122,378,90349,5,8,0:3:0:0:
114,373,90457,1,8,0:3:0:0:
110,366,90565,1,8,0:3:0:0:
109,358,90673,1,4,0:3:0:0:
111,350,90781,1,4,0:3:0:0:
114,343,90889,1,4,0:3:0:0:
95,242,90997,6,0,B|110:261|110:261|150:263|183:289,1,100,6|0,1:2|0:2,0:2:0:0:
257,273,91484,2,0,P|298:260|302:201,1,100,2|0,0:2|0:2,0:2:0:0:
244,171,91970,1,2,0:2:0:0:
299,117,92132,1,0,3:3:0:0:
301,110,92214,1,0,3:3:0:0:
303,103,92295,6,0,L|283:22,1,80,2|0,0:2|0:0,0:2:0:0:
0,25,93592,6,0,P|63:33|116:73,1,110.000003356934,6|0,1:2|0:2,0:2:0:0:
101,57,94241,2,0,P|118:95|108:125,1,55.0000016784668,8|0,0:2|0:2,0:2:0:0:
68,163,94565,1,0,0:2:0:0:
0,131,94727,1,8,0:2:0:0:
0,278,94889,6,0,P|26:253|99:251,1,110.000003356934,2|0,0:2|0:2,0:2:0:0:
170,206,95376,2,0,P|191:236|262:255,1,110.000003356934,2|0,0:2|0:2,0:2:0:0:
327,333,95862,2,0,L|342:268,1,55.0000016784668,2|0,0:2|0:2,0:2:0:0:
416,233,96105,1,0,3:2:0:0:
410,225,96186,6,0,L|379:117,1,110.000003356934,2|0,1:2|0:2,0:2:0:0:
385,110,96673,1,0,0:2:0:0:
329,41,96835,2,0,L|256:67,1,55.0000016784668,10|0,0:2|0:2,0:2:0:0:
247,135,97159,2,0,L|174:109,1,55.0000016784668,2|8,0:2|0:2,0:2:0:0:
37,13,97484,6,0,B|6:41|6:41|41:113,1,110.000003356934,2|0,0:2|1:2,0:2:0:0:
0,194,97970,2,0,P|47:184|93:226,1,110.000003356934,2|0,0:2|0:2,0:2:0:0:
152,278,98457,2,0,L|135:349,1,55.0000016784668,2|0,0:2|0:2,0:2:0:0:
271,384,98781,6,0,P|322:363|373:344,1,110.000003356934,2|0,1:2|0:2,0:2:0:0:
451,372,99268,1,0,0:2:0:0:
439,292,99430,2,0,L|456:221,1,55.0000016784668,10|0,0:2|0:2,0:2:0:0:
505,179,99754,1,2,0:2:0:0:
465,114,99916,1,2,0:2:0:0:
348,204,100078,6,0,P|297:206|255:258,1,110.000003356934,2|0,0:2|1:2,0:2:0:0:
194,205,100565,1,0,0:2:0:0:
248,144,100727,2,0,L|261:89,2,55.0000016784668,10|0|0,0:2|0:2|0:2,0:2:0:0:
173,128,101214,1,0,0:2:0:0:
6,352,101376,5,2,1:2:0:0:
147,287,101538,1,2,0:2:0:0:
122,362,101700,1,2,0:2:0:0:
48,236,101862,5,10,0:2:0:0:
256,346,102024,1,2,0:2:0:0:
233,250,102186,1,2,0:2:0:0:
365,52,102349,5,2,1:2:0:0:
365,52,102835,5,2,1:2:0:0:
384,161,102997,1,2,1:2:0:0:
406,273,103159,1,2,1:2:0:0:
406,273,103484,2,0,L|353:292,1,50,2|0,0:2|0:2,0:2:0:0:
211,379,103970,5,2,1:2:0:0:
270,280,104132,1,2,0:2:0:0:
168,221,104295,1,10,0:2:0:0:
108,319,104457,1,2,0:2:0:0:
108,319,104781,5,0,1:2:0:0:
259,188,104943,1,10,0:2:0:0:
224,118,105105,1,0,0:2:0:0:
58,250,105268,5,0,1:2:0:0:
94,175,105430,1,2,0:2:0:0:
0,68,105592,1,10,0:2:0:0:
48,7,105754,2,0,L|192:59,1,150.000005722046,2|0,0:2|1:2,0:2:0:0:
244,211,106241,2,0,L|317:183,1,75.0000028610231,10|0,0:2|0:2,0:2:0:0:
445,6,106565,5,2,1:2:0:0:
504,103,106727,1,2,0:2:0:0:
401,163,106890,1,10,0:2:0:0:
342,65,107052,1,2,0:2:0:0:
342,65,107376,5,0,1:2:0:0:
493,192,107538,2,0,L|470:267,1,75.0000028610231,10|0,0:2|0:2,0:2:0:0:
497,341,107862,1,2,1:2:0:0:
366,369,108024,6,0,L|380:328,3,37.5000014305115,2|2|10|2,0:2|0:2|0:2|0:2,0:2:0:0:
302,305,108349,2,0,L|289:269,1,37.5000014305115,2|2,0:2|0:2,0:2:0:0:
229,343,108511,2,0,L|216:378,1,37.5000014305115,2|10,0:2|0:2,0:2:0:0:
158,293,108673,5,2,1:2:0:0:
145,278,108754,1,2,0:2:0:0:
128,268,108835,1,14,0:2:0:0:
109,264,108916,1,2,0:2:0:0:
90,264,108997,1,2,1:2:0:0:
72,269,109078,1,2,0:2:0:0:
56,278,109159,6,0,P|10:274|2:184,1,150.000005722046,6|8,1:2|0:2,0:2:0:0:
0,88,109646,2,0,P|71:108|147:130,1,150.000005722046,2|0,0:2|1:2,0:2:0:0:
208,73,110132,1,8,0:2:0:0:
181,0,110295,1,0,0:2:0:0:
283,159,110457,6,0,P|317:120|414:114,1,150.000005722046,2|8,1:2|0:2,0:2:0:0:
506,249,110943,2,0,B|528:303|528:303|468:388,1,150.000005722046,2|0,0:2|1:2,0:2:0:0:
390,330,111430,1,10,0:2:0:0:
421,257,111592,1,0,1:2:0:0:
260,356,111754,5,6,1:2:0:0:
252,337,111916,1,0,0:2:0:0:
301,274,112078,5,10,0:2:0:0:
221,193,112241,1,0,0:2:0:0:
166,305,112403,5,2,1:2:0:0:
313,176,112565,1,10,0:3:0:0:
144,113,112727,5,6,0:3:0:0:
360,0,112889,2,0,L|398:148,1,150.000005722046,6|0,1:2|0:2,0:2:0:0:
24,293,113376,6,0,L|-2:296,5,25.0000009536744,2|2|2|2|2|2,1:2|0:2|0:2|0:2|0:2|0:2,0:2:0:0:
67,358,113700,2,0,L|56:383,5,25.0000009536744,10|2|2|2|2|2,0:3|0:2|0:2|0:2|0:2|0:2,0:2:0:0:
143,343,114024,2,0,L|159:364,5,25.0000009536744,10|2|2|2|2|2,0:2|0:2|0:2|0:2|0:2|0:2,0:2:0:0:
208,281,114349,5,2,1:2:0:0:
253,143,114512,1,2,0:2:0:0:
88,243,114674,1,2,1:2:0:0:
130,104,114835,1,2,0:2:0:0:
173,194,114997,2,0,L|169:176,4,10,2|2|2|2|2,1:2|0:2|0:2|0:2|1:2,0:2:0:0:
316,366,115484,5,8,0:2:0:0:
316,366,115565,1,8,0:2:0:0:
316,366,115646,2,0,P|350:323|436:328,1,139.999995727539,2|0,1:2|1:2,0:2:0:0:
479,202,116132,2,0,P|462:129|446:62,1,139.999995727539,10|0,0:2|0:2,0:2:0:0:
350,169,116619,1,2,1:2:0:0:
290,217,116781,1,4,0:3:0:0:
129,190,116943,5,6,1:2:0:0:
166,48,117106,1,2,0:2:0:0:
19,158,117268,1,2,1:2:0:0:
56,16,117431,1,2,0:2:0:0:
94,105,117592,2,0,L|90:87,4,10,2|2|2|2|2,1:2|0:2|0:2|0:2|1:2,0:2:0:0:
297,20,118078,5,10,0:2:0:0:
297,20,118159,1,10,0:2:0:0:
297,20,118241,2,0,L|338:164,1,139.999995727539,2|0,1:2|1:2,0:2:0:0:
493,355,118727,1,4,0:2:0:0:
417,276,118889,5,0,1:0:0:0:
417,276,118997,2,0,L|368:261,1,46.6666652425131,2|2,0:2|0:2,0:2:0:0:
330,370,119214,1,0,1:0:0:0:
330,370,119322,2,0,L|285:383,1,46.6666652425131,2|2,0:2|0:2,0:2:0:0:
145,212,119538,6,0,P|90:212|69:293,1,139.999995727539,6|0,1:2|1:2,0:2:0:0:
123,341,120024,1,0,0:2:0:0:
245,258,120186,5,2,1:2:0:0:
217,188,120349,1,8,0:2:0:0:
305,111,120511,1,2,1:2:0:0:
333,41,120674,1,6,0:3:0:0:
330,35,120754,1,4,0:3:0:0:
327,29,120835,6,0,P|290:22|221:94,1,139.999995727539,2|2,1:2|1:2,0:2:0:0:
0,22,121322,2,0,L|78:46,1,69.9999978637696,6|0,0:2|1:2,0:2:0:0:
160,6,121646,1,10,0:3:0:0:
140,79,121808,1,8,0:3:0:0:
120,153,121970,1,6,0:3:0:0:
123,159,122050,1,4,0:3:0:0:
126,165,122132,6,0,L|150:237,1,69.9999978637696,2|0,1:2|0:0,0:2:0:0:
112,304,122457,1,2,1:2:0:0:
0,215,122619,2,0,L|73:238,1,69.9999978637696,6|0,0:2|1:2,0:2:0:0:
177,358,122943,5,8,0:2:0:0:
261,280,123105,1,6,0:3:0:0:
228,210,123268,1,4,0:3:0:0:
329,106,123430,5,2,1:2:0:0:
467,176,123593,1,8,0:2:0:0:
459,22,123754,1,8,0:2:0:0:
419,102,123916,1,0,1:2:0:0:
223,38,124078,5,10,0:2:0:0:
365,224,124241,1,8,0:2:0:0:
97,199,124403,5,4,0:3:0:0:
126,121,124565,1,4,0:3:0:0:
9,364,124727,6,2,B|86:384|132:330|67:264|133:232|222:236|238:291|231:363|164:365,1,350,2|0,0:1|0:1,0:1:0:0:
172,364,126024,5,6,0:2:0:0:
25,164,126673,1,6,0:2:0:0:
310,269,127322,5,6,1:2:0:0:
163,203,127565,1,2,0:2:0:0:
294,110,127808,1,2,0:2:0:0:
346,183,127970,5,10,0:2:0:0:
199,116,128214,1,2,0:2:0:0:
216,277,128457,1,2,0:2:0:0:
256,192,128619,5,4,1:2:0:0:
512,333,128835,5,8,0:2:0:0:
482,296,128943,1,8,0:2:0:0:
435,296,129051,1,8,0:2:0:0:
407,333,129159,1,8,0:2:0:0:
344,376,129268,5,8,0:3:0:0:
328,358,129376,1,8,0:3:0:0:
330,333,129484,1,8,0:3:0:0:
363,264,129592,5,8,0:2:0:0:
332,229,129700,1,8,0:2:0:0:
286,240,129808,1,8,0:2:0:0:
227,184,129916,5,6,0:2:0:0:
258,114,131214,1,2,0:2:0:0:
512,11,132511,6,0,B|504:26|504:26|451:27|395:57,1,120,0|0,1:2|0:2,0:2:0:0:
398,43,132835,1,2,1:2:0:0:
381,36,132916,1,0,3:2:0:0:
361,38,132997,1,2,3:2:0:0:
338,54,133078,1,0,3:2:0:0:
331,87,133159,1,2,1:2:0:0:
348,126,133240,1,0,3:2:0:0:
389,138,133321,1,2,3:2:0:0:
426,117,133402,1,0,3:2:0:0:
474,129,133484,1,10,1:2:0:0:
498,174,133565,1,8,0:2:0:0:
487,228,133646,1,10,0:2:0:0:
431,250,133727,1,8,0:2:0:0:
388,216,133808,6,0,L|398:183,1,35,2|0,0:2|0:0,0:2:0:0:
348,126,134457,2,0,B|319:142|319:142|286:290|286:290|252:301,1,209.999993591309,2|0,0:2|0:2,0:2:0:0:
218,229,134781,2,0,L|192:220,5,26.6666666666667,2|2|2|2|2|0,0:2|0:2|0:2|0:2|0:2|0:0,0:2:0:0:
0,22,135105,6,0,B|15:57|15:57|157:92,1,179.999994506836,2|0,1:2|0:2,0:2:0:0:
205,32,135430,1,10,0:2:0:0:
89,164,135592,1,2,0:2:0:0:
207,322,135754,2,0,P|250:275|320:287,1,119.999996337891,2|0,1:2|1:2,0:2:0:0:
447,282,136078,1,8,0:2:0:0:
399,375,136241,1,2,0:2:0:0:
210,200,136403,6,0,B|198:93|282:145|282:37,1,179.999994506836,2|0,1:2|0:2,0:2:0:0:
217,0,136727,2,0,P|141:8|142:110,1,179.999994506836,10|0,0:2|0:2,0:2:0:0:
210,93,137051,5,2,1:2:0:0:
358,194,137214,1,2,1:2:0:0:
483,30,137376,2,10,P|414:55|363:84,1,119.999996337891,10|0,0:2|0:2,0:2:0:0:
134,243,137700,5,2,1:2:0:0:
205,325,137862,1,2,0:2:0:0:
237,185,138024,1,10,0:2:0:0:
104,368,138186,2,0,P|49:329|-9:332,1,119.999996337891,2|0,0:2|1:2,0:2:0:0:
281,267,138511,1,0,1:2:0:0:
134,149,138673,2,0,P|122:84|111:25,1,119.999996337891,10|0,0:2|0:2,0:2:0:0:
506,11,138997,6,0,P|501:99|411:93,1,179.999994506836,2|0,1:2|0:2,0:2:0:0:
395,33,139322,2,0,P|313:44|313:127,1,179.999994506836,10|0,0:2|0:2,0:2:0:0:
380,172,139646,2,0,P|367:237|355:299,1,119.999996337891,2|0,1:2|1:2,0:2:0:0:
122,285,139970,5,10,0:2:0:0:
188,342,140132,1,8,0:3:0:0:
188,342,140214,1,4,0:3:0:0:
188,342,140295,2,0,L|183:357,5,9.99999969482423,2|2|2|2|2|2,0:2|0:2|0:2|0:2|0:2|0:2,0:2:0:0:
76,373,140619,5,10,0:2:0:0:
220,234,140781,1,2,0:2:0:0:
13,82,140943,2,0,P|12:171|154:157,1,239.999992675781,2|8,1:2|0:2,0:2:0:0:
112,88,141430,1,2,0:2:0:0:
265,25,141592,6,0,B|374:31|303:106|419:131,1,179.999994506836,2|0,1:2|0:2,0:2:0:0:
475,102,141916,2,0,P|508:43|414:8,1,179.999994506836,10|0,0:2|0:2,0:2:0:0:
368,52,142241,5,0,1:2:0:0:
494,178,142403,1,2,1:2:0:0:
355,266,142565,2,0,P|343:334|331:402,1,119.999996337891,10|0,0:2|0:2,0:2:0:0:
8,265,142889,6,0,P|24:206|89:205,1,119.999996337891,2|0,1:2|0:2,0:2:0:0:
117,263,143132,1,2,0:2:0:0:
115,273,143214,1,8,0:2:0:0:
0,179,143376,1,2,0:2:0:0:
166,347,143538,5,2,1:2:0:0:
268,159,143700,1,2,1:2:0:0:
67,6,143862,1,10,0:2:0:0:
55,62,143943,1,2,0:0:0:0:
94,105,144024,1,2,1:2:0:0:
151,100,144105,1,2,0:0:0:0:
180,52,144186,6,0,P|238:20|309:122,1,179.999994506836,10|0,1:2|0:2,0:2:0:0:
512,172,144511,2,0,P|447:159|406:277,1,179.999994506836,10|0,1:2|0:2,0:2:0:0:
351,319,144835,5,6,0:2:0:0:
260,273,144997,1,10,0:3:0:0:
147,367,145159,1,10,0:3:0:0:
63,320,145322,1,6,0:3:0:0:
63,320,145403,1,4,0:3:0:0:
63,320,145484,6,0,P|76:241|98:103,1,179.999994506836,6|0,1:2|0:2,0:2:0:0:
118,55,145808,2,0,L|1:89,1,119.999996337891,8|0,0:0|0:0,0:0:0:0:
201,165,146132,5,2,1:2:0:0:
316,40,146295,1,2,1:2:0:0:
207,5,146457,1,10,0:2:0:0:
315,205,146619,1,2,0:2:0:0:
507,116,146781,6,0,L|383:77,1,119.999996337891,0|0,1:2|0:2,0:2:0:0:
104,309,147105,2,0,L|228:270,1,119.999996337891,10|0,0:2|0:2,0:2:0:0:
388,375,147430,5,2,1:2:0:0:
424,182,147592,1,2,1:2:0:0:
307,322,147754,1,10,0:2:0:0:
504,238,147916,1,2,0:2:0:0:
306,122,148078,6,0,P|286:53|270:5,1,119.999996337891,4|0,1:2|0:0,0:2:0:0:
206,187,148403,1,10,0:2:0:0:
384,38,148565,1,2,0:2:0:0:
192,90,148727,2,0,P|130:67|69:50,1,119.999996337891,2|0,1:2|1:2,0:2:0:0:
335,235,149051,1,10,0:2:0:0:
440,161,149214,1,0,1:2:0:0:
251,265,149376,6,0,P|238:332|227:385,1,119.999996337891,2|0,0:2|1:2,0:2:0:0:
159,346,149619,1,2,0:2:0:0:
162,335,149700,1,8,0:2:0:0:
327,318,149862,1,2,1:2:0:0:
131,243,150024,6,0,P|118:176|107:123,1,119.999996337891,10|0,0:2|1:2,0:2:0:0:
39,162,150267,1,2,0:2:0:0:
42,173,150348,1,8,0:2:0:0:
207,190,150510,1,2,0:2:0:0:
371,4,150673,6,0,P|396:121|424:248,1,239.999992675781,6|8,1:2|0:2,0:2:0:0:
193,106,151159,2,0,P|219:39|274:37,1,119.999996337891,2|0,0:2|1:2,0:2:0:0:
447,152,151484,1,2,0:2:0:0:
321,256,151646,2,0,P|305:332|294:386,1,119.999996337891,10|0,0:2|0:2,0:2:0:0:
48,106,151970,6,0,P|64:182|85:286,1,179.999994506836,2|0,1:2|0:2,0:2:0:0:
142,337,152295,2,0,P|207:319|200:253,1,119.999996337891,10|0,0:2|0:2,0:2:0:0:
349,165,152619,2,0,P|283:147|225:132,1,119.999996337891,2|0,1:2|1:2,0:2:0:0:
397,371,152943,2,0,P|462:353|521:338,1,119.999996337891,10|0,0:2|0:2,0:2:0:0:
158,205,153268,6,0,P|144:127|126:25,1,179.999994506836,6|0,1:2|0:2,0:2:0:0:
208,26,153592,2,0,P|287:45|330:55,1,119.999996337891,8|0,0:2|0:2,0:2:0:0:
510,181,153916,5,2,1:2:0:0:
450,75,154078,1,0,1:2:0:0:
340,175,154241,5,8,0:2:0:0:
300,263,154403,1,0,1:2:0:0:
211,107,154565,5,2,1:2:0:0:
408,282,154727,5,12,0:2:0:0:
322,55,154889,1,12,0:2:0:0:
244,194,155051,5,0,1:2:0:0:
93,142,155214,5,10,0:2:0:0:
115,45,155376,1,8,0:3:0:0:
8,95,155538,5,8,0:3:0:0:
214,40,155700,1,4,0:3:0:0:
217,32,155781,1,4,0:3:0:0:
221,24,155862,5,2,0:2:0:0:
259,89,157159,1,2,0:2:0:0:
481,361,157808,6,0,P|484:335|475:357,1,75,8|0,0:3|0:2,0:2:0:0:
406,309,158132,1,4,0:3:0:0:
365,370,158295,1,4,0:3:0:0:
248,215,158457,5,2,1:2:0:0:
302,157,158619,2,0,L|285:62,1,69.9999978637696,2|0,0:2|1:2,0:2:0:0:
178,24,158943,5,2,0:2:0:0:
135,85,159105,1,2,1:2:0:0:
67,49,159268,2,0,L|-10:31,1,69.9999978637696,2|0,0:2|1:2,0:2:0:0:
167,169,159592,1,2,3:2:0:0:
167,169,159673,1,0,3:2:0:0:
167,169,159754,5,2,1:2:0:0:
64,360,159916,1,2,0:2:0:0:
29,276,160078,1,2,1:2:0:0:
220,368,160241,1,10,0:2:0:0:
294,278,160403,5,2,1:2:0:0:
317,203,160565,1,10,0:3:0:0:
393,214,160727,1,6,0:3:0:0:
416,142,160889,1,2,0:2:0:0:
416,142,160970,1,2,0:2:0:0:
416,142,161051,5,2,1:2:0:0:
366,77,161214,2,0,L|285:99,1,69.9999978637696,2|0,0:2|1:2,0:2:0:0:
107,16,161538,5,2,0:2:0:0:
71,81,161700,1,2,1:2:0:0:
131,129,161862,2,0,L|147:202,1,69.9999978637696,2|0,0:2|1:2,0:2:0:0:
98,263,162186,1,8,0:2:0:0:
224,161,162349,1,2,1:2:0:0:
301,220,162511,6,0,L|293:189,8,23.3333326212565,2|2|2|2|2|2|2|2|2,0:2|0:2|0:2|0:2|0:2|0:2|0:2|0:2|0:2,0:2:0:0:
375,179,162997,2,0,L|380:156,5,23.3333326212565,2|2|2|2|2|2,0:2|0:2|0:2|0:2|0:2|0:2,0:2:0:0:
439,227,163322,2,0,L|444:249,3,23.3333326212565,2|2|2|2,0:2|0:2|0:2|0:2,0:2:0:0:
188,323,163646,5,2,1:2:0:0:
279,359,163808,1,2,0:2:0:0:
226,277,163970,1,2,1:2:0:0:
223,374,164132,1,2,0:2:0:0:
282,299,164294,1,2,1:2:0:0:
16,172,164619,5,2,1:2:0:0:
153,233,164781,1,8,0:2:0:0:
149,221,164943,1,2,1:2:0:0:
14,295,165105,1,2,0:2:0:0:
212,165,165268,5,2,1:2:0:0:
179,86,165430,1,8,0:2:0:0:
324,224,165592,5,2,1:2:0:0:
274,300,165754,1,10,0:2:0:0:
426,356,165916,5,2,1:2:0:0:
393,281,166078,1,2,0:2:0:0:
393,281,166159,1,2,0:2:0:0:
393,281,166241,5,2,1:2:0:0:
242,72,166403,1,2,0:2:0:0:
481,147,166565,1,2,1:2:0:0:
242,221,166727,1,2,0:2:0:0:
393,27,166889,1,2,1:2:0:0:
103,360,167214,5,2,1:2:0:0:
323,236,167376,1,10,0:2:0:0:
362,168,167538,1,6,1:2:0:0:
49,56,167700,1,2,0:2:0:0:
49,56,168024,6,0,L|61:100,1,34.9999989318848,2|0,0:2|0:2,0:2:0:0:
211,170,168186,1,10,0:3:0:0:
303,112,168349,1,10,0:3:0:0:
473,271,168511,2,0,L|484:225,1,37.5,6|0,0:3|0:2,0:2:0:0:
438,167,168835,6,0,P|390:168|362:226,1,110.000003356934,6|0,1:2|0:2,0:2:0:0:
102,316,169484,2,0,P|150:317|178:375,1,110.000003356934,10|0,0:2|0:2,0:2:0:0:
257,272,169970,1,8,0:2:0:0:
257,272,170051,1,0,3:2:0:0:
257,272,170132,6,0,L|275:155,1,110.000003356934,2|0,0:2|1:2,0:2:0:0:
72,12,170781,2,0,L|55:120,1,110.000003356934,8|0,0:2|0:2,0:2:0:0:
405,60,171268,5,2,0:2:0:0:
405,47,171349,1,2,0:2:0:0:
396,39,171430,2,0,P|348:43|330:110,1,110.000003356934,2|0,1:2|0:2,0:2:0:0:
511,271,172078,6,0,L|399:303,1,110.000003356934,10|0,0:2|0:2,0:2:0:0:
342,239,172565,1,2,0:2:0:0:
338,232,172646,1,2,0:2:0:0:
334,225,172727,2,0,L|264:206,1,55.0000016784668,2|0,0:2|0:2,0:2:0:0:
171,318,173051,6,0,L|189:377,1,55.0000016784668,0|0,1:2|0:2,0:0:0:0:
84,270,173376,2,0,L|107:209,1,55.0000016784668,8|0,0:2|0:2,0:2:0:0:
5,320,173700,1,4,0:2:0:0:
202,177,173862,2,0,L|186:134,1,27.5000008392334,2|0,0:2|0:2,0:2:0:0:
0,15,174024,5,2,1:2:0:0:
3,25,174105,1,0,3:2:0:0:
6,35,174186,1,2,3:2:0:0:
9,45,174268,1,0,3:2:0:0:
12,55,174349,1,2,1:2:0:0:
15,65,174429,1,0,3:2:0:0:
18,75,174511,1,2,3:2:0:0:
21,85,174592,1,0,3:2:0:0:
24,95,174673,6,0,L|17:127,1,27.5000008392334,2|0,1:2|0:2,0:2:0:0:
93,135,174835,2,0,L|86:167,1,27.5000008392334,2|0,0:2|0:2,0:2:0:0:
180,78,174997,2,0,L|173:46,1,27.5000008392334,2|0,1:2|0:2,0:2:0:0:
249,38,175159,2,0,L|242:6,1,27.5000008392334,2|0,0:2|0:2,0:2:0:0:
442,97,175322,5,2,1:2:0:0:
407,76,175403,1,0,3:2:0:0:
367,83,175484,1,2,3:2:0:0:
341,114,175565,1,0,3:2:0:0:
342,154,175646,1,2,1:2:0:0:
367,186,175727,1,0,3:2:0:0:
375,226,175808,1,2,3:2:0:0:
350,259,175889,1,0,3:2:0:0:
309,265,175970,6,0,L|293:222,1,42.5000008106232,2|0,1:2|0:2,0:2:0:0:
210,221,176132,2,0,L|226:178,1,42.5000008106232,0|0,0:2|0:2,0:2:0:0:
82,147,176295,2,0,L|98:190,1,42.5000008106232,2|0,1:2|0:2,0:2:0:0:
16,213,176457,2,0,L|0:256,1,42.5000008106232,2|0,0:2|0:2,0:2:0:0:
292,356,176619,5,2,1:2:0:0:
310,275,176781,1,2,1:2:0:0:
211,326,176943,1,10,0:2:0:0:
192,244,177105,1,10,0:2:0:0:
350,124,177268,5,2,1:2:0:0:
383,234,177430,1,2,1:2:0:0:
160,98,177592,1,10,0:2:0:0:
117,213,177754,1,10,0:2:0:0:
471,161,177916,5,2,0:2:0:0:
418,4,178078,1,10,0:3:0:0:
28,143,178241,1,10,0:3:0:0:
88,0,178403,1,6,0:3:0:0:
371,218,178565,6,0,L|391:271,1,42.5000008106232,6|0,0:3|0:2,0:2:0:0:
482,261,178727,2,0,L|502:314,1,42.5000008106232,6|0,0:3|0:2,0:2:0:0:
148,291,178889,2,0,L|128:344,1,42.5000008106232,6|0,0:2|0:2,0:2:0:0:
37,334,179051,2,0,L|17:387,1,42.5000008106232,2|0,0:2|0:2,0:2:0:0:
226,15,179214,6,0,L|290:376,1,360.000008789063,2|0,0:2|0:2,0:2:0:0:
360,335,181808,6,0,L|392:346,3,24.0000005859375
415,276,183105,6,0,L|439:267,2,24.0000005859375
354,230,183592,2,0,L|366:181,1,48.000001171875
317,128,184078,1,0,0:0:0:0:
227,243,184403,6,0,L|204:250,3,24.0000005859375
157,189,185700,2,0,L|134:181,3,24.0000005859375
89,244,186997,2,0,L|66:251,3,24.0000005859375
222,164,188295,6,0,L|239:70,1,96.0000023437501,2|0,0:2|0:2,0:2:0:0:
239,69,189268,2,0,L|244:48,1,12.0000002929688,2|0,0:2|0:2,0:2:0:0:
318,108,189592,6,0,L|344:99,3,24.0000005859375,0|0|0|0,0:2|0:2|0:2|0:2,0:2:0:0:
375,30,190889,2,0,L|401:39,3,24.0000005859375,0|0|0|0,0:2|0:2|0:2|0:2,0:2:0:0:
428,108,192186,2,0,L|437:134,3,24.0000005859375,0|0|0|0,0:2|0:2|0:2|0:2,0:2:0:0:
340,195,193484,6,0,L|348:222,1,24.0000005859375,2|0,0:2|0:2,0:2:0:0:
410,262,193808,2,0,L|402:289,1,24.0000005859375,2|0,0:2|0:2,0:2:0:0:
344,329,194132,2,0,L|352:356,1,24.0000005859375,2|0,0:2|0:2,0:2:0:0:
370,366,194457,1,2,0:2:0:0:
162,323,194781,6,0,L|183:222,1,96.0000023437501,2|0,0:2|0:2,0:2:0:0:
51,8,196078,2,0,L|31:101,1,96.0000023437501,2|0,0:2|0:2,0:2:0:0:
92,171,197214,1,0,3:2:0:0:
92,171,197295,1,0,3:2:0:0:
92,171,197376,2,0,L|189:144,1,96.0000023437501,2|0,0:2|0:2,0:2:0:0:
298,28,198673,5,0,1:2:0:0:
210,235,198835,1,0,1:2:0:0:
512,285,199322,6,0,B|500:316|500:316|412:314|333:382,1,209.999993591309,2|0,0:2|0:2,0:2:0:0:
274,330,199646,2,0,L|281:301,4,19.9999993896485,2|2|2|2|2,0:2|0:2|0:2|0:2|0:2,0:2:0:0:
17,279,199970,6,0,P|29:365|117:345,1,179.999994506836,6|0,1:2|0:2,0:2:0:0:
144,291,200295,1,10,0:2:0:0:
27,149,200457,1,2,0:2:0:0:
170,20,200619,2,0,P|153:91|142:146,1,119.999996337891,2|0,1:2|1:2,0:2:0:0:
256,245,200943,1,8,0:2:0:0:
396,157,201105,1,2,0:2:0:0:
503,361,201268,6,0,P|421:367|406:272,1,179.999994506836,2|0,1:2|0:2,0:2:0:0:
470,250,201592,2,0,P|490:167|518:50,1,179.999994506836,10|0,0:2|0:2,0:2:0:0:
448,14,201916,5,2,1:2:0:0:
339,88,202078,1,2,1:2:0:0:
213,44,202241,2,0,P|152:28|94:16,1,119.999996337891,10|0,0:2|0:2,0:2:0:0:
11,213,202565,5,6,1:2:0:0:
152,146,202727,1,0,0:2:0:0:
0,101,202889,1,10,0:2:0:0:
160,269,203051,2,0,P|217:230|277:229,1,119.999996337891,2|0,0:2|1:2,0:2:0:0:
336,279,203376,1,0,1:2:0:0:
54,384,203538,2,0,P|65:315|74:259,1,119.999996337891,10|0,0:2|0:2,0:2:0:0:
394,204,203862,6,0,L|351:22,1,179.999994506836,0|0,1:2|0:2,0:2:0:0:
275,8,204186,2,0,B|167:44|259:99|133:132,1,179.999994506836,10|0,0:2|0:2,0:2:0:0:
93,73,204511,1,2,1:2:0:0:
235,178,204673,1,0,1:2:0:0:
151,276,204835,5,10,0:2:0:0:
221,343,204997,1,8,0:2:0:0:
221,343,205078,1,8,0:3:0:0:
221,343,205159,2,0,L|215:362,5,13.3333333333333,6|2|2|2|2|0,0:3|0:2|0:2|0:2|0:2|0:2,0:2:0:0:
104,364,205484,5,10,0:2:0:0:
268,255,205646,1,2,0:2:0:0:
4,98,205808,2,0,P|4:205|121:186,1,239.999992675781,2|8,1:2|0:2,0:2:0:0:
95,107,206295,1,2,0:2:0:0:
242,15,206457,6,0,B|302:34|302:34|321:91|321:91|388:112,1,179.999994506836,2|0,1:2|0:2,0:2:0:0:
428,166,206781,2,0,P|490:172|494:61,1,179.999994506836,10|0,0:2|0:2,0:2:0:0:
437,54,207105,5,2,1:2:0:0:
315,167,207268,1,2,1:2:0:0:
454,250,207430,2,0,L|495:420,1,119.999996337891,10|0,0:2|0:2,0:2:0:0:
233,215,207754,6,0,L|191:379,1,119.999996337891,2|0,1:2|0:2,0:2:0:0:
277,367,207997,1,2,0:0:0:0:
280,357,208078,1,10,0:2:0:0:
108,252,208241,1,2,0:2:0:0:
256,117,208403,5,2,1:2:0:0:
148,11,208565,1,2,1:2:0:0:
13,93,208727,1,10,0:2:0:0:
22,140,208808,1,2,0:2:0:0:
63,164,208889,1,2,1:2:0:0:
110,154,208970,1,2,0:2:0:0:
140,116,209051,6,0,B|253:113|183:23|314:28,1,179.999994506836,10|0,0:2|0:2,0:2:0:0:
478,247,209376,2,0,B|365:244|435:154|304:159,1,179.999994506836,10|0,0:3|0:2,0:2:0:0:
273,212,209700,1,2,0:2:0:0:
79,340,209862,5,10,0:2:0:0:
113,315,209943,1,8,0:2:0:0:
154,323,210024,1,10,0:2:0:0:
178,357,210105,1,8,0:2:0:0:
190,377,210186,1,10,0:3:0:0:
207,380,210268,1,8,0:3:0:0:
217,373,210349,6,0,P|197:280|161:135,1,239.999992675781,4|10,1:2|0:2,0:2:0:0:
217,81,210835,1,0,0:2:0:0:
75,37,210997,5,10,0:2:0:0:
321,193,211159,1,2,1:2:0:0:
159,3,211322,1,10,0:2:0:0:
255,249,211484,1,2,1:2:0:0:
443,0,211646,6,0,L|394:238,1,239.999992675781,8|10,0:2|0:2,0:2:0:0:
451,301,212132,1,0,0:2:0:0:
195,192,212295,5,10,0:2:0:0:
301,46,212457,1,2,1:2:0:0:
301,46,212538,1,0,1:2:0:0:
301,46,212619,1,10,0:2:0:0:
146,277,212781,1,2,1:2:0:0:
405,177,212943,6,0,L|170:99,1,239.999992675781,4|10,1:2|0:2,0:2:0:0:
127,35,213430,1,2,0:2:0:0:
302,301,213592,1,10,0:2:0:0:
419,52,213754,1,0,1:2:0:0:
467,267,213916,1,10,0:2:0:0:
274,20,214078,1,4,0:3:0:0:
134,220,214241,6,0,L|101:376,1,159.999995117188,6|0,0:2|0:2,0:2:0:0:
3,240,214565,5,8,0:2:0:0:
0,184,214673,1,8,0:2:0:0:
47,154,214781,1,8,0:2:0:0:
104,99,214889,5,8,0:3:0:0:
129,108,214997,1,8,0:3:0:0:
134,133,215105,1,8,0:3:0:0:
204,173,215214,5,4,0:3:0:0:
220,164,215322,1,4,0:3:0:0:
218,150,215430,1,4,0:3:0:0:
254,79,215538,6,0,B|363:77|288:164|396:174,1,179.999994506836,2|0,1:2|0:2,0:2:0:0:
436,108,215862,1,10,0:2:0:0:
505,223,216024,2,0,P|491:294|482:348,1,119.999996337891,2|0,0:2|1:2,0:2:0:0:
289,373,216349,1,2,1:2:0:0:
147,239,216511,2,0,P|228:269|263:283,1,119.999996337891,10|0,0:2|0:2,0:2:0:0:
58,376,216835,6,0,L|27:189,1,179.999994506836,2|0,1:2|0:2,0:2:0:0:
60,127,217159,2,0,L|181:82,1,119.999996337891,10|0,0:2|0:2,0:2:0:0:
286,167,217484,5,2,1:2:0:0:
355,7,217646,1,0,1:2:0:0:
505,172,217808,2,0,L|389:128,1,119.999996337891,10|0,0:2|0:2,0:2:0:0:
230,355,218132,5,2,1:2:0:0:
289,271,218295,1,0,1:2:0:0:
199,223,218457,5,8,0:2:0:0:
338,365,218619,1,8,0:2:0:0:
304,149,218781,5,10,0:2:0:0:
151,316,218943,1,8,0:2:0:0:
93,73,219105,5,8,0:2:0:0:
280,280,219268,1,8,0:2:0:0:
390,1,219430,6,0,L|372:60,1,59.9999981689454,6|0,1:2|0:0,0:0:0:0:
391,84,219673,1,0,3:0:0:0:
391,84,219754,1,0,3:0:0:0:
455,132,219916,1,8,0:3:0:0:
458,140,219997,1,8,0:3:0:0:
461,147,220078,1,10,0:3:0:0:
424,218,220241,5,4,0:3:0:0:
476,272,220403,1,4,0:3:0:0:
449,340,220565,1,4,0:3:0:0:
256,192,220727,5,2,1:2:0:0:
289,124,222024,1,2,0:2:0:0:
40,31,222673,5,2,0:0:0:0:
40,31,222781,2,0,L|1:16,1,39.9999987792969,2|2,0:2|0:2,0:2:0:0:
201,130,222997,1,2,0:0:0:0:
201,130,223105,2,0,L|240:115,1,39.9999987792969,2|2,0:2|0:2,0:2:0:0:
133,6,223322,6,4,L|98:226,1,179.999994506836,6|0,1:2|0:2,1:2:0:0:
47,236,223646,1,8,0:2:0:0:
252,366,223808,2,0,P|306:368|325:307,1,119.999996337891,2|0,0:2|1:2,0:2:0:0:
381,255,224132,1,0,1:2:0:0:
250,172,224295,5,10,0:2:0:0:
414,327,224457,1,2,0:2:0:0:
361,154,224619,2,0,L|393:35,1,119.999996337891,2|0,1:2|0:2,0:2:0:0:
97,9,224943,2,0,L|128:124,1,119.999996337891,8|0,0:2|0:2,0:2:0:0:
55,370,225268,5,2,1:2:0:0:
164,211,225430,1,0,1:2:0:0:
0,249,225592,2,0,L|121:296,1,119.999996337891,8|0,0:2|0:2,0:2:0:0:
476,273,225916,6,0,P|472:355|390:362,1,179.999994506836,2|0,1:2|0:2,0:2:0:0:
342,299,226241,1,8,0:2:0:0:
432,194,226403,2,0,P|419:124|410:70,1,119.999996337891,2|0,0:2|1:2,0:2:0:0:
454,9,226727,1,0,1:2:0:0:
299,148,226889,5,10,0:2:0:0:
353,217,227051,1,2,0:2:0:0:
200,384,227214,6,0,P|218:300|228:255,1,119.999996337891,2|0,1:2|0:2,0:2:0:0:
177,204,227538,1,8,0:2:0:0:
25,293,227700,2,0,P|7:209|-3:164,1,119.999996337891,2|0,0:2|1:2,0:2:0:0:
48,113,228024,1,0,1:2:0:0:
186,18,228186,2,0,L|311:55,1,119.999996337891,10|0,0:2|0:2,0:2:0:0:
375,20,228430,1,8,0:2:0:0:
380,26,228511,6,0,L|407:158,1,119.999996337891,6|0,1:2|0:0,0:2:0:0:
334,370,228835,1,8,0:2:0:0:
512,311,228997,6,0,L|387:268,1,119.999996337891,2|0,0:2|1:0,0:2:0:0:
352,208,229322,1,0,1:2:0:0:
166,381,229484,2,0,L|140:258,1,119.999996337891,10|0,0:2|0:2,0:2:0:0:
5,20,229808,6,0,B|80:46|80:46|87:109|87:109|190:145,1,239.999992675781,2|8,1:2|0:2,0:2:0:0:
241,78,230295,1,0,0:2:0:0:
131,215,230457,5,2,1:2:0:0:
57,129,230619,1,0,1:2:0:0:
249,225,230781,2,0,L|373:180,1,119.999996337891,8|0,0:2|0:2,0:2:0:0:
502,14,231105,6,0,B|419:53|419:53|459:151,1,179.999994506836,6|0,1:2|0:2,0:2:0:0:
476,151,231430,1,10,0:2:0:0:
412,275,231592,1,2,0:2:0:0:
207,149,231754,2,0,L|238:28,1,119.999996337891,2|0,1:2|1:2,0:2:0:0:
338,193,232078,1,8,0:2:0:0:
204,325,232241,5,2,0:2:0:0:
206,331,232322,1,2,0:2:0:0:
208,337,232403,1,10,0:2:0:0:
103,209,232565,1,2,1:2:0:0:
17,373,232727,5,14,0:2:0:0:
195,238,232889,1,2,1:2:0:0:
19,113,233051,1,8,0:2:0:0:
208,225,233214,2,0,L|226:161,1,59.9999981689454,2|0,1:2|0:2,0:2:0:0:
236,7,233376,1,8,0:2:0:0:
192,0,233457,1,8,0:2:0:0:
152,19,233538,1,8,0:2:0:0:
136,60,233619,1,8,0:2:0:0:
149,101,233700,5,2,1:2:0:0:
343,173,233862,2,0,P|416:154|466:142,1,119.999996337891,2|8,0:2|0:2,0:2:0:0:
176,297,234186,2,0,L|62:258,1,119.999996337891,2|8,0:2|0:2,0:2:0:0:
260,372,234511,5,2,1:2:0:0:
387,238,234673,1,10,0:2:0:0:
308,96,234835,1,0,1:2:0:0:
476,16,234997,5,10,0:2:0:0:
306,188,235159,1,2,0:2:0:0:
156,65,235322,2,0,L|42:29,1,119.999996337891,10|0,0:2|0:2,0:2:0:0:
286,4,235646,5,8,0:2:0:0:
211,190,235808,1,2,1:2:0:0:
419,374,235970,2,0,L|398:253,1,119.999996337891,10|0,0:2|1:2,0:2:0:0:
149,306,236295,5,10,0:2:0:0:
322,132,236457,2,0,L|449:182,1,119.999996337891,2|8,0:2|0:2,0:2:0:0:
180,60,236781,5,2,0:2:0:0:
287,248,236943,1,8,0:2:0:0:
87,370,237105,1,2,1:2:0:0:
32,259,237268,1,10,0:2:0:0:
112,163,237430,1,0,1:2:0:0:
396,367,237592,5,14,0:2:0:0:
270,223,237754,1,2,1:2:0:0:
465,68,237916,2,0,L|443:186,1,119.999996337891,10|0,0:2|1:2,0:2:0:0:
193,88,238241,5,4,0:2:0:0:
365,288,238403,1,2,1:2:0:0:
365,288,238484,1,0,1:2:0:0:
365,288,238565,2,0,L|376:243,1,44.999998626709,8|0,0:2|0:2,0:2:0:0:
324,186,238889,5,2,1:2:0:0:
314,190,238970,1,0,3:2:0:0:
304,194,239051,1,0,3:2:0:0:
294,198,239132,1,0,3:2:0:0:
284,202,239213,1,2,1:2:0:0:
274,206,239295,1,0,3:2:0:0:
264,210,239376,1,2,3:0:0:0:
254,214,239457,1,0,3:0:0:0:
244,218,239538,1,0,1:0:0:0:
234,222,239619,1,0,3:0:0:0:
224,226,239701,1,2,3:0:0:0:
214,230,239780,1,0,3:0:0:0:
199,260,239862,5,2,1:2:0:0:
216,287,239943,1,0,3:2:0:0:
248,291,240024,1,0,3:2:0:0:
272,269,240105,1,0,3:2:0:0:
270,236,240186,1,0,1:2:0:0:
243,215,240268,1,0,3:2:0:0:
219,192,240349,1,0,3:2:0:0:
211,158,240430,1,0,3:2:0:0:
223,123,240511,1,2,1:2:0:0:
255,106,240592,1,0,3:2:0:0:
291,113,240673,1,0,3:2:0:0:
312,139,240754,1,0,3:2:0:0:
310,146,240835,5,2,1:2:0:0:
309,153,240916,1,0,3:2:0:0:
307,160,240997,1,0,3:2:0:0:
306,167,241078,1,0,3:2:0:0:
332,203,241159,1,10,1:2:0:0:
377,198,241241,1,8,0:2:0:0:
395,157,241322,1,8,0:2:0:0:
385,113,241403,1,8,0:2:0:0:
341,95,241484,5,4,1:2:0:0:
386,273,241646,1,8,1:2:0:0:
235,174,241808,1,8,0:3:0:0:
129,314,241970,1,8,0:3:0:0:
23,150,242132,1,8,0:3:0:0:
322,379,242295,5,10,0:3:0:0:
247,24,242457,1,2,0:2:0:0:
2,321,242619,1,6,0:2:0:0:
412,369,244078,5,2,1:2:0:0:
483,349,244240,1,2,0:2:0:0:
486,273,244402,1,2,1:2:0:0:
416,246,244564,1,2,0:2:0:0:
367,303,244726,1,2,1:2:0:0:
241,47,245051,5,2,1:2:0:0:
279,148,245214,1,0,0:2:0:0:
283,140,245376,1,2,1:2:0:0:
245,39,245539,1,0,0:2:0:0:
121,239,245862,5,2,0:2:0:0:
49,218,246024,1,2,1:2:0:0:
47,143,246186,1,0,0:2:0:0:
117,116,246348,1,2,1:2:0:0:
166,173,246510,1,0,0:2:0:0:
262,328,246673,5,2,1:2:0:0:
334,307,246835,1,0,0:2:0:0:
336,232,246997,1,2,1:2:0:0:
266,205,247159,1,0,0:2:0:0:
217,262,247321,1,2,1:2:0:0:
441,134,247646,5,2,1:2:0:0:
415,42,247808,1,0,0:2:0:0:
405,37,247970,1,2,1:2:0:0:
431,129,248132,1,0,0:2:0:0:
479,378,248457,5,2,0:2:0:0:
444,311,248619,1,2,1:2:0:0:
372,252,248781,1,2,0:2:0:0:
262,213,248943,1,2,0:2:0:0:
119,240,249105,1,6,0:2:0:0:
