osu file format v14

[General]
AudioFilename: audio.mp3
AudioLeadIn: 0
PreviewTime: 188224
Countdown: 0
SampleSet: Soft
StackLeniency: 0.4
Mode: 0
LetterboxInBreaks: 0
WidescreenStoryboard: 1

[Editor]
Bookmarks: 39115,57926,114359
DistanceSpacing: 1.1
BeatDivisor: 4
GridSize: 32
TimelineZoom: 2.999999

[Metadata]
Title:Careless
TitleUnicode:ケアレス
Artist:ClariS
ArtistUnicode:ClariS
Creator:Boppin
Version:Hard
Source:マギアレコード 魔法少女まどか☆マギカ外伝 2nd SEASON -覚醒前夜-
Tags:Magia Record: Puella Magi Madoka*Magica Side Story Kakusei zenya magiarekodo mahou shoujo gaiden op opening japanese jpop j-pop pop anime クラリス Clara クララ Karen カレン 湯浅篤 Atsushi Yuasa 渡辺翔 full version
BeatmapID:3795573
BeatmapSetID:1847155

[Difficulty]
HPDrainRate:3.5
CircleSize:3.5
OverallDifficulty:6
ApproachRate:8
SliderMultiplier:1.4
SliderTickRate:1

[Events]
//Background and Video events
0,0,"92100281_p0.jpg",0,0
//Break Periods
2,83414,86336
2,182008,187526
//Storyboard Layer 0 (Background)
//Storyboard Layer 1 (Fail)
//Storyboard Layer 2 (Pass)
//Storyboard Layer 3 (Foreground)
//Storyboard Layer 4 (Overlay)
//Storyboard Sound Samples

[TimingPoints]
187,324.324324324324,4,2,1,35,1,0
187,-166.666666666667,4,2,1,35,0,0
2781,-166.666666666667,4,2,1,45,0,0
4646,-166.666666666667,4,2,1,5,0,0
4727,-166.666666666667,4,2,1,50,0,0
4889,-166.666666666667,4,2,1,70,0,0
5214,-100,4,2,1,75,0,0
10808,-100,4,2,1,5,0,0
10889,-100,4,2,1,75,0,0
12105,-100,4,2,1,5,0,0
12186,-100,4,2,1,75,0,0
13403,-100,4,2,1,5,0,0
13484,-100,4,2,1,75,0,0
15754,-100,4,2,1,40,0,0
16078,-100,4,2,1,50,0,0
16403,-100,4,2,1,60,0,0
16727,-100,4,2,1,70,0,0
17051,-100,4,2,1,80,0,0
17538,-166.666666666667,4,2,1,35,0,0
18024,-200,4,2,1,40,0,0
18349,-142.857142857143,4,2,1,55,0,0
28565,-142.857142857143,4,2,1,5,0,0
28727,-111.111111111111,4,2,1,60,0,0
28970,-111.111111111111,4,2,1,5,0,0
29051,-111.111111111111,4,2,1,60,0,0
38132,-111.111111111111,4,2,1,50,0,0
38457,-111.111111111111,4,2,1,45,0,0
38781,-111.111111111111,4,2,1,35,0,0
39105,-111.111111111111,4,2,1,60,0,0
49484,-200,4,2,1,55,0,0
52078,-142.857142857143,4,2,1,55,0,0
53376,-125,4,2,1,60,0,0
54024,-125,4,2,1,50,0,0
54349,-125,4,2,1,40,0,0
54673,-125,4,2,1,30,0,0
57268,-125,4,2,1,55,0,0
57592,-125,4,2,1,60,0,0
57916,-125,4,2,1,65,0,0
58241,-125,4,2,1,75,0,0
58565,-125,4,2,1,45,0,0
59214,-125,4,2,1,70,0,0
59457,-125,4,2,1,5,0,0
59538,-125,4,2,1,50,0,0
59700,-125,4,2,1,55,0,0
59862,-86.9565217391304,4,2,1,80,0,1
60105,-86.9565217391304,4,2,1,5,0,1
60186,-86.9565217391304,4,2,1,80,0,1
61403,-86.9565217391304,4,2,1,5,0,1
61484,-86.9565217391304,4,2,1,80,0,1
61727,-86.9565217391304,4,2,1,5,0,1
61808,-86.9565217391304,4,2,1,80,0,1
63997,-86.9565217391304,4,2,1,5,0,1
64078,-86.9565217391304,4,2,1,80,0,1
64322,-86.9565217391304,4,2,1,5,0,1
64403,-86.9565217391304,4,2,1,80,0,1
64727,-86.9565217391304,4,2,1,70,0,1
65051,-86.9565217391304,4,2,1,55,0,0
65376,-86.9565217391304,4,2,1,80,0,1
66592,-86.9565217391304,4,2,1,5,0,1
66673,-86.9565217391304,4,2,1,80,0,1
66916,-86.9565217391304,4,2,1,5,0,1
66997,-86.9565217391304,4,2,1,80,0,1
69186,-86.9565217391304,4,2,1,5,0,1
69267,-86.9565217391304,4,2,1,80,0,1
69511,-86.9565217391304,4,2,1,5,0,1
69592,-86.9565217391304,4,2,1,80,0,1
70484,-86.9565217391304,4,2,1,5,0,1
70565,-86.9565217391304,4,2,1,80,0,1
76970,-86.9565217391304,4,2,1,5,0,1
77051,-86.9565217391304,4,2,1,80,0,1
79322,-117.647058823529,4,2,1,65,0,0
80619,-117.647058823529,4,2,1,40,0,0
83214,-117.647058823529,4,2,1,50,0,0
87105,-117.647058823529,4,2,1,45,0,0
87592,-117.647058823529,4,2,1,55,0,0
92295,-181.818181818181,4,2,1,55,0,0
93592,-142.857142857143,4,2,1,50,0,0
101376,-142.857142857143,4,2,1,65,0,0
102349,-142.857142857143,4,2,1,75,0,0
102835,-142.857142857143,4,2,1,65,0,0
103484,-142.857142857143,4,2,1,55,0,0
103970,-111.111111111111,4,2,1,60,0,0
124727,-200,4,2,1,60,0,0
127322,-142.857142857143,4,2,1,60,0,0
128619,-125,4,2,1,60,0,0
129267,-125,4,2,1,50,0,0
129592,-125,4,2,1,40,0,0
129916,-125,4,2,1,30,0,0
132511,-125,4,2,1,60,0,0
132835,-125,4,2,1,65,0,0
133160,-125,4,2,1,75,0,0
133484,-125,4,2,1,80,0,0
133808,-125,4,2,1,40,0,0
134457,-125,4,2,1,75,0,0
134781,-125,4,2,1,55,0,0
135105,-86.9565217391304,4,2,1,80,0,1
135349,-86.9565217391304,4,2,1,5,0,1
135430,-86.9565217391304,4,2,1,80,0,1
136646,-86.9565217391304,4,2,1,5,0,1
136727,-86.9565217391304,4,2,1,80,0,1
136970,-86.9565217391304,4,2,1,5,0,1
137051,-86.9565217391304,4,2,1,80,0,1
139241,-86.9565217391304,4,2,1,5,0,1
139322,-86.9565217391304,4,2,1,80,0,1
139565,-86.9565217391304,4,2,1,5,0,1
139646,-86.9565217391304,4,2,1,80,0,1
140295,-86.9565217391304,4,2,1,60,0,0
140619,-86.9565217391304,4,2,1,80,0,1
141835,-86.9565217391304,4,2,1,5,0,1
141916,-86.9565217391304,4,2,1,80,0,1
142159,-86.9565217391304,4,2,1,5,0,1
142240,-86.9565217391304,4,2,1,80,0,1
144430,-86.9565217391304,4,2,1,5,0,1
144511,-86.9565217391304,4,2,1,80,0,1
144754,-86.9565217391304,4,2,1,5,0,1
144835,-86.9565217391304,4,2,1,80,0,1
145727,-86.9565217391304,4,2,1,5,0,1
145808,-86.9565217391304,4,2,1,80,0,1
152214,-86.9565217391304,4,2,1,5,0,1
152295,-86.9565217391304,4,2,1,80,0,1
153511,-86.9565217391304,4,2,1,5,0,1
153592,-86.9565217391304,4,2,1,80,0,1
155862,-86.9565217391304,4,2,1,50,0,0
157808,-86.9565217391304,4,2,1,65,0,0
158051,-86.9565217391304,4,2,1,5,0,0
158132,-86.9565217391304,4,2,1,55,0,0
158457,-117.647058823529,4,2,1,60,0,0
162997,-117.647058823529,4,2,1,50,0,0
163322,-117.647058823529,4,2,1,40,0,0
163646,-117.647058823529,4,2,1,60,0,0
168511,-117.647058823529,4,2,1,40,0,0
168835,-153.846153846153,4,2,1,70,0,0
174024,-153.846153846153,4,2,1,55,0,1
174673,-105.263157894736,4,2,1,55,0,1
174997,-105.263157894736,4,2,1,60,0,1
175322,-133.333333333333,4,2,1,65,0,1
175970,-95.2380952380952,4,2,1,65,0,1
176295,-95.2380952380952,4,2,1,70,0,1
176619,-86.9565217391306,4,2,1,75,0,1
177268,-86.9565217391306,4,2,1,80,0,1
177916,-86.9565217391306,4,2,1,85,0,1
178565,-86.9565217391306,4,2,1,90,0,1
179214,-666.666666666667,4,2,1,65,0,0
179295,-666.666666666667,4,2,1,65,0,0
181646,-666.666666666667,4,2,1,5,0,0
181808,-666.666666666667,4,2,1,35,0,0
188295,-222.222222222222,4,2,1,35,0,0
189349,-222.222222222222,4,2,1,5,0,0
189592,-222.222222222222,4,2,1,40,0,0
198673,-222.222222222222,4,2,1,65,0,0
199322,-117.647058823529,4,2,1,60,0,0
199646,-117.647058823529,4,2,1,40,0,0
199970,-86.9565217391304,4,2,1,80,0,1
200214,-86.9565217391304,4,2,1,5,0,1
200295,-86.9565217391304,4,2,1,80,0,1
201511,-86.9565217391304,4,2,1,5,0,1
201592,-86.9565217391304,4,2,1,80,0,1
201835,-86.9565217391304,4,2,1,5,0,1
201916,-86.9565217391304,4,2,1,80,0,1
204105,-86.9565217391304,4,2,1,5,0,1
204186,-86.9565217391304,4,2,1,80,0,1
204430,-86.9565217391304,4,2,1,5,0,1
204511,-86.9565217391304,4,2,1,80,0,1
205159,-86.9565217391304,4,2,1,65,0,0
205484,-86.9565217391304,4,2,1,80,0,1
206700,-86.9565217391304,4,2,1,5,0,1
206781,-86.9565217391304,4,2,1,80,0,1
207024,-86.9565217391304,4,2,1,5,0,1
207105,-86.9565217391304,4,2,1,80,0,1
209295,-86.9565217391304,4,2,1,5,0,1
209376,-86.9565217391304,4,2,1,80,0,1
209619,-86.9565217391304,4,2,1,5,0,1
209700,-86.9565217391304,4,2,1,80,0,1
214565,-86.9565217391304,4,2,1,75,0,1
214889,-86.9565217391304,4,2,1,70,0,1
215214,-86.9565217391304,4,2,1,65,0,1
215538,-86.9565217391304,4,2,1,80,0,1
215781,-86.9565217391304,4,2,1,5,0,1
215862,-86.9565217391304,4,2,1,80,0,1
217078,-86.9565217391304,4,2,1,5,0,1
217159,-86.9565217391304,4,2,1,80,0,1
218132,-86.9565217391304,4,2,1,65,0,0
218781,-86.9565217391304,4,2,1,75,0,0
219430,-86.9565217391304,4,2,1,60,0,0
220727,-86.9565217391304,4,2,1,35,0,0
222673,-86.9565217391304,4,2,1,55,0,0
222997,-86.9565217391304,4,2,1,65,0,0
223322,-86.9565217391304,4,2,1,80,0,0
223565,-86.9565217391304,4,2,1,5,0,0
223646,-86.9565217391304,4,2,1,80,0,0
226159,-86.9565217391304,4,2,1,5,0,0
226240,-86.9565217391304,4,2,1,80,0,0
231349,-86.9565217391304,4,2,1,5,0,0
231430,-86.9565217391304,4,2,1,80,0,0
233700,-83.3333333333333,4,2,1,80,0,1
238889,-83.3333333333333,4,2,1,50,0,1
239132,-83.3333333333333,4,2,1,50,0,1
239214,-125,4,2,1,50,0,1
239862,-125,4,2,1,65,0,1
240835,-125,4,2,1,70,0,1
241159,-125,4,2,1,75,0,1
241484,-83.3333333333333,4,2,1,75,0,1
242295,-83.3333333333333,4,2,1,85,0,0
244078,-166.666666666667,4,2,1,55,0,0
248619,-166.666666666667,4,2,1,60,0,0
248781,-166.666666666667,4,2,1,65,0,0
248943,-166.666666666667,4,2,1,70,0,0
249105,-166.666666666667,4,2,1,75,0,0

[Colours]
Combo1 : 235,235,169
Combo2 : 255,202,202
Combo3 : 186,232,140

[HitObjects]
47,353,187,6,0,L|56:301,1,41.9999987182618,2|0,0:2|0:2,0:0:0:0:
126,280,511,2,0,L|117:228,1,41.9999987182618,2|0,0:2|0:2,0:0:0:0:
63,183,835,1,2,0:2:0:0:
203,322,1159,6,0,L|246:334,2,41.9999987182618,2|0|2,0:2|0:2|0:2,0:0:0:0:
292,273,1646,1,0,0:2:0:0:
292,273,1970,5,2,0:2:0:0:
236,215,2132,2,0,L|246:172,1,41.9999987182618,2|0,0:2|0:2,0:0:0:0:
317,136,2457,2,0,L|307:93,1,41.9999987182618,2|0,0:2|0:2,0:0:0:0:
241,46,2781,6,0,L|186:63,1,41.9999987182618,2|0,0:2|0:2,0:0:0:0:
147,118,3105,2,0,L|106:105,1,41.9999987182618,2|0,0:2|0:2,0:0:0:0:
66,37,3430,1,2,0:2:0:0:
210,177,3754,6,0,L|222:225,1,41.9999987182618,2|0,0:2|0:2,0:0:0:0:
289,271,4078,1,2,0:2:0:0:
289,271,4241,1,2,0:2:0:0:
474,52,4565,5,2,0:2:0:0:
407,104,4727,2,0,L|399:145,2,41.9999987182618,10|10|6,0:2|0:3|0:3,0:0:0:0:
348,11,5214,6,0,L|213:54,1,140,6|0,1:2|1:2,0:2:0:0:
136,19,5700,2,0,L|119:108,1,70,8|0,0:2|0:2,0:2:0:0:
64,145,6024,1,2,1:2:0:0:
64,145,6186,1,0,1:2:0:0:
109,209,6349,1,8,0:2:0:0:
47,281,6511,6,0,P|50:330|134:341,1,140,6|0,1:2|1:2,0:2:0:0:
175,279,6997,2,0,L|319:323,1,140,8|2,0:2|1:2,0:2:0:0:
373,377,7484,1,8,0:2:0:0:
392,296,7646,1,8,0:2:0:0:
472,231,7808,6,0,L|435:89,1,140,6|0,1:2|1:2,0:2:0:0:
358,107,8295,2,0,L|277:79,1,70,8|0,0:2|0:2,0:2:0:0:
239,23,8619,1,2,1:2:0:0:
168,66,8781,1,8,0:3:0:0:
168,66,8943,1,4,0:3:0:0:
90,10,9105,6,0,P|24:30|33:105,1,140,6|0,1:2|1:2,0:2:0:0:
86,141,9592,1,8,0:2:0:0:
157,209,9754,2,0,L|130:349,1,140,6|0,1:2|1:2,0:2:0:0:
147,366,10159,1,0,0:0:0:0:
147,366,10241,2,0,L|190:378,3,35,10|2|2|2,0:2|0:2|0:2|0:2,0:0:0:0:
201,362,10565,6,0,L|344:322,1,140,2|8,1:2|0:2,0:2:0:0:
497,177,11214,1,2,0:2:0:0:
497,177,11376,1,0,1:2:0:0:
443,108,11538,2,0,L|364:134,1,70,8|0,0:2|0:2,0:2:0:0:
306,72,11862,6,0,L|156:33,1,140,2|8,1:2|0:2,0:2:0:0:
105,82,12349,1,0,1:2:0:0:
105,82,12673,1,0,1:2:0:0:
172,133,12835,2,0,L|190:207,1,70,8|0,0:2|0:2,0:2:0:0:
137,280,13159,6,4,L|-6:251,1,140,6|8,1:2|0:2,1:2:0:0:
12,346,13646,2,2,L|149:373,1,140,2|2,0:2|1:2,0:2:0:0:
219,319,14132,1,10,0:2:0:0:
293,359,14295,1,10,0:3:0:0:
293,359,14457,5,2,1:2:0:0:
363,306,14619,2,0,B|392:256|392:256|352:179,1,140,14|8,0:2|0:3,0:2:0:0:
369,169,15024,1,4,0:3:0:0:
369,169,15105,1,10,0:2:0:0:
329,86,15268,2,0,L|347:12,2,70,8|8|4,0:3|0:3|0:3,0:0:0:0:
234,107,15754,6,0,L|204:71,2,46.6666666666667,6|2|2,1:2|1:2|1:2,0:2:0:0:
188,173,16078,2,0,L|142:181,2,46.6666666666667,2|10|10,0:2|0:2|0:2,0:2:0:0:
234,239,16403,2,0,L|218:283,2,46.6666666666667,10|10|10,0:3|0:3|0:3,0:0:0:0:
314,236,16727,1,6,0:3:0:0:
323,239,16835,1,6,0:3:0:0:
332,243,16943,1,6,0:3:0:0:
341,246,17051,5,10,0:2:0:0:
420,193,17214,1,10,0:2:0:0:
384,346,17538,6,0,L|379:361,2,13.9999995727539,2|2|2,0:2|0:0|0:0,0:2:0:0:
261,350,18024,1,2,0:2:0:0:
261,350,18349,6,0,L|166:372,1,97.9999970092774,6|0,0:2|0:2,0:2:0:0:
29,212,18997,6,0,L|15:259,1,48.9999985046387,2|0,0:2|0:2,0:0:0:0:
87,327,19322,2,0,L|100:279,1,48.9999985046387,2|0,0:2|0:2,0:0:0:0:
169,230,19646,2,0,L|230:215,1,48.9999985046387,2|0,0:2|0:2,0:0:0:0:
297,184,19970,1,2,0:2:0:0:
228,132,20132,2,0,L|208:29,1,97.9999970092774,2|0,0:2|0:2,0:2:0:0:
292,15,20619,2,0,L|341:31,1,48.9999985046387,2|0,0:2|1:2,0:2:0:0:
451,13,20943,6,0,L|430:122,1,97.9999970092774,2|2,1:2|0:2,0:2:0:0:
486,171,21430,1,0,0:2:0:0:
426,225,21592,2,0,L|415:275,1,48.9999985046387,2|0,0:2|0:2,0:0:0:0:
351,322,21916,1,2,0:2:0:0:
111,369,22241,6,0,B|92:319|92:319|125:277,1,97.9999970092774,2|0,0:2|0:2,0:2:0:0:
198,306,22727,2,0,L|251:290,1,48.9999985046387,2|2,0:2|0:2,0:0:0:0:
283,221,23051,1,2,0:2:0:0:
227,163,23214,1,2,0:2:0:0:
15,19,23538,6,0,L|70:33,1,48.9999985046387,2|0,0:2|0:2,0:0:0:0:
98,107,23862,2,0,L|145:94,1,48.9999985046387,2|0,0:2|0:2,0:0:0:0:
225,0,24186,2,0,L|214:48,1,48.9999985046387,2|0,0:2|0:2,0:0:0:0:
275,115,24511,1,2,0:2:0:0:
275,115,24673,1,2,0:2:0:0:
331,49,24835,6,0,L|441:73,1,97.9999970092774,2|0,0:2|0:2,0:2:0:0:
470,140,25322,1,0,0:2:0:0:
404,190,25484,2,0,L|390:242,2,48.9999985046387,2|0|2,0:2|0:2|0:2,0:0:0:0:
351,376,26132,6,0,L|254:344,1,97.9999970092774,6|0,1:2|0:2,0:2:0:0:
201,289,26619,1,0,0:2:0:0:
201,289,26781,2,0,L|191:233,1,48.9999985046387,2|0,0:2|0:2,0:0:0:0:
122,195,27105,2,0,L|113:146,1,48.9999985046387,2|0,0:2|0:2,0:0:0:0:
160,80,27430,5,2,0:2:0:0:
160,80,27592,1,2,0:2:0:0:
239,117,27754,1,2,0:2:0:0:
239,117,27916,2,0,L|250:152,2,24.4999992523194,10|8|10,0:2|0:2|0:2,0:0:0:0:
287,25,28241,2,0,L|388:53,1,97.9999970092774,2|0,1:2|0:2,0:2:0:0:
433,139,28727,6,0,L|446:223,1,62.9999980773926,2|0,1:2|0:0,0:2:0:0:
510,291,29051,2,0,P|437:297|425:349,1,125.999996154785,8|2,0:2|0:2,0:2:0:0:
352,378,29538,1,0,1:2:0:0:
293,322,29700,2,0,L|312:259,1,62.9999980773926,10|0,0:2|0:2,0:0:0:0:
259,198,30024,2,0,L|198:216,1,62.9999980773926,2|0,1:2|0:2,0:0:0:0:
147,278,30349,1,10,0:2:0:0:
75,241,30511,2,0,P|57:181|121:153,1,125.999996154785,2|0,0:2|1:2,0:2:0:0:
137,77,30997,2,0,L|204:96,1,62.9999980773926,8|0,0:2|1:2,0:2:0:0:
295,16,31322,6,0,L|313:79,1,62.9999980773926,2|0,1:2|0:2,0:0:0:0:
400,94,31646,2,0,L|382:157,1,62.9999980773926,10|0,0:2|0:2,0:0:0:0:
443,212,31970,1,2,0:2:0:0:
443,212,32132,1,0,1:2:0:0:
387,272,32295,2,0,L|319:294,1,62.9999980773926,10|0,0:2|0:2,0:2:0:0:
237,377,32619,6,0,L|111:334,1,125.999996154785,2|8,1:2|0:2,0:2:0:0:
79,268,33105,1,2,0:2:0:0:
129,203,33268,2,0,L|170:194,2,31.4999990386963,2|8|0,0:2|0:2|1:2,0:0:0:0:
68,148,33592,1,10,0:2:0:0:
68,148,33754,1,0,1:2:0:0:
121,67,33916,6,0,P|166:63|206:134,1,125.999996154785,6|8,1:2|0:2,0:2:0:0:
259,192,34403,2,0,P|304:196|344:125,1,125.999996154785,2|0,0:2|1:2,0:2:0:0:
285,79,34889,1,10,0:2:0:0:
171,229,35214,6,0,L|202:352,1,125.999996154785,2|8,1:2|0:2,0:2:0:0:
283,310,35700,2,0,L|407:357,1,125.999996154785,2|0,0:2|1:2,0:2:0:0:
467,301,36186,1,10,0:2:0:0:
467,301,36349,1,0,1:2:0:0:
401,238,36511,6,0,L|415:171,1,62.9999980773926,6|2,0:2|0:2,0:0:0:0:
339,95,36835,2,0,L|326:156,1,62.9999980773926,10|2,0:2|0:2,0:0:0:0:
253,197,37159,1,2,1:2:0:0:
253,197,37322,1,8,0:3:0:0:
179,151,37484,1,6,0:3:0:0:
107,213,37646,6,0,L|85:339,1,125.999996154785,6|0,1:2|0:2,0:2:0:0:
107,364,38051,1,0,0:0:0:0:
107,364,38132,2,0,L|171:347,1,62.9999980773926,2|2,0:2|0:2,0:2:0:0:
264,322,38457,2,0,L|247:386,2,62.9999980773926,2|2|2,0:2|0:2|0:2,0:2:0:0:
446,280,39105,5,2,1:2:0:0:
446,280,39268,1,2,0:2:0:0:
405,208,39430,1,2,1:2:0:0:
405,208,39593,1,2,0:2:0:0:
461,147,39754,2,0,L|469:111,4,31.4999990386963,2|2|2|2|2,0:2|0:2|0:2|0:2|1:2,0:2:0:0:
415,52,40241,1,8,0:2:0:0:
415,52,40322,1,8,0:2:0:0:
415,52,40403,6,0,L|290:86,1,125.999996154785,2|0,1:2|1:2,0:2:0:0:
199,18,40889,2,0,L|174:143,1,125.999996154785,10|0,0:2|1:2,0:2:0:0:
239,206,41376,2,0,L|257:269,1,62.9999980773926,2|8,1:2|0:3,0:0:0:0:
194,353,41700,5,6,1:2:0:0:
194,353,41862,1,2,0:2:0:0:
126,300,42024,1,2,1:2:0:0:
126,300,42186,1,2,0:2:0:0:
54,344,42349,2,0,L|21:358,4,31.4999990386963,2|2|2|2|2,0:2|0:2|0:2|0:2|1:2,0:2:0:0:
11,270,42835,1,8,0:2:0:0:
11,270,42916,1,8,0:2:0:0:
11,270,42997,2,0,L|43:141,1,125.999996154785,2|0,0:2|1:2,0:2:0:0:
8,50,43484,6,0,L|84:75,1,62.9999980773926,12|2,0:2|1:2,0:0:0:0:
136,158,43808,2,0,L|212:133,1,62.9999980773926,0|2,0:0|1:2,0:0:0:0:
250,70,44132,2,0,L|257:38,1,31.4999990386963
279,22,44295,6,0,P|331:19|363:85,1,125.999996154785,6|0,0:2|1:2,0:2:0:0:
313,140,44781,1,0,0:2:0:0:
379,193,44943,2,0,L|363:260,1,62.9999980773926,2|8,1:2|0:2,0:2:0:0:
284,283,45268,2,0,L|300:350,1,62.9999980773926,2|8,1:2|0:3,0:0:0:0:
284,365,45511,1,8,0:3:0:0:
284,365,45592,6,0,L|159:340,1,125.999996154785,2|0,1:2|1:2,0:2:0:0:
81,380,46078,2,0,L|65:308,1,62.9999980773926,6|0,0:2|1:2,0:2:0:0:
110,246,46403,2,0,L|179:262,2,62.9999980773926,8|0|4,0:3|1:2|0:3,0:0:0:0:
91,233,46808,1,4,0:3:0:0:
91,233,46889,6,0,L|64:105,1,125.999996154785,2|2,1:2|1:2,0:2:0:0:
144,73,47376,2,0,L|131:5,2,62.9999980773926,12|0|8,0:2|1:2|0:2,0:2:0:0:
224,120,47862,1,2,1:2:0:0:
224,120,48024,1,8,0:3:0:0:
278,57,48186,6,0,L|352:79,1,62.9999980773926,2|8,1:2|0:2,0:0:0:0:
410,147,48511,2,0,L|336:169,1,62.9999980773926,10|2,0:2|1:2,0:0:0:0:
306,233,48835,1,10,0:2:0:0:
366,290,48997,1,8,0:2:0:0:
318,359,49159,1,8,0:3:0:0:
318,359,49322,1,4,0:3:0:0:
247,302,49484,6,2,B|154:328|154:328|149:349|149:349|20:383,1,245,2|0,0:1|0:1,0:1:0:0:
19,298,50781,5,4,0:2:0:0:
97,122,51430,1,4,0:2:0:0:
327,98,52078,6,0,L|306:28,2,73.4999977569581,2|2|2,1:2|0:2|0:2,0:0:0:0:
421,161,52727,2,0,L|440:90,2,73.4999977569581,10|2|2,0:2|0:2|0:2,0:0:0:0:
342,230,53376,6,0,L|266:252,1,74.6666666666667,6|8,0:2|0:2,0:0:0:0:
220,183,53700,2,0,L|232:134,2,37.3333333333333,8|8|8,0:2|0:2|0:2,0:0:0:0:
142,151,54024,2,0,L|132:113,2,37.3333333333333,8|8|8,0:3|0:3|0:3,0:0:0:0:
77,205,54349,2,0,L|67:242,2,37.3333333333333,4|4|4,0:3|0:3|0:3,0:0:0:0:
18,147,54673,5,2,0:2:0:0:
18,147,55970,1,2,0:2:0:0:
251,370,57268,6,0,L|268:278,1,84,4|0,1:2|0:2,0:2:0:0:
259,267,57592,2,0,L|249:231,3,28,2|0|2|0,1:2|3:2|3:2|3:2,0:0:0:0:
270,221,57916,2,0,L|280:185,3,28,2|0|2|0,1:2|3:2|3:2|3:2,0:0:0:0:
275,179,58241,5,10,1:2:0:0:
275,179,58322,1,8,0:2:0:0:
275,179,58403,1,10,0:2:0:0:
275,179,58484,1,8,0:2:0:0:
275,179,58565,1,2,0:2:0:0:
6,25,59214,6,0,L|105:57,1,84,2|0,0:2|0:2,0:2:0:0:
97,65,59538,2,0,L|115:141,1,56,2|2,0:2|0:2,0:2:0:0:
34,210,59862,6,0,P|30:265|122:280,1,161.000003070831,6|10,1:2|0:2,0:2:0:0:
191,315,60349,1,2,0:2:0:0:
247,255,60511,2,0,L|225:172,1,80.5000015354157,2|0,1:2|1:2,0:2:0:0:
296,126,60835,2,0,L|316:48,1,80.5000015354157,8|2,0:2|0:2,0:0:0:0:
406,22,61159,6,0,P|457:28|475:96,1,120.750002303124,2|0,1:2|0:2,0:2:0:0:
452,109,61484,2,0,L|431:192,1,80.5000015354157,10|0,0:2|0:0,0:2:0:0:
482,261,61808,1,2,1:2:0:0:
482,261,61970,1,2,0:2:0:0:
421,320,62132,2,0,L|317:350,1,80.5000015354157,10|0,0:2|0:2,0:2:0:0:
276,261,62457,6,0,L|192:233,1,80.5000015354157,2|0,1:2|0:2,0:0:0:0:
129,274,62781,1,10,0:2:0:0:
66,218,62943,2,0,P|62:157|153:140,1,161.000003070831,2|0,0:2|0:2,0:2:0:0:
211,85,63430,1,10,0:2:0:0:
298,233,63754,6,0,L|426:277,1,120.750002303124,2|0,1:2|0:2,0:2:0:0:
428,295,64078,2,0,P|476:301|483:216,1,120.750002303124,10|0,0:2|0:2,0:2:0:0:
486,226,64403,2,0,L|470:147,1,80.5000015354157,2|0,1:2|1:2,0:2:0:0:
499,73,64727,1,10,0:2:0:0:
435,23,64889,1,8,0:3:0:0:
435,23,64970,1,4,0:3:0:0:
435,23,65051,2,2,L|337:51,1,80.5000015354157,2|2,0:2|0:2,0:2:0:0:
236,18,65376,5,10,0:2:0:0:
256,94,65538,1,2,0:2:0:0:
280,170,65700,2,0,L|247:328,1,161.000003070831,2|8,1:2|0:2,0:2:0:0:
177,364,66186,1,2,0:2:0:0:
128,297,66349,6,0,L|9:259,1,120.750002303124,2|0,1:2|0:2,0:2:0:0:
1,243,66673,2,0,L|85:218,1,80.5000015354157,10|0,0:2|0:0,0:2:0:0:
119,151,66997,1,2,1:2:0:0:
119,151,67159,1,2,1:2:0:0:
157,75,67322,2,0,L|244:98,1,80.5000015354157,10|0,0:2|0:2,0:2:0:0:
298,38,67646,6,0,P|352:41|368:112,1,120.750002303124,2|2,1:2|0:0,0:0:0:0:
355,118,67970,1,8,0:0:0:0:
407,183,68132,1,2,0:2:0:0:
342,239,68295,2,0,L|261:210,2,80.5000015354157,2|2|10,1:2|1:2|0:2,0:0:0:0:
403,300,68781,1,2,1:2:0:0:
320,332,68943,6,0,L|220:363,1,80.5000015354157,10|0,0:2|0:0,0:2:0:0:
183,296,69268,2,0,L|99:270,1,80.5000015354157,10|0,0:2|0:0,0:2:0:0:
37,225,69592,2,0,L|15:144,1,80.5000015354157,10|8,0:3|0:3,0:0:0:0:
81,96,69916,1,6,0:3:0:0:
152,158,70078,1,6,0:3:0:0:
152,158,70159,1,4,0:3:0:0:
152,158,70241,6,0,L|239:185,1,80.5000015354157,4|0,1:2|0:0,0:2:0:0:
285,119,70565,2,0,L|372:92,1,80.5000015354157,10|0,0:0|0:0,0:0:0:0:
431,154,70889,1,2,1:2:0:0:
431,154,71051,1,2,1:2:0:0:
387,223,71214,1,10,0:2:0:0:
387,223,71376,1,2,0:2:0:0:
451,281,71538,6,0,L|473:372,1,80.5000015354157,0|0,1:2|0:2,0:2:0:0:
380,353,71862,2,0,L|301:334,1,80.5000015354157,10|0,0:2|0:2,0:2:0:0:
254,270,72186,1,2,1:2:0:0:
254,270,72349,1,2,1:2:0:0:
193,324,72511,1,10,0:2:0:0:
193,324,72674,1,2,0:2:0:0:
116,284,72835,6,0,P|94:210|175:181,1,161.000003070831,6|10,1:2|0:2,0:2:0:0:
211,116,73322,1,2,0:2:0:0:
285,160,73484,2,0,L|313:251,1,80.5000015354157,2|2,1:2|1:2,0:0:0:0:
383,181,73808,2,0,L|411:90,1,80.5000015354157,10|0,0:2|1:2,0:0:0:0:
381,9,74132,6,0,L|261:43,1,120.750002303124,6|2,0:2|0:2,0:2:0:0:
241,25,74457,1,8,0:2:0:0:
162,49,74619,1,2,1:2:0:0:
96,121,74781,6,8,L|130:241,1,120.750002303124,14|2,0:2|0:2,0:2:0:0:
112,261,75106,1,8,0:2:0:0:
144,346,75268,1,10,1:2:0:0:
144,346,75349,1,0,0:0:0:0:
144,346,75430,6,0,L|233:375,1,80.5000015354157,2|0,1:2|0:0,0:2:0:0:
279,316,75754,1,8,0:2:0:0:
344,373,75916,2,0,P|391:371|405:262,1,161.000003070831,2|2,0:2|0:2,0:2:0:0:
343,240,76403,2,0,L|326:162,1,80.5000015354157,10|0,0:2|0:2,0:2:0:0:
374,96,76727,1,2,1:2:0:0:
227,5,77051,6,0,L|151:31,1,80.5000015354157,10|0,0:2|0:2,0:2:0:0:
73,99,77376,2,0,L|149:125,1,80.5000015354157,0|0,1:2|1:2,0:0:0:0:
196,194,77700,1,10,0:2:0:0:
302,327,78024,6,0,L|383:362,1,80.5000015354157,2|0,1:2|1:2,0:0:0:0:
412,283,78349,2,0,L|485:251,1,80.5000015354157,8|8,0:2|0:2,0:0:0:0:
434,185,78673,1,10,0:2:0:0:
434,185,78835,1,8,0:2:0:0:
469,108,78997,1,8,0:2:0:0:
469,108,79159,1,8,0:2:0:0:
382,84,79322,6,0,L|248:52,1,119.000002269745,6|0,1:2|0:2,0:2:0:0:
209,3,79808,1,8,0:3:0:0:
29,150,80295,1,4,0:3:0:0:
183,150,80619,5,2,0:2:0:0:
183,150,81916,1,2,0:2:0:0:
450,340,83214,5,2,1:2:0:0:
194,17,87105,5,2,0:2:0:0:
232,90,87268,1,2,0:2:0:0:
232,90,87592,6,0,L|222:128,1,29.7500005674362,2|2,0:2|0:2,0:0:0:0:
202,145,87754,2,0,L|123:163,2,59.5000011348725,10|10|8,0:2|0:3|0:3,0:0:0:0:
270,209,88241,1,4,0:3:0:0:
270,209,88322,1,4,0:3:0:0:
270,209,88403,6,0,L|295:306,2,79.3333348464966,4|10|4,1:2|0:3|0:3,0:0:0:0:
348,151,89051,2,0,L|373:54,2,79.3333348464966,0|8|4,1:2|0:3|0:3,0:0:0:0:
431,208,89700,2,0,L|448:287,1,79.3333348464966,6|8,1:2|0:2,0:0:0:0:
374,336,90024,6,0,L|363:374,2,39.6666674232483,8|8|8,0:2|0:2|0:2,0:0:0:0:
279,303,90349,2,0,L|291:346,2,39.6666674232483,8|8|8,0:3|0:3|0:3,0:0:0:0:
208,341,90673,2,0,L|197:379,2,39.6666674232483,4|4|4,0:3|0:3|0:3,0:0:0:0:
147,285,90997,5,6,1:2:0:0:
214,173,91484,1,2,0:2:0:0:
148,56,91970,1,2,0:2:0:0:
214,9,92132,2,0,L|260:21,1,29.7500005674362,0|0,3:3|3:3,0:0:0:0:
268,31,92295,6,0,L|307:186,1,154.000004699707,2|0,0:2|0:0,0:2:0:0:
6,269,93592,6,0,B|69:255|95:308|59:329|98:385|165:366,1,195.999994018555,6|8,1:2|0:2,0:2:0:0:
149,369,94727,1,8,0:2:0:0:
196,302,94889,2,0,L|298:332,1,97.9999970092774,2|0,0:2|0:2,0:2:0:0:
348,270,95376,2,0,L|406:250,2,48.9999985046387,2|0|0,0:2|0:0|0:2,0:2:0:0:
283,215,95862,1,2,0:2:0:0:
167,60,96186,6,0,P|77:57|67:146,1,195.999994018555,2|10,1:2|0:2,0:2:0:0:
67,146,97159,2,0,L|89:200,1,48.9999985046387,2|8,0:2|0:2,0:2:0:0:
16,258,97484,2,0,L|118:284,1,97.9999970092774,2|0,0:2|1:2,0:2:0:0:
177,226,97970,2,0,L|162:164,2,48.9999985046387,2|0|0,0:2|0:0|0:2,0:2:0:0:
238,279,98457,1,2,0:2:0:0:
392,380,98781,6,0,L|426:187,1,195.999994018555,2|10,1:2|0:2,0:2:0:0:
466,116,99592,2,0,L|521:98,2,48.9999985046387,0|2|2,0:2|0:2|0:2,0:0:0:0:
390,57,100078,6,0,L|287:30,1,97.9999970092774,2|0,0:2|1:2,0:2:0:0:
233,165,100727,2,0,L|138:189,1,97.9999970092774,10|0,0:2|0:2,0:2:0:0:
306,368,101376,5,2,1:2:0:0:
306,368,101538,1,2,0:2:0:0:
306,368,101700,1,2,0:2:0:0:
370,308,101862,5,10,0:2:0:0:
370,308,102024,1,2,0:2:0:0:
370,308,102186,1,2,0:2:0:0:
454,332,102349,5,2,1:2:0:0:
246,230,102835,5,2,1:2:0:0:
262,152,102997,1,2,1:2:0:0:
277,74,103159,1,2,1:2:0:0:
277,74,103484,5,2,0:2:0:0:
124,15,103970,5,2,1:2:0:0:
124,15,104132,1,2,0:2:0:0:
124,15,104295,2,0,L|142:81,1,62.9999980773926,10|2,0:2|0:2,0:0:0:0:
82,228,104781,5,0,1:2:0:0:
16,279,104943,2,0,L|-1:340,1,62.9999980773926,10|0,0:2|0:2,0:0:0:0:
70,380,105268,2,0,L|137:362,1,62.9999980773926,0|2,1:2|0:2,0:0:0:0:
210,380,105592,1,10,0:2:0:0:
242,304,105754,2,0,L|272:177,1,125.999996154785,2|0,0:2|1:2,0:2:0:0:
344,231,106241,2,0,L|411:212,1,62.9999980773926,10|0,0:2|0:2,0:2:0:0:
469,165,106565,5,2,1:2:0:0:
469,165,106727,1,2,0:2:0:0:
469,165,106889,2,0,L|490:102,1,62.9999980773926,10|2,0:2|0:2,0:0:0:0:
357,24,107376,5,0,1:2:0:0:
308,90,107538,2,0,L|239:113,1,62.9999980773926,10|0,0:2|0:2,0:2:0:0:
191,50,107862,1,2,1:2:0:0:
127,109,108024,6,0,L|134:143,3,31.4999990386963,2|2|10|2,0:2|0:2|0:2|0:2,0:2:0:0:
158,158,108349,2,0,L|150:191,3,31.4999990386963,2|2|2|10,0:2|0:2|0:2|0:2,0:2:0:0:
129,204,108673,2,0,L|136:237,3,31.4999990386963,2|2|14|2,1:2|0:2|0:2|0:2,0:0:0:0:
164,260,108997,1,2,1:2:0:0:
164,260,109078,1,2,0:2:0:0:
164,260,109159,6,0,L|293:297,1,125.999996154785,6|8,1:2|0:2,0:2:0:0:
338,230,109646,2,0,L|304:106,1,125.999996154785,2|0,0:2|1:2,0:2:0:0:
356,44,110132,1,8,0:2:0:0:
481,152,110457,6,0,L|443:285,1,125.999996154785,2|8,1:2|0:2,0:2:0:0:
484,350,110943,2,0,L|344:383,1,125.999996154785,2|0,0:2|1:2,0:2:0:0:
307,323,111430,1,10,0:2:0:0:
307,323,111592,1,0,1:2:0:0:
247,255,111754,6,0,L|186:236,1,62.9999980773926,6|0,1:2|0:2,0:0:0:0:
146,160,112078,2,0,L|207:141,1,62.9999980773926,10|0,0:2|0:2,0:0:0:0:
247,74,112403,1,2,1:2:0:0:
247,74,112565,1,10,0:3:0:0:
319,110,112727,1,6,0:3:0:0:
368,43,112889,2,0,P|419:36|457:102,1,125.999996154785,6|0,1:2|0:2,0:2:0:0:
441,115,113295,1,0,0:0:0:0:
441,115,113376,2,0,L|426:182,1,62.9999980773926,2|2,1:2|0:2,0:2:0:0:
356,220,113700,2,0,L|371:287,2,62.9999980773926,10|2|10,0:3|0:2|0:2,0:2:0:0:
233,353,114349,5,2,1:2:0:0:
233,353,114511,1,2,0:2:0:0:
171,295,114673,1,2,1:2:0:0:
171,295,114835,1,2,0:2:0:0:
99,335,114997,2,0,L|58:351,4,31.4999990386963,2|2|2|2|2,1:2|0:2|0:2|0:2|1:2,0:2:0:0:
21,274,115484,5,8,0:2:0:0:
21,274,115565,1,8,0:2:0:0:
21,274,115646,2,0,L|53:143,1,125.999996154785,2|0,1:2|1:2,0:2:0:0:
0,85,116132,2,0,P|6:39|90:33,1,125.999996154785,10|0,0:2|0:2,0:2:0:0:
152,55,116619,2,0,L|165:124,1,62.9999980773926,2|4,1:2|0:3,0:0:0:0:
235,166,116943,5,6,1:2:0:0:
235,166,117105,1,2,0:2:0:0:
296,111,117268,1,2,1:2:0:0:
296,111,117430,1,2,0:2:0:0:
371,145,117592,2,0,L|364:178,4,31.4999990386963,2|2|2|2|2,1:2|0:2|0:2|0:2|1:2,0:2:0:0:
435,247,118078,5,10,0:2:0:0:
435,247,118159,1,10,0:2:0:0:
435,247,118241,2,0,L|302:289,1,125.999996154785,2|0,1:2|1:2,0:2:0:0:
257,346,118727,2,0,L|185:321,1,62.9999980773926,4|0,0:2|1:0,0:0:0:0:
150,256,119051,2,0,L|78:281,1,62.9999980773926,0|0,0:0|1:0,0:0:0:0:
33,218,119376,1,0,0:0:0:0:
33,218,119457,1,0,0:0:0:0:
33,218,119538,6,0,L|64:92,1,125.999996154785,6|0,1:2|1:2,0:2:0:0:
128,42,120024,1,0,0:2:0:0:
190,99,120186,2,0,L|257:78,1,62.9999980773926,2|8,1:2|0:2,0:0:0:0:
289,9,120511,2,0,L|349:27,1,62.9999980773926,2|6,1:2|0:3,0:0:0:0:
367,50,120754,1,4,0:3:0:0:
367,50,120835,6,0,L|394:180,1,125.999996154785,2|2,1:2|1:2,0:2:0:0:
477,274,121322,2,0,L|406:258,1,62.9999980773926,6|0,0:2|1:2,0:2:0:0:
345,310,121646,2,0,L|364:377,2,62.9999980773926,10|8|6,0:3|0:3|0:3,0:0:0:0:
329,296,122051,1,4,0:3:0:0:
329,296,122132,6,0,L|196:330,1,125.999996154785,2|2,1:2|1:2,0:2:0:0:
129,288,122619,2,0,L|107:362,2,62.9999980773926,6|0|8,0:2|1:2|0:2,0:2:0:0:
85,222,123105,1,6,0:3:0:0:
85,222,123268,1,4,0:3:0:0:
136,158,123430,6,0,L|206:141,1,62.9999980773926,2|8,1:2|0:2,0:0:0:0:
222,64,123754,2,0,L|292:81,1,62.9999980773926,8|0,0:2|1:2,0:0:0:0:
351,35,124078,1,10,0:2:0:0:
379,110,124241,1,8,0:2:0:0:
438,51,124403,1,4,0:3:0:0:
438,51,124565,1,4,0:3:0:0:
465,128,124727,6,2,L|408:370,1,245,2|0,0:1|0:1,0:1:0:0:
337,312,126024,1,6,0:2:0:0:
200,375,126673,1,6,0:2:0:0:
78,264,127322,6,0,L|0:241,2,73.4999977569581,6|2|2,1:2|0:2|0:2,0:0:0:0:
142,177,127970,2,0,L|216:154,2,73.4999977569581,10|2|2,0:2|0:2|0:2,0:0:0:0:
77,124,128619,6,0,L|93:37,1,74.6666666666667,4|8,1:2|0:2,0:0:0:0:
174,42,128943,2,0,L|165:-2,2,37.3333333333333,8|8|8,0:2|0:2|0:2,0:0:0:0:
252,77,129268,2,0,L|261:33,2,37.3333333333333,8|8|8,0:3|0:3|0:3,0:0:0:0:
326,114,129592,2,0,L|335:158,2,37.3333333333333,8|8|8,0:2|0:2|0:2,0:0:0:0:
392,65,129916,5,6,0:2:0:0:
396,70,131214,1,2,0:2:0:0:
490,255,132511,6,0,L|398:279,1,84,0|0,1:2|0:2,0:2:0:0:
383,251,132835,2,0,L|345:243,3,28,2|0|2|0,1:2|3:2|3:2|3:2,0:0:0:0:
337,268,133159,2,0,L|299:276,3,28,2|0|2|0,1:2|3:2|3:2|3:2,0:0:0:0:
303,313,133484,5,10,1:2:0:0:
303,313,133565,1,8,0:2:0:0:
303,313,133646,1,10,0:2:0:0:
303,313,133727,1,8,0:2:0:0:
303,313,133808,1,2,0:2:0:0:
5,8,134457,6,0,L|25:109,1,84,2|0,0:2|0:2,0:2:0:0:
40,109,134781,2,0,L|98:128,1,56,2|2,0:2|0:2,0:2:0:0:
161,74,135105,6,0,P|222:80|228:170,1,161.000003070831,2|10,1:2|0:2,0:2:0:0:
153,197,135592,1,2,0:2:0:0:
105,265,135754,2,0,L|127:348,1,80.5000015354157,2|0,1:2|1:2,0:2:0:0:
213,383,136078,2,0,L|235:300,1,80.5000015354157,8|2,0:2|0:2,0:0:0:0:
315,343,136403,6,0,L|458:308,1,120.750002303124,2|0,1:2|0:2,0:2:0:0:
446,295,136727,2,0,L|463:213,1,80.5000015354157,10|0,0:2|0:0,0:2:0:0:
412,154,137051,1,2,1:2:0:0:
412,154,137214,1,2,1:2:0:0:
348,207,137376,2,10,L|270:228,1,80.5000015354157,10|0,0:2|0:2,0:2:0:0:
213,172,137700,5,2,1:2:0:0:
213,172,137862,1,2,0:2:0:0:
163,97,138024,1,10,0:2:0:0:
84,115,138186,2,0,L|47:277,1,161.000003070831,2|0,0:2|1:2,0:2:0:0:
131,306,138673,2,0,L|151:386,1,80.5000015354157,10|0,0:2|0:2,0:2:0:0:
239,324,138997,6,0,P|300:329|327:268,1,120.750002303124,2|0,1:2|0:2,0:2:0:0:
349,264,139322,2,0,L|331:139,1,120.750002303124,10|0,0:2|0:2,0:2:0:0:
309,128,139646,2,0,L|230:106,1,80.5000015354157,2|0,1:2|1:2,0:2:0:0:
160,147,139970,1,10,0:2:0:0:
103,91,140132,1,8,0:3:0:0:
103,91,140214,1,4,0:3:0:0:
103,91,140295,2,0,L|22:112,1,80.5000015354157,2|2,0:2|0:2,0:2:0:0:
73,189,140619,5,10,0:2:0:0:
94,267,140781,1,2,0:2:0:0:
118,346,140943,2,0,L|281:382,1,161.000003070831,2|8,1:2|0:2,0:2:0:0:
335,323,141430,1,2,0:2:0:0:
269,270,141592,6,0,L|251:142,1,120.750002303124,2|0,1:2|0:2,0:2:0:0:
275,127,141916,2,0,L|373:148,1,80.5000015354157,10|0,0:2|0:0,0:2:0:0:
413,204,142241,1,0,1:2:0:0:
418,209,142403,1,2,1:2:0:0:
477,146,142565,2,0,L|458:65,1,80.5000015354157,10|0,0:2|0:2,0:2:0:0:
386,33,142889,6,0,L|263:8,1,120.750002303124,2|2,1:2|0:2,0:2:0:0:
244,28,143214,1,8,0:2:0:0:
179,80,143376,1,2,0:2:0:0:
179,80,143538,2,0,L|162:162,1,80.5000015354157,2|2,1:2|1:2,0:0:0:0:
232,213,143862,2,0,L|249:295,1,80.5000015354157,10|2,0:2|1:2,0:0:0:0:
189,352,144186,6,0,L|86:328,1,80.5000015354157,10|0,1:2|0:0,0:2:0:0:
32,356,144511,2,0,L|12:269,1,80.5000015354157,10|0,1:2|0:0,0:2:0:0:
35,198,144835,2,0,L|118:216,1,80.5000015354157,6|10,0:2|0:3,0:0:0:0:
174,154,145159,1,10,0:3:0:0:
250,214,145322,1,6,0:3:0:0:
250,214,145403,1,4,0:3:0:0:
250,214,145484,6,0,L|272:136,1,80.5000015354157,6|0,1:2|0:0,0:2:0:0:
332,83,145808,2,0,L|410:61,1,80.5000015354157,8|0,0:0|0:0,0:0:0:0:
481,114,146132,5,2,1:2:0:0:
481,114,146295,1,2,1:2:0:0:
434,183,146457,1,10,0:2:0:0:
434,183,146620,1,2,0:2:0:0:
484,250,146781,6,0,L|463:340,1,80.5000015354157,0|0,1:2|0:2,0:2:0:0:
375,384,147105,2,0,L|356:305,1,80.5000015354157,10|0,0:2|0:2,0:2:0:0:
280,334,147430,1,2,1:2:0:0:
280,334,147592,1,2,1:2:0:0:
212,282,147754,1,10,0:2:0:0:
212,282,147916,1,2,0:2:0:0:
252,211,148078,6,0,L|281:47,1,161.000003070831,4|10,1:2|0:2,0:2:0:0:
213,4,148565,1,2,0:2:0:0:
156,69,148727,2,0,L|77:86,1,80.5000015354157,2|0,1:2|1:2,0:2:0:0:
6,163,149051,2,0,L|84:180,1,80.5000015354157,10|0,0:2|1:2,0:0:0:0:
158,262,149376,6,0,P|190:267|222:187,1,120.750002303124,2|2,0:2|0:2,0:2:0:0:
205,181,149700,1,8,0:2:0:0:
238,108,149862,1,2,1:2:0:0:
318,73,150024,6,0,P|350:68|382:148,1,120.750002303124,10|2,0:2|0:2,0:2:0:0:
365,154,150348,1,8,0:2:0:0:
433,223,150510,1,2,0:2:0:0:
433,223,150592,1,0,0:0:0:0:
433,223,150673,6,0,L|400:382,1,161.000003070831,6|8,1:2|0:2,0:2:0:0:
328,331,151159,2,0,L|243:356,1,80.5000015354157,2|0,0:2|1:2,0:2:0:0:
186,302,151484,1,2,0:2:0:0:
241,239,151646,2,0,L|259:157,1,80.5000015354157,10|0,0:2|0:2,0:2:0:0:
212,93,151970,1,2,1:2:0:0:
462,12,152295,6,0,L|443:95,1,80.5000015354157,10|0,0:2|0:2,0:2:0:0:
366,118,152619,2,0,L|348:196,1,80.5000015354157,2|0,1:2|1:2,0:2:0:0:
396,267,152943,1,10,0:2:0:0:
258,325,153268,6,0,L|104:375,1,161.000003070831,6|8,1:2|0:2,0:2:0:0:
48,317,153754,1,0,0:2:0:0:
92,249,153916,1,2,1:2:0:0:
92,249,154078,1,0,1:2:0:0:
77,164,154241,2,0,L|0:140,2,80.5000015354157,8|0|2,0:2|1:2|1:2,0:0:0:0:
143,115,154727,5,12,0:2:0:0:
217,159,154889,1,12,0:2:0:0:
217,159,155051,1,0,1:2:0:0:
269,98,155214,2,0,L|246:19,2,80.5000015354157,10|8|8,0:2|0:3|0:3,0:0:0:0:
348,145,155700,1,4,0:3:0:0:
348,145,155781,1,4,0:3:0:0:
348,145,155862,5,2,0:2:0:0:
378,73,157159,1,2,0:2:0:0:
497,195,157808,6,0,L|380:233,1,120.750002303124,8|0,0:3|0:2,0:2:0:0:
369,263,158132,1,4,0:3:0:0:
369,263,158295,1,4,0:3:0:0:
296,210,158457,5,2,1:2:0:0:
296,210,158619,1,2,0:2:0:0:
193,321,158943,1,2,0:2:0:0:
193,321,159105,1,2,1:2:0:0:
193,321,159268,1,2,0:2:0:0:
53,237,159592,6,0,L|24:229,2,29.7500005674362,2|0|2,3:2|3:2|1:2,0:0:0:0:
112,184,159916,1,2,0:2:0:0:
112,184,160078,1,2,1:2:0:0:
64,115,160241,1,10,0:2:0:0:
123,57,160403,2,0,L|142:-11,2,59.5000011348725,2|10|6,1:2|0:3|0:3,0:0:0:0:
193,123,160889,1,2,0:2:0:0:
193,123,160970,1,2,0:2:0:0:
193,123,161051,2,0,L|268:106,1,59.5000011348725,2|2,1:2|0:2,0:0:0:0:
392,5,161538,5,2,0:2:0:0:
392,5,161700,1,2,1:2:0:0:
392,5,161862,2,0,L|412:68,1,59.5000011348725,2|0,0:2|1:2,0:2:0:0:
366,129,162186,1,8,0:2:0:0:
434,183,162349,6,0,L|405:310,1,119.000002269745,2|2,1:2|0:2,0:0:0:0:
336,335,162835,2,0,L|275:355,1,59.5000011348725,2|2,0:2|0:2,0:0:0:0:
221,295,163159,2,0,L|236:234,2,59.5000011348725,2|2|2,0:2|0:2|0:2,0:0:0:0:
147,337,163646,6,0,L|83:357,1,59.5000011348725,2|2,1:2|0:2,0:0:0:0:
65,274,163970,2,0,L|8:256,1,59.5000011348725,2|2,1:2|0:2,0:0:0:0:
0,174,164295,1,2,1:2:0:0:
128,33,164619,6,0,L|145:93,1,59.5000011348725,2|8,1:2|0:2,0:0:0:0:
222,129,164943,1,2,1:2:0:0:
222,129,165105,1,2,0:2:0:0:
285,71,165268,2,0,L|346:92,1,59.5000011348725,2|8,1:2|0:2,0:0:0:0:
419,58,165592,2,0,L|407:0,2,59.5000011348725,2|10|2,1:2|0:2|1:2,0:0:0:0:
487,119,166078,5,2,0:2:0:0:
487,119,166159,1,2,0:2:0:0:
487,119,166241,2,0,L|465:187,1,59.5000011348725,2|2,1:2|0:2,0:0:0:0:
406,230,166565,1,2,1:2:0:0:
406,230,166727,1,2,0:2:0:0:
485,260,166889,1,2,1:2:0:0:
242,367,167214,5,2,1:2:0:0:
242,367,167376,1,10,0:2:0:0:
252,288,167538,1,6,1:2:0:0:
262,209,167700,1,2,0:2:0:0:
262,209,168024,6,0,L|252:165,1,29.7500005674362,2|0,0:2|0:2,0:2:0:0:
277,154,168186,1,10,0:3:0:0:
234,87,168349,1,10,0:3:0:0:
282,22,168511,1,6,0:3:0:0:
178,153,168835,6,0,L|72:184,1,90.9999958343508,6|0,1:2|0:2,0:2:0:0:
25,302,169484,2,0,L|112:327,1,90.9999958343508,10|0,0:2|0:2,0:2:0:0:
212,366,169970,1,8,0:2:0:0:
212,366,170132,2,0,L|194:272,2,90.9999958343508,2|0|8,0:2|1:2|0:2,0:2:0:0:
331,190,171268,6,0,L|325:164,1,22.7499989585877,2|2,0:2|0:2,0:0:0:0:
320,149,171430,2,0,L|413:176,1,90.9999958343508,2|0,1:2|0:2,0:2:0:0:
281,19,172078,2,0,L|188:46,1,90.9999958343508,10|0,0:2|0:2,0:2:0:0:
139,104,172565,2,0,L|130:137,1,22.7499989585877,2|2,0:2|0:2,0:0:0:0:
120,139,172727,2,0,L|57:159,2,45.4999979171754,2|0|0,0:2|0:2|1:2,0:2:0:0:
217,259,173376,2,0,L|201:350,1,90.9999958343508,8|4,0:2|0:2,0:2:0:0:
119,347,173862,1,2,0:2:0:0:
119,347,173943,1,2,0:2:0:0:
119,347,174024,6,0,L|125:320,3,22.7499989585877,2|0|2|0,1:2|3:2|3:2|3:2,0:0:0:0:
106,311,174349,2,0,L|100:284,3,22.7499989585877,2|0|2|0,1:2|3:2|3:2|3:2,0:0:0:0:
119,265,174673,2,0,L|135:199,1,66.4999982242585,2|2,1:2|0:2,0:2:0:0:
63,156,174997,2,0,L|45:85,1,66.4999982242585,2|2,1:2|0:2,0:2:0:0:
118,41,175322,6,0,L|155:51,3,26.2500010013581,2|0|2|0,1:2|3:2|3:2|3:2,0:0:0:0:
166,30,175646,2,0,L|203:20,3,26.2500010013581,2|0|2|0,1:2|3:2|3:2|3:2,0:0:0:0:
214,46,175970,2,0,L|199:126,1,73.4999977569581,2|0,1:2|0:2,0:2:0:0:
263,195,176295,1,2,1:2:0:0:
263,195,176376,1,0,0:2:0:0:
263,195,176457,1,2,0:2:0:0:
263,195,176538,1,0,0:2:0:0:
263,195,176619,6,0,L|247:279,1,80.5000015354157,2|2,1:2|1:2,0:0:0:0:
328,305,176943,2,0,L|315:389,1,80.5000015354157,10|10,0:2|0:2,0:0:0:0:
423,272,177268,2,0,L|407:188,1,80.5000015354157,2|2,1:2|1:2,0:0:0:0:
494,157,177592,2,0,L|478:73,1,80.5000015354157,10|10,0:2|0:2,0:0:0:0:
411,31,177916,5,2,0:2:0:0:
411,31,178078,1,10,0:3:0:0:
364,98,178241,1,10,0:3:0:0:
364,98,178403,1,6,0:3:0:0:
284,61,178565,5,6,0:3:0:0:
207,30,178727,1,6,0:3:0:0:
154,98,178889,1,6,0:2:0:0:
77,130,179051,1,2,0:2:0:0:
15,72,179214,5,2,0:2:0:0:
256,192,179295,12,0,181808,0:0:0:0:
449,34,188295,5,2,0:2:0:0:
449,34,188943,2,0,L|435:98,1,62.9999980773926,0|2,0:2|0:2,0:0:0:0:
355,90,189592,6,0,L|322:100,3,31.4999990386963,0|0|0|0,0:2|0:2|0:2|0:2,0:2:0:0:
268,39,190889,2,0,L|237:29,3,31.4999990386963,0|0|0|0,0:2|0:2|0:2|0:2,0:2:0:0:
177,86,192186,2,0,L|186:116,3,31.4999990386963,0|0|0|0,0:2|0:2|0:2|0:2,0:2:0:0:
151,190,193484,6,0,L|80:173,2,62.9999980773926,2|2|2,0:2|0:2|0:2,0:2:0:0:
196,259,194457,1,2,0:2:0:0:
302,191,194781,5,2,0:2:0:0:
354,133,196078,1,2,0:2:0:0:
428,173,197214,2,0,L|424:194,2,15.7499995193482,0|0|2,3:2|3:2|0:2,0:0:0:0:
50,25,198673,5,0,1:2:0:0:
50,25,198835,1,0,1:2:0:0:
0,298,199322,6,0,L|112:270,1,89.2500017023087,2|0,0:2|0:2,0:2:0:0:
102,258,199646,2,0,L|117:191,1,59.5000011348725,2|2,0:2|0:2,0:2:0:0:
183,129,199970,6,0,P|248:123|282:212,1,161.000003070831,6|10,1:2|0:2,0:2:0:0:
228,260,200457,1,2,0:2:0:0:
286,320,200619,2,0,L|365:295,1,80.5000015354157,2|0,1:2|1:2,0:2:0:0:
424,235,200943,2,0,L|399:156,1,80.5000015354157,8|2,0:2|0:2,0:0:0:0:
457,84,201268,6,0,L|329:49,1,120.750002303124,2|0,1:2|0:2,0:2:0:0:
327,28,201592,2,0,L|244:53,1,80.5000015354157,10|0,0:2|0:0,0:2:0:0:
181,8,201916,1,2,1:2:0:0:
181,8,202078,1,2,1:2:0:0:
118,65,202241,2,0,L|102:143,1,80.5000015354157,10|0,0:2|0:2,0:2:0:0:
45,206,202565,5,6,1:2:0:0:
45,206,202727,1,0,0:2:0:0:
90,271,202889,1,10,0:2:0:0:
159,229,203051,2,0,P|217:228|263:319,1,161.000003070831,2|0,0:2|1:2,0:2:0:0:
337,368,203538,2,0,P|356:324|391:307,1,80.5000015354157,10|0,0:2|0:2,0:2:0:0:
462,248,203862,6,0,L|346:206,1,120.750002303124,0|0,1:2|0:2,0:2:0:0:
319,221,204186,2,0,P|275:190|296:121,1,120.750002303124,10|0,0:2|0:2,0:2:0:0:
313,123,204511,2,0,L|333:38,1,80.5000015354157,2|0,1:2|1:2,0:0:0:0:
257,9,204835,1,10,0:2:0:0:
197,69,204997,1,8,0:2:0:0:
197,69,205078,1,8,0:3:0:0:
197,69,205159,2,0,L|116:92,1,80.5000015354157,6|2,0:3|0:2,0:2:0:0:
56,144,205484,5,10,0:2:0:0:
78,218,205646,1,2,0:2:0:0:
105,293,205808,2,0,L|265:338,1,161.000003070831,2|8,1:2|0:2,0:2:0:0:
317,279,206295,1,2,0:2:0:0:
382,328,206457,6,0,P|433:326|449:254,1,120.750002303124,2|0,1:2|0:2,0:2:0:0:
468,248,206781,2,0,L|450:160,1,80.5000015354157,10|0,0:2|0:0,0:2:0:0:
485,95,207105,1,2,1:2:0:0:
485,95,207268,1,2,1:2:0:0:
420,34,207430,2,0,L|332:57,1,80.5000015354157,10|0,0:2|0:2,0:2:0:0:
259,9,207754,6,0,L|237:132,1,120.750002303124,2|2,1:2|0:0,0:2:0:0:
255,149,208078,1,10,0:2:0:0:
306,212,208241,1,2,0:2:0:0:
247,270,208403,2,0,L|170:246,1,80.5000015354157,2|2,1:2|1:2,0:0:0:0:
129,174,208727,2,0,L|52:198,1,80.5000015354157,10|2,0:2|1:2,0:0:0:0:
2,128,209051,6,0,L|19:49,1,80.5000015354157,10|0,0:2|0:0,0:2:0:0:
97,0,209376,2,0,L|114:79,1,80.5000015354157,10|0,0:3|0:0,0:2:0:0:
193,114,209700,1,2,0:2:0:0:
258,58,209862,6,0,L|248:15,3,40.2500007677078,10|8|10|8,0:2|0:2|0:2|0:2,0:0:0:0:
287,80,210186,1,10,0:3:0:0:
287,80,210268,1,8,0:3:0:0:
287,80,210349,2,0,L|249:239,1,161.000003070831,4|10,1:2|0:2,0:2:0:0:
303,297,210835,1,0,0:2:0:0:
364,243,210997,5,10,0:2:0:0:
364,243,211159,1,2,1:2:0:0:
440,288,211322,1,10,0:2:0:0:
440,288,211484,1,2,1:2:0:0:
488,220,211646,6,0,L|523:60,1,161.000003070831,8|10,0:2|0:2,0:2:0:0:
463,3,212132,1,0,0:2:0:0:
399,57,212295,1,10,0:2:0:0:
328,22,212457,1,2,1:2:0:0:
328,22,212538,1,0,1:2:0:0:
328,22,212619,1,10,0:2:0:0:
271,80,212781,1,2,1:2:0:0:
201,42,212943,6,0,P|131:56|126:143,1,161.000003070831,4|10,1:2|0:2,0:2:0:0:
189,179,213430,1,2,0:2:0:0:
245,243,213592,2,0,L|224:322,1,80.5000015354157,10|0,0:2|1:2,0:0:0:0:
147,302,213916,2,0,L|68:323,1,80.5000015354157,10|4,0:2|0:3,0:0:0:0:
20,245,214241,6,0,L|6:190,2,53.6666676902771,6|0|0,0:2|0:0|0:2,0:2:0:0:
102,204,214565,2,0,L|115:152,2,53.6666676902771,8|8|8,0:2|0:2|0:2,0:0:0:0:
202,171,214889,2,0,L|189:119,2,53.6666676902771,8|8|8,0:3|0:3|0:3,0:0:0:0:
273,222,215214,1,4,0:3:0:0:
278,231,215322,1,4,0:3:0:0:
283,240,215430,1,4,0:3:0:0:
287,249,215538,6,0,L|443:298,1,161.000003070831,2|10,1:2|0:2,0:2:0:0:
479,225,216024,2,0,L|462:146,1,80.5000015354157,2|0,0:2|1:2,0:2:0:0:
496,71,216349,1,2,1:2:0:0:
432,18,216511,2,0,L|349:43,1,80.5000015354157,10|0,0:2|0:2,0:2:0:0:
281,7,216835,1,2,1:2:0:0:
103,92,217159,6,0,L|124:172,1,80.5000015354157,10|0,0:2|0:2,0:2:0:0:
87,247,217484,1,2,1:2:0:0:
87,247,217646,1,0,1:2:0:0:
149,301,217808,2,0,L|232:277,1,80.5000015354157,10|0,0:2|0:2,0:2:0:0:
307,349,218132,6,0,L|321:267,1,80.5000015354157,2|0,1:2|1:2,0:0:0:0:
409,262,218457,2,0,L|395:180,1,80.5000015354157,8|8,0:2|0:2,0:0:0:0:
338,127,218781,1,10,0:2:0:0:
338,127,218943,1,8,0:2:0:0:
376,55,219105,1,8,0:2:0:0:
376,55,219268,1,8,0:2:0:0:
298,10,219430,6,0,L|135:59,1,161.000003070831,6|0,1:2|3:0,0:0:0:0:
57,48,219916,2,0,L|70:4,2,40.2500007677078,8|8|10,0:3|0:3|0:3,0:0:0:0:
92,127,220241,2,0,L|192:151,2,80.5000015354157,4|4|4,0:3|0:3|0:3,0:0:0:0:
32,182,220727,5,2,1:2:0:0:
32,182,222024,1,2,0:2:0:0:
169,376,222673,6,0,L|184:317,2,53.6666676902771,2|2|2,0:0|0:2|0:2,0:0:0:0:
268,332,222997,2,0,L|255:280,2,53.6666676902771,2|2|2,0:0|0:2|0:2,0:0:0:0:
346,373,223322,6,4,P|410:370|420:266,1,161.000003070831,6|8,1:2|0:2,1:2:0:0:
392,216,223808,2,0,L|298:190,1,80.5000015354157,2|0,0:2|1:2,0:2:0:0:
276,126,224132,1,0,1:2:0:0:
307,51,224295,1,10,0:2:0:0:
307,51,224457,1,2,0:2:0:0:
391,38,224619,6,0,P|450:61|447:166,1,161.000003070831,2|8,1:2|0:2,0:2:0:0:
395,205,225105,1,0,0:2:0:0:
335,257,225268,2,0,L|313:343,1,80.5000015354157,2|0,1:2|1:2,0:0:0:0:
241,369,225592,1,8,0:2:0:0:
30,249,225916,6,0,L|199:203,1,161.000003070831,2|8,1:2|0:2,0:2:0:0:
224,133,226403,2,0,L|315:157,1,80.5000015354157,2|0,0:2|1:2,0:2:0:0:
363,99,226727,1,0,1:2:0:0:
426,158,226889,1,10,0:2:0:0:
426,158,227051,1,2,0:2:0:0:
368,222,227214,6,0,L|333:384,1,161.000003070831,2|8,1:2|0:2,0:2:0:0:
257,344,227700,2,0,L|170:322,1,80.5000015354157,2|0,0:2|1:2,0:2:0:0:
108,367,228024,1,0,1:2:0:0:
68,297,228186,1,10,0:2:0:0:
140,253,228349,1,0,0:2:0:0:
140,253,228430,1,8,0:2:0:0:
140,253,228511,6,0,L|181:95,1,161.000003070831,6|8,1:2|0:2,0:2:0:0:
243,45,228997,2,0,L|326:26,1,80.5000015354157,2|0,0:2|1:0,0:2:0:0:
390,78,229322,1,0,1:2:0:0:
334,138,229484,2,0,L|315:219,1,80.5000015354157,10|0,0:2|0:2,0:2:0:0:
374,277,229808,6,0,P|371:337|275:348,1,161.000003070831,2|8,1:2|0:2,0:2:0:0:
240,289,230295,1,0,0:2:0:0:
181,340,230457,2,0,L|83:368,1,80.5000015354157,2|0,1:2|1:2,0:0:0:0:
44,305,230781,1,8,0:2:0:0:
0,101,231105,6,0,L|101:123,1,80.5000015354157,6|0,1:2|0:0,0:2:0:0:
138,58,231430,1,10,0:2:0:0:
138,58,231592,1,2,0:2:0:0:
206,109,231754,2,0,L|232:197,1,80.5000015354157,2|0,1:2|1:2,0:2:0:0:
198,262,232078,1,8,0:2:0:0:
271,320,232241,1,2,0:2:0:0:
271,320,232322,1,2,0:2:0:0:
271,320,232403,6,0,L|357:342,1,80.5000015354157,10|2,0:2|1:2,0:0:0:0:
408,284,232727,1,14,0:2:0:0:
463,222,232889,2,0,L|449:143,1,80.5000015354157,2|8,1:2|0:2,0:0:0:0:
394,78,233214,6,0,L|402:35,3,40.2500007677078,2|0|8|8,1:2|0:2|0:2|0:2,0:2:0:0:
376,102,233538,1,8,0:2:0:0:
376,102,233619,1,8,0:2:0:0:
376,102,233700,6,0,L|270:131,1,83.9999974365235,2|2,1:2|0:2,0:0:0:0:
236,66,234024,1,8,0:2:0:0:
179,126,234186,2,0,L|160:207,1,83.9999974365235,2|8,0:2|0:2,0:2:0:0:
207,273,234511,1,2,1:2:0:0:
267,215,234673,2,0,P|310:210|344:241,1,83.9999974365235,10|0,0:2|1:2,0:0:0:0:
410,284,234997,5,10,0:2:0:0:
410,284,235159,1,2,0:2:0:0:
350,345,235322,2,0,L|261:372,1,83.9999974365235,10|0,0:2|0:2,0:2:0:0:
187,357,235646,1,8,0:2:0:0:
187,357,235808,1,2,1:2:0:0:
119,304,235970,2,0,L|97:216,1,83.9999974365235,10|0,0:2|1:2,0:2:0:0:
140,154,236295,5,10,0:2:0:0:
203,209,236457,2,0,L|290:228,1,83.9999974365235,2|8,0:2|0:2,0:2:0:0:
335,159,236781,2,0,L|422:140,1,83.9999974365235,2|8,0:2|0:2,0:0:0:0:
455,70,237105,1,2,1:2:0:0:
393,11,237268,2,0,P|354:9|326:40,1,83.9999974365235,10|0,0:2|1:2,0:0:0:0:
266,94,237592,5,14,0:2:0:0:
197,49,237754,1,2,1:2:0:0:
128,91,237916,2,0,L|106:177,1,83.9999974365235,10|0,0:2|1:2,0:2:0:0:
163,231,238241,1,4,0:2:0:0:
105,290,238403,1,2,1:2:0:0:
105,290,238484,1,0,1:2:0:0:
105,290,238565,1,8,0:2:0:0:
359,380,238889,6,0,L|338:254,1,125.999996154785,2|0,1:2|3:2,0:0:0:0:
353,232,239214,2,0,L|388:218,3,28,2|0|2|0,1:2|3:2|3:0|3:0,0:0:0:0:
397,197,239538,2,0,L|432:211,3,28,0|0|2|0,1:0|3:0|3:0|3:0,0:0:0:0:
455,193,239862,2,0,L|469:158,3,28,2|0|0|0,1:2|3:2|3:2|3:2,0:0:0:0:
493,140,240186,2,0,L|479:105,3,28,0|0|0|0,1:2|3:2|3:2|3:2,0:0:0:0:
456,95,240511,2,0,L|470:60,3,28,2|0|0|0,1:2|3:2|3:2|3:2,0:0:0:0:
436,33,240835,2,0,L|369:55,1,56,2|0,1:2|3:2,0:0:0:0:
307,90,241159,5,10,1:2:0:0:
305,87,241241,1,8,0:2:0:0:
303,84,241322,1,8,0:2:0:0:
302,81,241403,1,8,0:2:0:0:
300,77,241484,2,0,L|204:53,1,83.9999974365235,4|8,1:2|1:2,0:0:0:0:
164,123,241808,2,0,L|68:147,2,83.9999974365235,8|8|8,0:3|0:3|0:3,0:0:0:0:
237,175,242295,5,10,0:3:0:0:
179,247,242457,1,2,0:2:0:0:
244,312,242619,1,6,0:2:0:0:
66,368,244078,6,0,L|80:318,1,41.9999987182618,2|2,1:2|0:2,0:0:0:0:
24,269,244403,2,0,L|38:219,1,41.9999987182618,2|2,1:2|0:2,0:0:0:0:
0,155,244727,1,2,1:2:0:0:
109,49,245051,6,0,L|162:63,1,41.9999987182618,2|0,1:2|0:2,0:0:0:0:
208,125,245376,1,2,1:2:0:0:
208,125,245538,1,0,0:2:0:0:
345,26,245862,5,2,0:2:0:0:
345,26,246024,2,0,L|357:70,1,41.9999987182618,2|0,1:2|0:2,0:0:0:0:
433,101,246349,2,0,L|421:145,1,41.9999987182618,2|0,1:2|0:2,0:0:0:0:
361,201,246673,6,0,L|303:213,1,41.9999987182618,2|0,1:2|0:2,0:0:0:0:
255,160,246997,2,0,L|211:191,1,41.9999987182618,2|0,1:2|0:2,0:0:0:0:
160,239,247322,1,2,1:2:0:0:
253,349,247646,6,0,L|304:363,1,41.9999987182618,2|0,1:2|0:2,0:0:0:0:
352,309,247970,1,2,1:2:0:0:
352,309,248132,1,0,0:2:0:0:
145,220,248457,5,2,0:2:0:0:
192,156,248619,1,2,1:2:0:0:
192,156,248781,1,2,0:2:0:0:
138,92,248943,1,2,0:2:0:0:
193,29,249105,5,6,0:2:0:0:
