osu file format v14

[General]
AudioFilename: audio.mp3
AudioLeadIn: 0
PreviewTime: 235675
Countdown: 0
SampleSet: Soft
StackLeniency: 0.7
Mode: 3
LetterboxInBreaks: 0
SpecialStyle: 0
WidescreenStoryboard: 0

[Editor]
DistanceSpacing: 0.9
BeatDivisor: 4
GridSize: 16
TimelineZoom: 2.999999

[Metadata]
Title:CLICK (Soleily Remix)
TitleUnicode:CLICK (Soleily Remix)
Artist:ClariS
ArtistUnicode:ClariS
Creator:_Rokii
Version:Memories // 7K
Source:ニセコイ
Tags:touru0711 deta5859 nisekoi false love opening clara alice japanese electronic Anime Shaft SECL-1457 dnb drum bass livetune
BeatmapID:2562321
BeatmapSetID:1232531

[Difficulty]
HPDrainRate:8
CircleSize:7
OverallDifficulty:8
ApproachRate:5
SliderMultiplier:1.4
SliderTickRate:1

[Events]
//Background and Video events
0,0,"BG.jpg",0,0
//Break Periods
//Storyboard Layer 0 (Background)
//Storyboard Layer 1 (Fail)
//Storyboard Layer 2 (Pass)
//Storyboard Layer 3 (Foreground)
//Storyboard Layer 4 (Overlay)
//Storyboard Sound Samples

[TimingPoints]
2904,361.44578313253,4,2,1,60,1,0
60735,-100,4,2,1,60,0,1
70855,-100,4,2,1,60,0,0
72301,-100,4,2,1,60,0,1
80976,-100,4,2,1,60,0,0
156157,-100,4,2,1,60,0,1
179289,-100,4,2,1,60,0,0
237120,-100,4,2,1,60,0,1
247241,-100,4,2,1,60,0,0
248687,-100,4,2,1,60,0,1
260253,-100,4,2,1,60,0,0

[HitObjects]
256,192,3265,128,0,4349:0:0:0:0:
36,192,4349,128,0,4530:0:0:0:0:
475,192,4349,1,0,0:0:0:0:
402,192,4440,1,0,0:0:0:0:
329,192,4530,1,0,0:0:0:0:
256,192,4620,1,0,0:0:0:0:
402,192,4711,1,0,0:0:0:0:
329,192,4801,1,0,0:0:0:0:
256,192,4891,1,0,0:0:0:0:
182,192,4982,1,0,0:0:0:0:
36,192,5072,1,0,0:0:0:0:
109,192,5163,1,0,0:0:0:0:
182,192,5253,1,0,0:0:0:0:
256,192,5343,1,0,0:0:0:0:
109,192,5434,1,0,0:0:0:0:
182,192,5524,1,0,0:0:0:0:
256,192,5614,1,0,0:0:0:0:
329,192,5705,1,0,0:0:0:0:
109,192,5795,128,0,5976:0:0:0:0:
475,192,5795,1,0,0:0:0:0:
402,192,5885,1,0,0:0:0:0:
329,192,5976,1,0,0:0:0:0:
256,192,6066,1,0,0:0:0:0:
402,192,6157,1,0,0:0:0:0:
329,192,6247,1,0,0:0:0:0:
256,192,6337,1,0,0:0:0:0:
182,192,6428,1,0,0:0:0:0:
36,192,6518,1,0,0:0:0:0:
402,192,6518,128,0,6699:0:0:0:0:
109,192,6608,1,0,0:0:0:0:
182,192,6699,1,0,0:0:0:0:
256,192,6789,1,0,0:0:0:0:
109,192,6879,1,0,0:0:0:0:
182,192,6970,1,0,0:0:0:0:
256,192,7060,1,0,0:0:0:0:
329,192,7150,1,0,0:0:0:0:
402,192,7241,1,0,0:0:0:0:
475,192,7241,128,0,7422:0:0:0:0:
329,192,7331,1,0,0:0:0:0:
256,192,7422,1,0,0:0:0:0:
182,192,7512,1,0,0:0:0:0:
475,192,7602,1,0,0:0:0:0:
402,192,7693,1,0,0:0:0:0:
329,192,7783,1,0,0:0:0:0:
256,192,7873,1,0,0:0:0:0:
36,192,7964,1,0,0:0:0:0:
402,192,7964,128,0,8144:0:0:0:0:
109,192,8054,1,0,0:0:0:0:
182,192,8144,1,0,0:0:0:0:
256,192,8235,1,0,0:0:0:0:
109,192,8325,1,0,0:0:0:0:
182,192,8416,1,0,0:0:0:0:
256,192,8506,1,0,0:0:0:0:
329,192,8596,1,0,0:0:0:0:
109,192,8687,128,0,8867:0:0:0:0:
475,192,8687,1,0,0:0:0:0:
402,192,8777,1,0,0:0:0:0:
329,192,8867,1,0,0:0:0:0:
256,192,8958,1,0,0:0:0:0:
402,192,9048,1,0,0:0:0:0:
329,192,9138,1,0,0:0:0:0:
256,192,9229,1,0,0:0:0:0:
182,192,9319,1,0,0:0:0:0:
36,192,9410,1,0,0:0:0:0:
402,192,9410,128,0,9590:0:0:0:0:
109,192,9500,1,0,0:0:0:0:
182,192,9590,1,0,0:0:0:0:
256,192,9681,1,0,0:0:0:0:
109,192,9771,1,0,0:0:0:0:
182,192,9861,1,0,0:0:0:0:
256,192,9952,1,0,0:0:0:0:
329,192,10042,1,0,0:0:0:0:
36,192,10132,128,4,10494:0:0:0:0:
109,192,10132,128,2,10494:0:0:0:0:
402,192,10132,128,0,10494:0:0:0:0:
475,192,10132,128,0,10494:0:0:0:0:
182,192,10494,1,0,0:0:0:0:
256,192,10675,1,0,0:0:0:0:
475,192,10855,1,0,0:0:0:0:
402,192,10946,1,0,0:0:0:0:
329,192,11036,1,0,0:0:0:0:
256,192,11126,1,0,0:0:0:0:
36,192,11217,1,0,0:0:0:70:LR3_Snare FCSRL.wav
402,192,11217,1,0,0:0:0:0:
475,192,11217,1,0,0:0:0:0:
109,192,11277,1,0,0:0:0:0:
182,192,11337,1,0,0:0:0:0:
475,192,11397,1,0,0:0:0:0:
402,192,11458,1,0,0:0:0:0:
329,192,11518,1,0,0:0:0:0:
36,192,11578,1,2,0:0:0:0:
109,192,11578,128,4,11849:0:0:0:0:
182,192,11578,1,0,0:0:0:0:
256,192,11578,1,0,0:0:0:0:
329,192,11759,1,0,0:0:0:0:
402,192,11849,128,0,12120:0:0:0:0:
36,192,11940,1,8,0:0:0:0:
256,192,11940,1,0,0:0:0:0:
475,192,11940,1,0,0:0:0:0:
182,192,12120,128,0,12663:0:0:0:0:
109,192,12301,1,2,0:0:0:0:
475,192,12301,1,0,0:0:0:0:
329,192,12482,1,0,0:0:0:0:
36,192,12663,1,8,0:0:0:0:
256,192,12663,1,0,0:0:0:0:
402,192,12663,1,0,0:0:0:0:
475,192,12843,128,0,13024:0:0:0:0:
329,192,12934,128,0,13024:0:0:0:0:
36,192,13024,128,2,13295:0:0:0:0:
182,192,13024,1,0,0:0:0:0:
329,192,13205,1,0,0:0:0:0:
402,192,13295,128,0,13566:0:0:0:0:
109,192,13385,1,8,0:0:0:0:
256,192,13385,1,0,0:0:0:0:
475,192,13385,1,0,0:0:0:0:
182,192,13566,128,0,14108:0:0:0:0:
36,192,13747,1,2,0:0:0:0:
329,192,13747,1,0,0:0:0:0:
402,192,13928,1,0,0:0:0:0:
109,192,14108,1,8,0:0:0:0:
256,192,14108,1,0,0:0:0:0:
475,192,14108,1,0,0:0:0:0:
36,192,14289,128,0,14470:0:0:0:0:
182,192,14379,128,0,14470:0:0:0:0:
329,192,14470,128,2,14741:0:0:0:0:
475,192,14470,1,0,0:0:0:0:
182,192,14650,1,0,0:0:0:0:
109,192,14741,128,0,15012:0:0:0:0:
36,192,14831,1,8,0:0:0:0:
256,192,14831,1,0,0:0:0:0:
402,192,14831,1,0,0:0:0:0:
475,192,15012,128,0,15554:0:0:0:0:
36,192,15193,1,2,0:0:0:0:
182,192,15193,1,0,0:0:0:0:
329,192,15373,1,0,0:0:0:0:
109,192,15554,1,8,0:0:0:0:
256,192,15554,1,0,0:0:0:0:
402,192,15554,1,0,0:0:0:0:
329,192,15735,128,0,15916:0:0:0:0:
475,192,15825,128,0,15916:0:0:0:0:
36,192,15916,128,2,16096:0:0:0:0:
109,192,15916,1,0,0:0:0:0:
402,192,16096,128,0,16277:0:0:0:0:
36,192,16277,1,8,0:0:0:0:
256,192,16277,128,0,16458:0:0:0:0:
475,192,16277,1,0,0:0:0:0:
182,192,16458,128,0,17000:0:0:0:0:
109,192,16638,1,2,0:0:0:0:
402,192,16638,1,0,0:0:0:0:
329,192,16819,1,0,0:0:0:0:
109,192,17000,1,8,0:0:0:0:
256,192,17000,1,0,0:0:0:0:
475,192,17000,1,0,0:0:0:0:
402,192,17060,1,0,0:0:0:0:
329,192,17120,1,0,0:0:0:0:
36,192,17181,1,0,0:0:0:0:
109,192,17241,1,0,0:0:0:0:
182,192,17301,1,0,0:0:0:0:
256,192,17361,1,2,0:0:0:0:
475,192,17361,128,0,17632:0:0:0:0:
182,192,17542,1,0,0:0:0:0:
109,192,17632,128,0,17903:0:0:0:0:
36,192,17723,1,8,0:0:0:0:
256,192,17723,1,0,0:0:0:0:
329,192,17723,1,0,0:0:0:0:
402,192,17903,1,0,0:0:0:0:
475,192,17903,128,0,18446:0:0:0:0:
36,192,18084,1,2,0:0:0:0:
329,192,18084,1,0,0:0:0:0:
182,192,18265,1,0,0:0:0:0:
109,192,18446,1,8,0:0:0:0:
256,192,18446,1,0,0:0:0:0:
402,192,18446,1,0,0:0:0:0:
36,192,18626,128,0,18807:0:0:0:0:
182,192,18717,128,0,18807:0:0:0:0:
329,192,18807,1,2,0:0:0:0:
475,192,18807,128,0,19078:0:0:0:0:
182,192,18988,1,0,0:0:0:0:
109,192,19078,128,0,19349:0:0:0:0:
36,192,19169,1,8,0:0:0:0:
256,192,19169,1,0,0:0:0:0:
402,192,19169,1,0,0:0:0:0:
329,192,19349,128,0,19891:0:0:0:0:
182,192,19530,1,2,0:0:0:0:
475,192,19530,1,0,0:0:0:0:
109,192,19711,1,0,0:0:0:0:
36,192,19891,1,8,0:0:0:0:
256,192,19891,1,0,0:0:0:0:
402,192,19891,1,0,0:0:0:0:
475,192,20072,128,0,20253:0:0:0:0:
329,192,20163,128,0,20253:0:0:0:0:
36,192,20253,1,2,0:0:0:0:
182,192,20253,128,0,20524:0:0:0:0:
329,192,20434,1,0,0:0:0:0:
402,192,20524,128,0,20795:0:0:0:0:
109,192,20614,1,8,0:0:0:0:
256,192,20614,1,0,0:0:0:0:
475,192,20614,1,0,0:0:0:0:
36,192,20795,128,0,21337:0:0:0:0:
182,192,20976,1,2,0:0:0:0:
475,192,20976,1,0,0:0:0:0:
329,192,21157,1,0,0:0:0:0:
256,192,21337,1,8,0:0:0:0:
402,192,21337,1,0,0:0:0:0:
475,192,21337,1,0,0:0:0:0:
182,192,21518,128,0,21699:0:0:0:0:
36,192,21608,128,0,21699:0:0:0:0:
109,192,21699,1,2,0:0:0:0:
256,192,21699,1,4,0:0:0:0:
402,192,21699,1,0,0:0:0:0:
475,192,21699,128,0,21879:0:0:0:0:
329,192,21879,128,0,22060:0:0:0:0:
36,192,22060,1,8,0:0:0:0:
109,192,22060,1,0,0:0:0:0:
256,192,22060,128,0,22331:0:0:0:0:
182,192,22150,128,0,22331:0:0:0:0:
36,192,22331,128,2,22602:0:0:0:0:
329,192,22331,1,4,0:0:0:0:
402,192,22331,1,0,0:0:0:0:
475,192,22331,1,0,0:0:0:0:
182,192,22602,128,2,22783:0:0:0:0:
329,192,22602,1,0,0:0:0:0:
36,192,22783,1,0,0:0:0:70:LR3_Snare FCSRL.wav
256,192,22783,1,0,0:0:0:0:
475,192,22783,128,0,23054:0:0:0:0:
402,192,22873,128,0,23054:0:0:0:0:
329,192,22964,128,0,23054:0:0:0:0:
36,192,23144,1,2,0:0:0:0:
182,192,23144,128,4,23416:0:0:0:0:
329,192,23144,1,0,0:0:0:0:
475,192,23144,1,0,0:0:0:0:
402,192,23416,128,0,23687:0:0:0:0:
109,192,23506,1,8,0:0:0:0:
256,192,23506,1,0,0:0:0:0:
475,192,23506,1,0,0:0:0:0:
36,192,23687,128,0,24229:0:0:0:0:
182,192,23867,1,2,0:0:0:0:
475,192,23867,1,0,0:0:0:0:
402,192,24048,1,0,0:0:0:0:
109,192,24229,1,8,0:0:0:0:
256,192,24229,1,0,0:0:0:0:
329,192,24229,1,0,0:0:0:0:
475,192,24410,128,0,24590:0:0:0:0:
329,192,24500,128,0,24590:0:0:0:0:
36,192,24590,128,2,24861:0:0:0:0:
182,192,24590,1,0,0:0:0:0:
329,192,24771,1,0,0:0:0:0:
402,192,24861,128,0,25132:0:0:0:0:
109,192,24952,1,8,0:0:0:0:
256,192,24952,1,0,0:0:0:0:
475,192,24952,1,0,0:0:0:0:
182,192,25132,128,0,25675:0:0:0:0:
36,192,25313,1,2,0:0:0:0:
329,192,25313,1,0,0:0:0:0:
402,192,25494,1,0,0:0:0:0:
109,192,25675,1,8,0:0:0:0:
256,192,25675,1,0,0:0:0:0:
475,192,25675,1,0,0:0:0:0:
36,192,25855,128,0,26036:0:0:0:0:
182,192,25946,128,0,26036:0:0:0:0:
329,192,26036,128,2,26307:0:0:0:0:
475,192,26036,1,0,0:0:0:0:
182,192,26217,1,0,0:0:0:0:
109,192,26307,128,0,26578:0:0:0:0:
36,192,26397,1,8,0:0:0:0:
256,192,26397,1,0,0:0:0:0:
402,192,26397,1,0,0:0:0:0:
475,192,26578,128,0,27120:0:0:0:0:
182,192,26759,1,2,0:0:0:0:
329,192,26759,1,0,0:0:0:0:
109,192,26940,1,0,0:0:0:0:
36,192,27120,1,8,0:0:0:0:
256,192,27120,1,0,0:0:0:0:
402,192,27120,1,0,0:0:0:0:
329,192,27301,128,0,27482:0:0:0:0:
475,192,27391,128,0,27482:0:0:0:0:
36,192,27482,128,2,27663:0:0:0:0:
182,192,27482,1,0,0:0:0:0:
402,192,27663,128,0,27843:0:0:0:0:
36,192,27843,1,8,0:0:0:0:
256,192,27843,128,0,28024:0:0:0:0:
475,192,27843,1,0,0:0:0:0:
182,192,28024,128,0,28566:0:0:0:0:
109,192,28205,1,2,0:0:0:0:
329,192,28205,1,0,0:0:0:0:
475,192,28385,1,0,0:0:0:0:
36,192,28566,1,8,0:0:0:0:
256,192,28566,1,0,0:0:0:0:
402,192,28566,1,0,0:0:0:0:
109,192,28626,1,0,0:0:0:0:
182,192,28687,1,0,0:0:0:0:
475,192,28747,1,0,0:0:0:0:
402,192,28807,1,0,0:0:0:0:
329,192,28867,1,0,0:0:0:0:
36,192,28928,128,2,29199:0:0:0:0:
109,192,28928,1,4,0:0:0:0:
256,192,28928,1,0,0:0:0:0:
475,192,28928,1,0,0:0:0:0:
182,192,29108,1,0,0:0:0:0:
109,192,29199,128,0,29470:0:0:0:0:
256,192,29289,1,8,0:0:0:0:
329,192,29289,1,0,0:0:0:0:
402,192,29289,1,0,0:0:0:0:
475,192,29470,128,0,30012:0:0:0:0:
36,192,29650,1,2,0:0:0:0:
329,192,29650,1,0,0:0:0:0:
109,192,29831,1,0,0:0:0:0:
182,192,30012,1,8,0:0:0:0:
256,192,30012,1,0,0:0:0:0:
402,192,30012,1,0,0:0:0:0:
36,192,30193,128,0,30373:0:0:0:0:
182,192,30283,128,0,30373:0:0:0:0:
109,192,30373,1,4,0:0:0:0:
256,192,30373,1,2,0:0:0:0:
329,192,30373,1,0,0:0:0:0:
475,192,30373,128,0,30644:0:0:0:0:
402,192,30554,1,0,0:0:0:0:
109,192,30644,128,0,30916:0:0:0:0:
36,192,30735,1,8,0:0:0:0:
182,192,30735,1,0,0:0:0:0:
256,192,30735,1,0,0:0:0:0:
329,192,30916,128,0,31458:0:0:0:0:
36,192,31096,1,2,0:0:0:0:
475,192,31096,1,0,0:0:0:0:
109,192,31277,1,0,0:0:0:0:
182,192,31458,1,8,0:0:0:0:
256,192,31458,1,0,0:0:0:0:
402,192,31458,1,0,0:0:0:0:
475,192,31638,128,0,31819:0:0:0:0:
329,192,31729,128,0,31819:0:0:0:0:
36,192,31819,1,4,0:0:0:0:
109,192,31819,1,2,0:0:0:0:
182,192,31819,128,0,32090:0:0:0:0:
402,192,31819,1,0,0:0:0:0:
256,192,31910,1,0,0:0:0:0:
329,192,32000,1,0,0:0:0:0:
402,192,32090,128,0,32361:0:0:0:0:
256,192,32181,1,8,0:0:0:0:
329,192,32181,1,0,0:0:0:0:
475,192,32181,1,0,0:0:0:0:
182,192,32271,1,0,0:0:0:0:
36,192,32361,128,0,32903:0:0:0:0:
109,192,32452,1,0,0:0:0:0:
182,192,32542,1,2,0:0:0:0:
256,192,32542,1,4,0:0:0:0:
402,192,32542,1,0,0:0:0:0:
475,192,32542,1,0,0:0:0:0:
329,192,32632,1,0,0:0:0:0:
109,192,32723,1,0,0:0:0:0:
182,192,32813,1,0,0:0:0:0:
256,192,32903,1,8,0:0:0:0:
329,192,32903,1,0,0:0:0:0:
402,192,32903,1,0,0:0:0:0:
475,192,32994,1,0,0:0:0:0:
182,192,33084,128,0,33265:0:0:0:0:
36,192,33175,128,0,33265:0:0:0:0:
109,192,33265,1,2,0:0:0:0:
256,192,33265,1,4,0:0:0:0:
402,192,33265,1,0,0:0:0:0:
475,192,33265,128,0,33446:0:0:0:0:
329,192,33446,128,0,33626:0:0:0:0:
36,192,33626,128,8,33897:0:0:0:0:
182,192,33717,128,0,33897:0:0:0:0:
402,192,33897,128,0,34169:0:0:0:0:
109,192,34169,128,2,34349:0:0:0:0:
182,192,34349,128,8,34620:0:0:0:0:
256,192,34440,128,0,34620:0:0:0:0:
329,192,34530,128,0,34620:0:0:0:0:
36,192,34711,1,2,0:0:0:0:
182,192,34711,1,4,0:0:0:0:
329,192,34711,1,0,0:0:0:0:
475,192,34711,1,0,0:0:0:0:
475,192,34891,1,0,0:0:0:0:
475,192,35072,1,0,0:0:0:0:
475,192,35253,1,0,0:0:0:0:
475,192,35434,1,0,0:0:0:0:
475,192,35614,1,0,0:0:0:0:
475,192,35795,1,0,0:0:0:0:
475,192,35976,1,0,0:0:0:0:
36,192,36157,1,0,0:0:0:0:
36,192,36337,1,0,0:0:0:0:
36,192,36518,1,0,0:0:0:0:
36,192,36699,1,0,0:0:0:0:
36,192,36879,1,0,0:0:0:0:
36,192,37060,1,0,0:0:0:0:
36,192,37241,1,0,0:0:0:0:
36,192,37422,1,0,0:0:0:0:
329,192,37602,1,0,0:0:0:0:
329,192,37783,1,0,0:0:0:0:
329,192,37964,1,0,0:0:0:0:
329,192,38144,1,0,0:0:0:0:
329,192,38325,1,0,0:0:0:0:
329,192,38506,1,0,0:0:0:0:
329,192,38687,1,0,0:0:0:0:
329,192,38867,1,0,0:0:0:0:
182,192,39048,1,0,0:0:0:0:
182,192,39229,1,0,0:0:0:0:
182,192,39410,1,0,0:0:0:0:
182,192,39590,1,0,0:0:0:0:
182,192,39771,1,0,0:0:0:0:
182,192,39952,1,0,0:0:0:0:
182,192,40132,1,0,0:0:0:0:
182,192,40313,1,0,0:0:0:0:
402,192,40494,1,0,0:0:0:0:
402,192,40675,1,0,0:0:0:0:
402,192,40855,1,0,0:0:0:0:
402,192,41036,1,0,0:0:0:0:
402,192,41217,1,0,0:0:0:0:
402,192,41397,1,0,0:0:0:0:
402,192,41578,1,0,0:0:0:0:
402,192,41759,1,0,0:0:0:0:
109,192,41940,1,0,0:0:0:0:
109,192,42120,1,0,0:0:0:0:
109,192,42301,1,0,0:0:0:0:
109,192,42482,1,0,0:0:0:0:
109,192,42663,1,0,0:0:0:0:
109,192,42843,1,0,0:0:0:0:
109,192,43024,1,0,0:0:0:0:
109,192,43205,1,0,0:0:0:0:
475,192,43385,1,0,0:0:0:0:
475,192,43566,1,0,0:0:0:0:
475,192,43747,1,0,0:0:0:0:
475,192,43928,1,0,0:0:0:0:
475,192,44108,1,0,0:0:0:0:
475,192,44289,1,0,0:0:0:0:
475,192,44470,1,0,0:0:0:0:
475,192,44650,1,0,0:0:0:0:
36,192,44831,1,0,0:0:0:0:
36,192,45012,1,0,0:0:0:0:
36,192,45193,1,0,0:0:0:0:
36,192,45373,1,0,0:0:0:0:
36,192,45554,1,0,0:0:0:0:
36,192,45735,1,0,0:0:0:0:
109,192,45916,1,0,0:0:0:70:LR3_Snare FCSRL.wav
256,192,45916,1,0,0:0:0:0:
402,192,45916,1,0,0:0:0:0:
36,192,46277,1,4,0:0:0:0:
182,192,46277,1,2,0:0:0:0:
329,192,46277,1,0,0:0:0:0:
475,192,46277,1,0,0:0:0:0:
36,192,46548,1,2,0:0:0:0:
182,192,46548,1,4,0:0:0:0:
329,192,46548,1,0,0:0:0:0:
475,192,46548,1,0,0:0:0:0:
36,192,46819,128,2,47181:0:0:0:0:
182,192,46819,128,4,47181:0:0:0:0:
329,192,46819,128,0,47181:0:0:0:0:
475,192,46819,128,0,47181:0:0:0:0:
475,192,47361,1,8,0:0:0:0:
402,192,47422,1,0,0:0:0:0:
329,192,47482,1,0,0:0:0:0:
109,192,47542,1,0,0:0:0:0:
182,192,47602,1,0,0:0:0:0:
256,192,47663,1,0,0:0:0:0:
36,192,47723,128,4,48084:0:0:0:0:
329,192,47723,128,2,48084:0:0:0:0:
402,192,47723,128,0,48084:0:0:0:0:
475,192,47723,128,0,48084:0:0:0:0:
36,192,48265,128,2,48626:0:0:0:0:
109,192,48265,128,4,48626:0:0:0:0:
182,192,48265,128,0,48626:0:0:0:0:
475,192,48265,128,0,48626:0:0:0:0:
256,192,48807,1,0,0:0:0:70:LR3_Snare LRW.wav
329,192,48807,1,0,0:0:0:0:
402,192,48807,1,0,0:0:0:0:
36,192,49169,1,2,0:0:0:0:
182,192,49169,1,4,0:0:0:0:
329,192,49169,1,0,0:0:0:0:
475,192,49169,1,0,0:0:0:0:
36,192,49440,1,2,0:0:0:0:
182,192,49440,1,4,0:0:0:0:
329,192,49440,1,0,0:0:0:0:
475,192,49440,1,0,0:0:0:0:
36,192,49711,128,4,50072:0:0:0:0:
182,192,49711,128,2,50072:0:0:0:0:
329,192,49711,128,0,50072:0:0:0:0:
475,192,49711,128,0,50072:0:0:0:0:
109,192,50253,1,8,0:0:0:0:
256,192,50253,1,0,0:0:0:0:
402,192,50253,1,0,0:0:0:0:
36,192,50434,128,4,50795:0:0:0:0:
182,192,50434,128,2,50795:0:0:0:0:
329,192,50434,128,0,50795:0:0:0:0:
475,192,50434,128,0,50795:0:0:0:0:
109,192,50976,1,8,0:0:0:0:
256,192,50976,1,0,0:0:0:0:
402,192,50976,1,0,0:0:0:0:
36,192,51157,128,4,51518:0:0:0:0:
182,192,51157,128,2,51518:0:0:0:0:
329,192,51157,128,0,51518:0:0:0:0:
475,192,51157,128,0,51518:0:0:0:0:
36,192,51699,1,0,0:0:0:70:LR3_Snare FCSRL.wav
256,192,51699,1,0,0:0:0:0:
475,192,51699,1,0,0:0:0:0:
36,192,52060,1,2,0:0:0:0:
182,192,52060,1,4,0:0:0:0:
329,192,52060,1,0,0:0:0:0:
475,192,52060,1,0,0:0:0:0:
36,192,52331,1,4,0:0:0:0:
182,192,52331,1,2,0:0:0:0:
329,192,52331,1,0,0:0:0:0:
475,192,52331,1,0,0:0:0:0:
36,192,52602,128,2,52964:0:0:0:0:
182,192,52602,128,4,52964:0:0:0:0:
329,192,52602,128,0,52964:0:0:0:0:
475,192,52602,128,0,52964:0:0:0:0:
36,192,53144,1,8,0:0:0:0:
109,192,53205,1,0,0:0:0:0:
182,192,53265,1,0,0:0:0:0:
402,192,53325,1,0,0:0:0:0:
329,192,53385,1,0,0:0:0:0:
256,192,53446,1,0,0:0:0:0:
36,192,53506,1,2,0:0:0:0:
109,192,53506,1,4,0:0:0:0:
182,192,53506,1,0,0:0:0:0:
475,192,53506,1,0,0:0:0:0:
36,192,53777,1,4,0:0:0:0:
329,192,53777,1,2,0:0:0:0:
402,192,53777,1,0,0:0:0:0:
475,192,53777,1,0,0:0:0:0:
36,192,54048,128,4,54410:0:0:0:0:
182,192,54048,128,2,54410:0:0:0:0:
329,192,54048,128,0,54410:0:0:0:0:
475,192,54048,128,0,54410:0:0:0:0:
109,192,54590,1,8,0:0:0:0:
256,192,54590,1,0,0:0:0:0:
402,192,54590,1,0,0:0:0:0:
36,192,54771,128,4,55132:0:0:0:0:
182,192,54771,128,2,55132:0:0:0:0:
329,192,54771,128,0,55132:0:0:0:0:
475,192,54771,128,0,55132:0:0:0:0:
36,192,55313,1,8,0:0:0:0:
256,192,55313,1,0,0:0:0:0:
475,192,55313,1,0,0:0:0:0:
109,192,55494,1,0,0:0:0:0:
182,192,55675,1,2,0:0:0:0:
402,192,55675,1,0,0:0:0:0:
329,192,55855,1,0,0:0:0:0:
36,192,56036,1,8,0:0:0:0:
256,192,56036,1,0,0:0:0:0:
475,192,56036,1,0,0:0:0:0:
109,192,56217,1,0,0:0:0:0:
36,192,56397,1,2,0:0:0:0:
182,192,56397,1,4,0:0:0:0:
329,192,56397,1,0,0:0:0:0:
475,192,56397,1,0,0:0:0:0:
402,192,56578,1,0,0:0:0:0:
36,192,56759,1,8,0:0:0:0:
256,192,56759,1,0,0:0:0:0:
475,192,56759,1,0,0:0:0:0:
109,192,56940,1,0,0:0:0:0:
182,192,57120,1,2,0:0:0:0:
329,192,57120,1,0,0:0:0:0:
402,192,57301,1,0,0:0:0:0:
36,192,57482,1,8,0:0:0:0:
256,192,57482,1,0,0:0:0:0:
475,192,57482,1,0,0:0:0:0:
109,192,57663,1,0,0:0:0:0:
36,192,57843,1,2,0:0:0:0:
182,192,57843,1,4,0:0:0:0:
329,192,57843,1,0,0:0:0:0:
475,192,57843,1,0,0:0:0:0:
182,192,58024,1,2,0:0:0:0:
475,192,58024,1,0,0:0:0:0:
109,192,58205,1,8,0:0:0:0:
256,192,58205,1,2,0:0:0:0:
402,192,58205,1,0,0:0:0:0:
109,192,58385,1,2,0:0:0:0:
402,192,58385,1,0,0:0:0:0:
36,192,58566,1,2,0:0:0:0:
182,192,58566,1,4,0:0:0:0:
329,192,58566,1,0,0:0:0:0:
475,192,58566,1,0,0:0:0:0:
36,192,58747,1,2,0:0:0:0:
329,192,58747,1,0,0:0:0:0:
109,192,58928,1,2,0:0:0:0:
256,192,58928,1,8,0:0:0:0:
402,192,58928,1,0,0:0:0:0:
109,192,59108,1,2,0:0:0:0:
402,192,59108,1,0,0:0:0:0:
36,192,59289,128,2,59470:0:0:0:0:
182,192,59289,1,4,0:0:0:0:
256,192,59289,1,0,0:0:0:0:
475,192,59289,1,0,0:0:0:0:
109,192,59379,128,0,59560:0:0:0:0:
182,192,59470,128,0,59650:0:0:0:0:
329,192,59470,1,0,0:0:0:0:
256,192,59560,128,0,59741:0:0:0:0:
109,192,59650,128,0,59831:0:0:0:0:
402,192,59650,1,0,0:0:0:0:
182,192,59741,128,0,59922:0:0:0:0:
256,192,59831,128,0,60012:0:0:0:0:
475,192,59831,1,0,0:0:0:0:
329,192,59922,128,0,60102:0:0:0:0:
36,192,60012,1,0,0:0:0:0:
182,192,60012,128,0,60193:0:0:0:0:
256,192,60102,128,0,60283:0:0:0:0:
109,192,60193,1,0,0:0:0:0:
329,192,60193,128,0,60373:0:0:0:0:
402,192,60283,128,0,60464:0:0:0:0:
182,192,60373,1,0,0:0:0:0:
256,192,60373,128,0,60554:0:0:0:0:
329,192,60464,128,0,60644:0:0:0:0:
36,192,60554,1,0,0:0:0:0:
402,192,60554,128,0,60735:0:0:0:0:
475,192,60644,128,0,60735:0:0:0:0:
36,192,60735,128,2,61096:0:0:0:0:
109,192,60735,1,4,0:0:0:0:
182,192,60735,1,0,0:0:0:0:
256,192,60735,1,0,0:0:0:0:
402,192,60916,1,0,0:0:0:0:
182,192,61096,1,8,0:0:0:0:
256,192,61096,1,0,0:0:0:0:
475,192,61096,128,0,61458:0:0:0:0:
36,192,61277,1,0,0:0:0:0:
109,192,61458,1,2,0:0:0:0:
329,192,61458,128,0,61819:0:0:0:0:
182,192,61638,1,0,0:0:0:0:
109,192,61819,128,8,62181:0:0:0:0:
256,192,61819,1,0,0:0:0:0:
475,192,61819,1,0,0:0:0:0:
329,192,62000,128,0,62181:0:0:0:0:
182,192,62181,1,2,0:0:0:0:
475,192,62181,128,0,62452:0:0:0:0:
36,192,62361,1,0,0:0:0:0:
402,192,62452,128,0,62723:0:0:0:0:
109,192,62542,1,8,0:0:0:0:
256,192,62542,1,0,0:0:0:0:
329,192,62542,1,0,0:0:0:0:
36,192,62723,128,0,62813:0:0:0:0:
182,192,62723,128,0,62813:0:0:0:0:
109,192,62903,128,2,63084:0:0:0:0:
256,192,62903,128,0,63084:0:0:0:0:
475,192,62903,1,0,0:0:0:0:
402,192,63084,1,0,0:0:0:0:
36,192,63265,1,8,0:0:0:0:
182,192,63265,1,0,0:0:0:0:
329,192,63265,1,0,0:0:0:0:
109,192,63446,128,0,63626:0:0:0:0:
182,192,63626,1,2,0:0:0:0:
475,192,63626,128,0,63897:0:0:0:0:
329,192,63807,1,0,0:0:0:0:
182,192,63897,128,0,64169:0:0:0:0:
36,192,63988,1,8,0:0:0:0:
256,192,63988,1,0,0:0:0:0:
402,192,63988,1,0,0:0:0:0:
329,192,64169,128,0,64259:0:0:0:0:
475,192,64169,128,0,64259:0:0:0:0:
182,192,64349,1,2,0:0:0:0:
256,192,64349,128,0,64530:0:0:0:0:
402,192,64349,128,0,64530:0:0:0:0:
109,192,64530,1,0,0:0:0:0:
36,192,64711,1,8,0:0:0:0:
256,192,64711,1,0,0:0:0:0:
475,192,64711,128,0,65072:0:0:0:0:
182,192,64891,128,0,65072:0:0:0:0:
36,192,65072,128,2,65343:0:0:0:0:
109,192,65072,1,0,0:0:0:0:
182,192,65253,1,0,0:0:0:0:
329,192,65343,128,0,65614:0:0:0:0:
256,192,65434,1,8,0:0:0:0:
402,192,65434,1,0,0:0:0:0:
475,192,65434,1,0,0:0:0:0:
109,192,65614,128,0,65795:0:0:0:0:
182,192,65795,128,2,66157:0:0:0:0:
402,192,65795,1,0,0:0:0:0:
329,192,65976,1,0,0:0:0:0:
36,192,66157,1,8,0:0:0:0:
256,192,66157,1,0,0:0:0:0:
475,192,66157,128,0,66518:0:0:0:0:
109,192,66337,1,0,0:0:0:0:
329,192,66518,128,2,66879:0:0:0:0:
402,192,66518,1,0,0:0:0:0:
109,192,66699,1,0,0:0:0:0:
36,192,66879,128,8,67241:0:0:0:0:
256,192,66879,1,0,0:0:0:0:
475,192,66879,1,0,0:0:0:0:
329,192,67060,1,0,0:0:0:0:
182,192,67241,1,2,0:0:0:0:
402,192,67241,128,0,67602:0:0:0:0:
36,192,67422,1,0,0:0:0:0:
109,192,67602,128,8,67964:0:0:0:0:
256,192,67602,1,0,0:0:0:0:
475,192,67602,1,0,0:0:0:0:
402,192,67783,128,0,67964:0:0:0:0:
329,192,67964,1,2,0:0:0:0:
475,192,67964,128,0,68235:0:0:0:0:
182,192,68144,1,0,0:0:0:0:
36,192,68235,128,0,68506:0:0:0:0:
109,192,68325,1,8,0:0:0:0:
256,192,68325,1,0,0:0:0:0:
402,192,68325,1,0,0:0:0:0:
182,192,68506,128,0,68596:0:0:0:0:
329,192,68506,128,0,68596:0:0:0:0:
256,192,68687,128,2,68867:0:0:0:0:
402,192,68687,128,0,68867:0:0:0:0:
475,192,68687,1,0,0:0:0:0:
109,192,68867,1,0,0:0:0:0:
36,192,69048,128,8,69410:0:0:0:0:
256,192,69048,1,0,0:0:0:0:
402,192,69048,1,0,0:0:0:0:
329,192,69229,128,0,69410:0:0:0:0:
109,192,69410,1,2,0:0:0:0:
475,192,69410,128,0,69681:0:0:0:0:
329,192,69590,1,0,0:0:0:0:
182,192,69681,128,0,69952:0:0:0:0:
36,192,69771,1,8,0:0:0:0:
109,192,69771,1,0,0:0:0:0:
256,192,69771,1,0,0:0:0:0:
329,192,69952,128,0,70042:0:0:0:0:
475,192,69952,128,0,70042:0:0:0:0:
182,192,70132,1,2,0:0:0:0:
256,192,70132,128,0,70313:0:0:0:0:
402,192,70132,128,0,70313:0:0:0:0:
109,192,70313,1,0,0:0:0:0:
36,192,70494,128,8,70855:0:0:0:0:
256,192,70494,1,0,0:0:0:0:
475,192,70494,1,0,0:0:0:0:
329,192,70675,128,0,70855:0:0:0:0:
109,192,70855,1,2,0:0:0:0:
182,192,70855,1,4,0:0:0:0:
402,192,70855,1,0,0:0:0:0:
475,192,70855,1,0,0:0:0:0:
109,192,71126,1,2,0:0:0:0:
182,192,71126,1,4,0:0:0:0:
402,192,71126,1,0,0:0:0:0:
475,192,71126,1,0,0:0:0:0:
36,192,71217,1,8,0:0:0:0:
256,192,71217,1,0,0:0:0:0:
329,192,71217,1,0,0:0:0:0:
109,192,71397,1,4,0:0:0:0:
182,192,71397,1,2,0:0:0:0:
402,192,71397,1,0,0:0:0:0:
475,192,71397,1,0,0:0:0:0:
329,192,71578,1,0,0:0:0:0:
109,192,71759,1,2,0:0:0:0:
182,192,71759,1,0,0:0:0:0:
36,192,71940,1,0,0:0:0:70:LR3_Snare FCSRL.wav
256,192,71940,1,0,0:0:0:0:
475,192,71940,1,0,0:0:0:0:
402,192,72000,1,0,0:0:0:0:
329,192,72060,1,0,0:0:0:0:
109,192,72120,1,0,0:0:0:0:
182,192,72181,1,0,0:0:0:0:
256,192,72241,1,0,0:0:0:0:
36,192,72301,128,4,72663:0:0:0:0:
329,192,72301,1,2,0:0:0:0:
402,192,72301,1,0,0:0:0:0:
475,192,72301,1,0,0:0:0:0:
329,192,72482,1,0,0:0:0:0:
109,192,72663,1,8,0:0:0:0:
256,192,72663,1,0,0:0:0:0:
402,192,72663,128,0,73024:0:0:0:0:
182,192,72843,1,0,0:0:0:0:
109,192,73024,128,2,73385:0:0:0:0:
329,192,73024,1,0,0:0:0:0:
475,192,73205,1,0,0:0:0:0:
36,192,73385,1,8,0:0:0:0:
256,192,73385,1,0,0:0:0:0:
329,192,73385,128,0,73747:0:0:0:0:
109,192,73566,128,0,73747:0:0:0:0:
402,192,73747,1,2,0:0:0:0:
475,192,73747,128,0,74018:0:0:0:0:
182,192,73928,1,0,0:0:0:0:
36,192,74018,128,0,74289:0:0:0:0:
109,192,74108,1,8,0:0:0:0:
256,192,74108,1,0,0:0:0:0:
402,192,74108,1,0,0:0:0:0:
182,192,74289,128,0,74379:0:0:0:0:
329,192,74289,128,0,74379:0:0:0:0:
109,192,74470,128,2,74650:0:0:0:0:
256,192,74470,128,0,74650:0:0:0:0:
475,192,74470,1,0,0:0:0:0:
36,192,74650,1,0,0:0:0:0:
109,192,74831,1,8,0:0:0:0:
256,192,74831,1,0,0:0:0:0:
402,192,74831,1,0,0:0:0:0:
182,192,75012,128,0,75193:0:0:0:0:
329,192,75193,1,2,0:0:0:0:
475,192,75193,128,0,75464:0:0:0:0:
36,192,75373,1,0,0:0:0:0:
109,192,75464,128,0,75735:0:0:0:0:
182,192,75554,1,8,0:0:0:0:
256,192,75554,1,0,0:0:0:0:
402,192,75554,1,0,0:0:0:0:
329,192,75735,128,0,75825:0:0:0:0:
475,192,75735,128,0,75825:0:0:0:0:
109,192,75916,1,2,0:0:0:0:
256,192,75916,128,0,76096:0:0:0:0:
402,192,75916,128,0,76096:0:0:0:0:
182,192,76096,1,0,0:0:0:0:
36,192,76277,128,8,76638:0:0:0:0:
256,192,76277,1,0,0:0:0:0:
475,192,76277,1,0,0:0:0:0:
329,192,76458,128,0,76638:0:0:0:0:
182,192,76638,1,2,0:0:0:0:
475,192,76638,128,0,76910:0:0:0:0:
402,192,76819,1,0,0:0:0:0:
109,192,76910,128,0,77181:0:0:0:0:
36,192,77000,1,8,0:0:0:0:
256,192,77000,1,0,0:0:0:0:
329,192,77000,1,0,0:0:0:0:
402,192,77181,128,0,77542:0:0:0:0:
182,192,77361,128,2,77542:0:0:0:0:
475,192,77361,1,0,0:0:0:0:
109,192,77542,1,0,0:0:0:0:
36,192,77723,1,8,0:0:0:0:
256,192,77723,1,0,0:0:0:0:
475,192,77723,128,0,77903:0:0:0:0:
402,192,77903,1,0,0:0:0:0:
109,192,78084,128,2,78446:0:0:0:0:
329,192,78084,1,0,0:0:0:0:
182,192,78265,1,0,0:0:0:0:
36,192,78446,1,8,0:0:0:0:
256,192,78446,1,0,0:0:0:0:
475,192,78446,128,0,78807:0:0:0:0:
109,192,78626,1,0,0:0:0:0:
182,192,78807,128,2,79169:0:0:0:0:
329,192,78807,1,0,0:0:0:0:
475,192,78988,1,0,0:0:0:0:
36,192,79169,1,8,0:0:0:0:
256,192,79169,1,0,0:0:0:0:
402,192,79169,128,0,79530:0:0:0:0:
182,192,79349,128,0,79530:0:0:0:0:
36,192,79530,128,2,79801:0:0:0:0:
475,192,79530,1,0,0:0:0:0:
109,192,79711,1,0,0:0:0:0:
329,192,79801,128,0,80072:0:0:0:0:
182,192,79891,1,8,0:0:0:0:
256,192,79891,1,0,0:0:0:0:
475,192,79891,1,0,0:0:0:0:
36,192,80072,128,0,80163:0:0:0:0:
182,192,80072,128,0,80163:0:0:0:0:
109,192,80253,128,2,80434:0:0:0:0:
256,192,80253,128,0,80434:0:0:0:0:
329,192,80253,1,0,0:0:0:0:
402,192,80434,1,0,0:0:0:0:
36,192,80614,1,8,0:0:0:0:
256,192,80614,1,0,0:0:0:0:
475,192,80614,128,0,80976:0:0:0:0:
182,192,80795,128,0,80976:0:0:0:0:
36,192,80976,128,4,81247:0:0:0:0:
109,192,80976,1,2,0:0:0:0:
329,192,80976,1,0,0:0:0:0:
402,192,80976,1,0,0:0:0:0:
329,192,81247,128,0,81518:0:0:0:0:
36,192,81337,1,8,0:0:0:0:
256,192,81337,1,0,0:0:0:0:
475,192,81337,1,0,0:0:0:0:
36,192,81518,128,4,81608:0:0:0:0:
182,192,81518,128,2,81608:0:0:0:0:
402,192,81518,1,0,0:0:0:0:
475,192,81518,128,0,81879:0:0:0:0:
109,192,81699,128,0,81879:0:0:0:0:
256,192,81699,128,0,81879:0:0:0:0:
36,192,82060,1,8,0:0:0:0:
256,192,82060,1,0,0:0:0:0:
475,192,82060,1,0,0:0:0:0:
182,192,82241,128,0,82422:0:0:0:0:
36,192,82422,1,2,0:0:0:0:
109,192,82422,1,4,0:0:0:0:
402,192,82422,1,0,0:0:0:0:
475,192,82422,1,0,0:0:0:0:
256,192,82512,1,0,0:0:0:0:
329,192,82512,1,0,0:0:0:0:
109,192,82602,1,2,0:0:0:0:
182,192,82602,1,0,0:0:0:0:
329,192,82693,1,2,0:0:0:0:
402,192,82693,1,0,0:0:0:0:
182,192,82783,1,2,0:0:0:0:
256,192,82783,1,0,0:0:0:0:
36,192,82873,1,2,0:0:0:0:
109,192,82873,1,0,0:0:0:0:
402,192,82964,1,2,0:0:0:0:
475,192,82964,1,0,0:0:0:0:
256,192,83054,1,2,0:0:0:0:
329,192,83054,1,0,0:0:0:0:
109,192,83144,1,2,0:0:0:0:
182,192,83144,1,0,0:0:0:0:
402,192,83235,1,2,0:0:0:0:
475,192,83235,1,0,0:0:0:0:
256,192,83325,1,2,0:0:0:0:
329,192,83325,1,0,0:0:0:0:
109,192,83416,1,2,0:0:0:0:
182,192,83416,1,0,0:0:0:0:
36,192,83506,128,0,83867:0:0:0:0:
256,192,83687,128,0,83867:0:0:0:0:
109,192,83867,1,2,0:0:0:0:
182,192,83867,1,4,0:0:0:0:
329,192,83867,1,0,0:0:0:0:
475,192,83867,128,0,84229:0:0:0:0:
402,192,84048,1,0,0:0:0:0:
36,192,84229,1,8,0:0:0:0:
109,192,84229,128,0,84590:0:0:0:0:
256,192,84229,1,0,0:0:0:0:
329,192,84410,1,0,0:0:0:0:
182,192,84590,1,2,0:0:0:0:
402,192,84590,128,0,84952:0:0:0:0:
109,192,84771,1,0,0:0:0:0:
36,192,84952,128,8,85313:0:0:0:0:
256,192,84952,1,0,0:0:0:0:
475,192,84952,1,0,0:0:0:0:
182,192,85132,1,0,0:0:0:0:
329,192,85132,128,0,85313:0:0:0:0:
109,192,85313,1,2,0:0:0:0:
475,192,85313,128,0,85584:0:0:0:0:
182,192,85494,1,0,0:0:0:0:
36,192,85584,128,0,85855:0:0:0:0:
109,192,85675,1,8,0:0:0:0:
256,192,85675,1,0,0:0:0:0:
402,192,85675,1,0,0:0:0:0:
329,192,85855,128,0,86397:0:0:0:0:
182,192,86036,128,2,86397:0:0:0:0:
475,192,86036,1,0,0:0:0:0:
109,192,86217,1,0,0:0:0:0:
36,192,86397,1,8,0:0:0:0:
256,192,86397,1,0,0:0:0:0:
475,192,86397,1,0,0:0:0:0:
402,192,86578,128,0,86759:0:0:0:0:
36,192,86759,128,2,87030:0:0:0:0:
329,192,86759,1,0,0:0:0:0:
109,192,86940,1,0,0:0:0:0:
182,192,87030,128,0,87301:0:0:0:0:
256,192,87120,1,8,0:0:0:0:
329,192,87120,1,0,0:0:0:0:
402,192,87120,1,0,0:0:0:0:
475,192,87301,128,0,87663:0:0:0:0:
109,192,87482,1,2,0:0:0:0:
329,192,87482,128,0,87663:0:0:0:0:
182,192,87663,1,0,0:0:0:0:
36,192,87843,128,8,88205:0:0:0:0:
256,192,87843,1,0,0:0:0:0:
402,192,87843,1,0,0:0:0:0:
182,192,88024,128,0,88205:0:0:0:0:
329,192,88205,1,2,0:0:0:0:
402,192,88205,128,0,88476:0:0:0:0:
182,192,88385,1,0,0:0:0:0:
109,192,88476,128,0,88747:0:0:0:0:
36,192,88566,1,8,0:0:0:0:
256,192,88566,1,0,0:0:0:0:
475,192,88566,1,0,0:0:0:0:
329,192,88747,128,0,89289:0:0:0:0:
36,192,88928,1,2,0:0:0:0:
109,192,88928,128,0,89289:0:0:0:0:
182,192,89108,1,0,0:0:0:0:
36,192,89289,1,8,0:0:0:0:
256,192,89289,1,0,0:0:0:0:
475,192,89289,128,0,89650:0:0:0:0:
402,192,89470,1,0,0:0:0:0:
182,192,89650,128,2,90012:0:0:0:0:
329,192,89650,1,0,0:0:0:0:
109,192,89831,1,0,0:0:0:0:
36,192,90012,1,8,0:0:0:0:
256,192,90012,1,0,0:0:0:0:
402,192,90012,128,0,90373:0:0:0:0:
475,192,90193,1,0,0:0:0:0:
109,192,90373,128,2,90735:0:0:0:0:
329,192,90373,1,0,0:0:0:0:
182,192,90554,1,0,0:0:0:0:
36,192,90735,128,8,91096:0:0:0:0:
256,192,90735,1,0,0:0:0:0:
329,192,90735,1,0,0:0:0:0:
475,192,90916,1,0,0:0:0:0:
329,192,91096,128,2,91367:0:0:0:0:
402,192,91096,1,0,0:0:0:0:
182,192,91277,1,0,0:0:0:0:
109,192,91367,128,0,91638:0:0:0:0:
36,192,91458,1,8,0:0:0:0:
256,192,91458,1,0,0:0:0:0:
402,192,91458,1,0,0:0:0:0:
329,192,91638,1,0,0:0:0:0:
475,192,91638,128,0,92181:0:0:0:0:
109,192,91819,128,2,92181:0:0:0:0:
182,192,91819,1,0,0:0:0:0:
402,192,92000,1,0,0:0:0:0:
36,192,92181,128,8,92542:0:0:0:0:
182,192,92181,1,0,0:0:0:0:
256,192,92181,1,0,0:0:0:0:
329,192,92361,128,0,92542:0:0:0:0:
402,192,92542,128,2,92813:0:0:0:0:
475,192,92542,1,0,0:0:0:0:
182,192,92723,1,0,0:0:0:0:
109,192,92813,128,0,93084:0:0:0:0:
36,192,92903,1,8,0:0:0:0:
256,192,92903,1,0,0:0:0:0:
329,192,92903,1,0,0:0:0:0:
475,192,93084,128,0,93626:0:0:0:0:
182,192,93265,128,2,93626:0:0:0:0:
402,192,93265,1,0,0:0:0:0:
329,192,93446,1,0,0:0:0:0:
36,192,93626,1,8,0:0:0:0:
109,192,93626,1,0,0:0:0:0:
256,192,93626,1,0,0:0:0:0:
329,192,93807,128,0,93988:0:0:0:0:
36,192,93988,1,2,0:0:0:0:
109,192,93988,1,4,0:0:0:0:
402,192,93988,1,0,0:0:0:0:
475,192,93988,1,0,0:0:0:0:
36,192,94259,1,4,0:0:0:0:
109,192,94259,1,2,0:0:0:0:
402,192,94259,1,0,0:0:0:0:
475,192,94259,1,0,0:0:0:0:
256,192,94349,1,8,0:0:0:0:
36,192,94530,1,2,0:0:0:0:
182,192,94530,1,4,0:0:0:0:
329,192,94530,1,0,0:0:0:0:
475,192,94530,1,0,0:0:0:0:
109,192,94891,1,2,0:0:0:0:
402,192,94891,1,0,0:0:0:0:
36,192,95072,1,0,0:0:0:70:LR3_Snare FCSRL.wav
256,192,95072,1,0,0:0:0:0:
475,192,95072,1,0,0:0:0:0:
109,192,95132,1,0,0:0:0:0:
182,192,95193,1,0,0:0:0:0:
475,192,95253,1,0,0:0:0:0:
402,192,95313,1,0,0:0:0:0:
329,192,95373,1,0,0:0:0:0:
36,192,95434,128,2,95795:0:0:0:0:
109,192,95434,128,0,95795:0:0:0:0:
182,192,95434,128,0,95795:0:0:0:0:
256,192,95795,1,4,0:0:0:0:
329,192,95795,1,8,0:0:0:0:
402,192,95795,128,0,96157:0:0:0:0:
475,192,95795,1,0,0:0:0:0:
109,192,95976,1,0,0:0:0:0:
182,192,96157,128,2,96518:0:0:0:0:
329,192,96157,1,0,0:0:0:0:
36,192,96337,1,0,0:0:0:0:
109,192,96518,1,8,0:0:0:0:
256,192,96518,1,0,0:0:0:0:
475,192,96518,128,0,96879:0:0:0:0:
402,192,96699,1,0,0:0:0:0:
36,192,96879,128,2,97150:0:0:0:0:
182,192,96879,1,0,0:0:0:0:
329,192,97060,1,0,0:0:0:0:
402,192,97150,128,0,97422:0:0:0:0:
182,192,97241,1,8,0:0:0:0:
256,192,97241,1,0,0:0:0:0:
475,192,97241,1,0,0:0:0:0:
109,192,97422,128,0,97602:0:0:0:0:
36,192,97602,1,2,0:0:0:0:
329,192,97602,128,0,97964:0:0:0:0:
182,192,97783,1,0,0:0:0:0:
256,192,97964,1,8,0:0:0:0:
402,192,97964,1,0,0:0:0:0:
475,192,97964,1,0,0:0:0:0:
36,192,98144,128,0,98325:0:0:0:0:
329,192,98325,1,2,0:0:0:0:
402,192,98325,128,0,98596:0:0:0:0:
182,192,98506,1,0,0:0:0:0:
109,192,98596,128,0,98867:0:0:0:0:
36,192,98687,1,8,0:0:0:0:
256,192,98687,1,0,0:0:0:0:
475,192,98687,1,0,0:0:0:0:
329,192,98867,128,0,99229:0:0:0:0:
109,192,99048,128,2,99229:0:0:0:0:
402,192,99048,1,0,0:0:0:0:
475,192,99229,1,0,0:0:0:0:
36,192,99410,1,8,0:0:0:0:
182,192,99410,128,0,99771:0:0:0:0:
256,192,99410,1,0,0:0:0:0:
402,192,99590,1,0,0:0:0:0:
475,192,99590,128,0,99771:0:0:0:0:
36,192,99771,128,2,100042:0:0:0:0:
109,192,99771,1,0,0:0:0:0:
329,192,99952,1,0,0:0:0:0:
402,192,100042,128,0,100313:0:0:0:0:
109,192,100132,1,8,0:0:0:0:
256,192,100132,1,0,0:0:0:0:
475,192,100132,1,0,0:0:0:0:
36,192,100313,1,0,0:0:0:0:
182,192,100313,128,0,100494:0:0:0:0:
329,192,100494,1,2,0:0:0:0:
475,192,100494,128,0,100855:0:0:0:0:
36,192,100675,1,0,0:0:0:0:
109,192,100855,128,8,101217:0:0:0:0:
256,192,100855,1,0,0:0:0:0:
329,192,100855,1,0,0:0:0:0:
182,192,101036,1,0,0:0:0:0:
36,192,101217,128,2,101578:0:0:0:0:
475,192,101217,1,0,0:0:0:0:
182,192,101397,1,0,0:0:0:0:
256,192,101578,1,8,0:0:0:0:
329,192,101578,128,0,101940:0:0:0:0:
475,192,101578,1,0,0:0:0:0:
402,192,101759,1,0,0:0:0:0:
109,192,101940,128,2,102301:0:0:0:0:
182,192,101940,1,0,0:0:0:0:
475,192,102120,1,0,0:0:0:0:
36,192,102301,1,8,0:0:0:0:
256,192,102301,1,0,0:0:0:0:
402,192,102301,128,0,102663:0:0:0:0:
109,192,102482,1,0,0:0:0:0:
329,192,102663,1,2,0:0:0:0:
475,192,102663,128,0,102934:0:0:0:0:
182,192,102843,1,0,0:0:0:0:
109,192,102934,128,0,103205:0:0:0:0:
36,192,103024,1,8,0:0:0:0:
256,192,103024,1,0,0:0:0:0:
402,192,103024,1,0,0:0:0:0:
329,192,103205,128,0,103566:0:0:0:0:
109,192,103385,128,2,103566:0:0:0:0:
475,192,103385,1,0,0:0:0:0:
402,192,103566,1,0,0:0:0:0:
36,192,103747,1,8,0:0:0:0:
182,192,103747,1,0,0:0:0:0:
256,192,103747,128,0,104108:0:0:0:0:
329,192,103928,128,0,104108:0:0:0:0:
36,192,104108,1,2,0:0:0:0:
109,192,104108,1,4,0:0:0:0:
402,192,104108,1,0,0:0:0:0:
475,192,104108,1,0,0:0:0:0:
36,192,104379,1,4,0:0:0:0:
182,192,104379,1,2,0:0:0:0:
329,192,104379,1,0,0:0:0:0:
475,192,104379,1,0,0:0:0:0:
256,192,104470,1,8,0:0:0:0:
109,192,104650,1,4,0:0:0:0:
182,192,104650,1,2,0:0:0:0:
329,192,104650,1,0,0:0:0:0:
402,192,104650,1,0,0:0:0:0:
36,192,105012,1,2,0:0:0:0:
475,192,105012,1,0,0:0:0:0:
109,192,105193,1,8,0:0:0:0:
256,192,105193,1,0,0:0:0:0:
402,192,105193,1,0,0:0:0:0:
36,192,105373,128,0,105464:0:0:0:0:
36,192,105554,128,2,105825:0:0:0:0:
182,192,105554,1,4,0:0:0:0:
256,192,105554,1,0,0:0:0:0:
475,192,105554,1,0,0:0:0:0:
402,192,105644,1,0,0:0:0:0:
109,192,105735,1,0,0:0:0:0:
182,192,105825,1,0,0:0:0:0:
329,192,105825,128,0,106096:0:0:0:0:
256,192,105916,1,0,0:0:0:0:
182,192,106096,1,0,0:0:0:0:
475,192,106096,128,0,106187:0:0:0:0:
109,192,106187,1,0,0:0:0:0:
36,192,106277,1,0,0:0:0:0:
475,192,106277,128,0,106548:0:0:0:0:
109,192,106367,1,0,0:0:0:0:
182,192,106458,1,0,0:0:0:0:
36,192,106548,128,0,107000:0:0:0:0:
256,192,106548,1,0,0:0:0:0:
109,192,106638,1,0,0:0:0:0:
182,192,106729,1,0,0:0:0:0:
256,192,106819,1,0,0:0:0:0:
475,192,106819,128,0,107000:0:0:0:0:
329,192,106910,1,0,0:0:0:0:
109,192,107000,1,2,0:0:0:0:
182,192,107000,1,4,0:0:0:0:
256,192,107000,1,0,0:0:0:0:
402,192,107000,1,0,0:0:0:0:
109,192,107181,1,0,0:0:0:0:
329,192,107361,1,2,0:0:0:0:
475,192,107361,1,0,0:0:0:0:
109,192,107542,1,0,0:0:0:0:
329,192,107723,1,2,0:0:0:0:
475,192,107723,1,0,0:0:0:0:
109,192,107903,1,0,0:0:0:0:
329,192,108084,1,2,0:0:0:0:
475,192,108084,1,0,0:0:0:0:
256,192,108265,1,0,0:0:0:0:
36,192,108446,1,2,0:0:0:0:
182,192,108446,1,0,0:0:0:0:
402,192,108626,1,0,0:0:0:0:
36,192,108807,1,2,0:0:0:0:
182,192,108807,1,0,0:0:0:0:
402,192,108988,1,0,0:0:0:0:
36,192,109169,1,2,0:0:0:0:
182,192,109169,1,0,0:0:0:0:
402,192,109349,1,0,0:0:0:0:
36,192,109530,1,2,0:0:0:0:
182,192,109530,1,0,0:0:0:0:
256,192,109711,1,0,0:0:0:0:
402,192,109891,1,2,0:0:0:0:
475,192,109891,1,0,0:0:0:0:
182,192,110072,1,0,0:0:0:0:
402,192,110253,1,2,0:0:0:0:
475,192,110253,1,0,0:0:0:0:
182,192,110434,1,0,0:0:0:0:
402,192,110614,1,2,0:0:0:0:
475,192,110614,1,0,0:0:0:0:
182,192,110795,1,0,0:0:0:0:
402,192,110976,1,2,0:0:0:0:
475,192,110976,1,0,0:0:0:0:
256,192,111157,1,0,0:0:0:0:
36,192,111337,1,2,0:0:0:0:
109,192,111337,1,0,0:0:0:0:
329,192,111518,1,0,0:0:0:0:
36,192,111699,1,2,0:0:0:0:
109,192,111699,1,0,0:0:0:0:
329,192,111879,1,0,0:0:0:0:
36,192,112060,1,2,0:0:0:0:
109,192,112060,1,0,0:0:0:0:
329,192,112241,1,0,0:0:0:0:
36,192,112422,1,2,0:0:0:0:
109,192,112422,1,0,0:0:0:0:
256,192,112602,1,0,0:0:0:0:
329,192,112783,1,2,0:0:0:0:
402,192,112783,1,0,0:0:0:0:
36,192,112964,1,0,0:0:0:0:
329,192,113144,1,2,0:0:0:0:
402,192,113144,1,0,0:0:0:0:
36,192,113325,1,0,0:0:0:0:
329,192,113506,1,2,0:0:0:0:
402,192,113506,1,0,0:0:0:0:
36,192,113687,1,0,0:0:0:0:
329,192,113867,1,2,0:0:0:0:
402,192,113867,1,0,0:0:0:0:
256,192,114048,1,0,0:0:0:0:
109,192,114229,1,2,0:0:0:0:
182,192,114229,1,0,0:0:0:0:
475,192,114410,1,0,0:0:0:0:
109,192,114590,1,2,0:0:0:0:
182,192,114590,1,0,0:0:0:0:
475,192,114771,1,0,0:0:0:0:
109,192,114952,1,2,0:0:0:0:
182,192,114952,1,0,0:0:0:0:
475,192,115132,1,0,0:0:0:0:
109,192,115313,1,2,0:0:0:0:
182,192,115313,1,0,0:0:0:0:
256,192,115494,1,0,0:0:0:0:
329,192,115675,1,2,0:0:0:0:
475,192,115675,1,0,0:0:0:0:
109,192,115855,1,0,0:0:0:0:
329,192,116036,1,2,0:0:0:0:
475,192,116036,1,0,0:0:0:0:
109,192,116217,1,0,0:0:0:0:
36,192,116397,1,2,0:0:0:0:
182,192,116397,1,0,0:0:0:0:
402,192,116578,1,0,0:0:0:0:
36,192,116759,1,2,0:0:0:0:
182,192,116759,1,0,0:0:0:0:
402,192,116940,1,0,0:0:0:0:
36,192,117120,1,2,0:0:0:0:
182,192,117120,1,4,0:0:0:0:
329,192,117120,1,0,0:0:0:0:
475,192,117120,1,0,0:0:0:0:
109,192,117301,1,0,0:0:0:0:
36,192,117482,1,2,0:0:0:0:
256,192,117482,1,0,0:0:0:0:
475,192,117482,1,0,0:0:0:0:
402,192,117663,1,0,0:0:0:0:
182,192,117843,1,2,0:0:0:0:
329,192,117843,1,0,0:0:0:0:
109,192,118024,1,0,0:0:0:0:
36,192,118205,1,8,0:0:0:0:
256,192,118205,1,0,0:0:0:0:
475,192,118205,1,0,0:0:0:0:
182,192,118385,1,2,0:0:0:0:
329,192,118385,1,0,0:0:0:0:
36,192,118566,128,4,118837:0:0:0:0:
109,192,118566,1,2,0:0:0:0:
402,192,118566,1,0,0:0:0:0:
475,192,118566,1,0,0:0:0:0:
329,192,118747,1,0,0:0:0:0:
402,192,118837,128,0,119108:0:0:0:0:
109,192,118928,1,8,0:0:0:0:
256,192,118928,1,0,0:0:0:0:
475,192,118928,1,0,0:0:0:0:
182,192,119108,128,0,119289:0:0:0:0:
36,192,119289,1,2,0:0:0:0:
256,192,119289,1,0,0:0:0:0:
182,192,119470,1,0,0:0:0:0:
329,192,119470,128,0,119560:0:0:0:0:
475,192,119470,128,0,119560:0:0:0:0:
109,192,119650,1,8,0:0:0:0:
256,192,119650,128,0,119831:0:0:0:0:
402,192,119650,128,0,119831:0:0:0:0:
36,192,119831,128,0,120283:0:0:0:0:
182,192,120012,128,2,120283:0:0:0:0:
402,192,120012,1,0,0:0:0:0:
329,192,120193,1,0,0:0:0:0:
475,192,120283,128,0,120554:0:0:0:0:
36,192,120373,1,8,0:0:0:0:
182,192,120373,1,0,0:0:0:0:
256,192,120373,1,0,0:0:0:0:
329,192,120554,128,0,121096:0:0:0:0:
36,192,120735,1,2,0:0:0:0:
182,192,120735,1,0,0:0:0:0:
402,192,120916,1,0,0:0:0:0:
36,192,121096,1,8,0:0:0:0:
256,192,121096,1,0,0:0:0:0:
475,192,121096,1,0,0:0:0:0:
109,192,121157,1,0,0:0:0:0:
182,192,121217,1,0,0:0:0:0:
475,192,121277,1,0,0:0:0:0:
402,192,121337,1,0,0:0:0:0:
329,192,121397,1,0,0:0:0:0:
36,192,121458,128,2,121729:0:0:0:0:
109,192,121458,1,0,0:0:0:0:
182,192,121638,1,0,0:0:0:0:
475,192,121729,128,0,122000:0:0:0:0:
36,192,121819,1,8,0:0:0:0:
256,192,121819,1,0,0:0:0:0:
402,192,121819,1,0,0:0:0:0:
109,192,122000,128,0,122361:0:0:0:0:
256,192,122181,1,2,0:0:0:0:
475,192,122181,1,0,0:0:0:0:
182,192,122361,128,0,122452:0:0:0:0:
329,192,122361,128,0,122452:0:0:0:0:
36,192,122542,1,8,0:0:0:0:
256,192,122542,128,0,122723:0:0:0:0:
402,192,122542,128,0,122723:0:0:0:0:
182,192,122723,1,0,0:0:0:0:
475,192,122723,128,0,123626:0:0:0:0:
36,192,122903,1,2,0:0:0:0:
402,192,122903,1,0,0:0:0:0:
329,192,123084,1,0,0:0:0:0:
109,192,123265,1,8,0:0:0:0:
182,192,123265,1,0,0:0:0:0:
256,192,123265,1,0,0:0:0:0:
36,192,123446,1,0,0:0:0:0:
182,192,123626,1,2,0:0:0:0:
329,192,123626,1,0,0:0:0:0:
36,192,123807,128,0,124349:0:0:0:0:
109,192,123807,128,0,123988:0:0:0:0:
256,192,123988,128,8,124169:0:0:0:0:
402,192,123988,1,0,0:0:0:0:
475,192,123988,1,0,0:0:0:0:
182,192,124169,128,0,124349:0:0:0:0:
109,192,124349,1,2,0:0:0:0:
329,192,124349,1,4,0:0:0:0:
402,192,124349,128,0,124620:0:0:0:0:
475,192,124349,1,0,0:0:0:0:
182,192,124530,1,0,0:0:0:0:
36,192,124620,128,0,124891:0:0:0:0:
109,192,124711,1,8,0:0:0:0:
256,192,124711,1,0,0:0:0:0:
475,192,124711,1,0,0:0:0:0:
329,192,124891,128,0,125072:0:0:0:0:
182,192,125072,1,2,0:0:0:0:
402,192,125072,1,0,0:0:0:0:
109,192,125253,128,0,125343:0:0:0:0:
256,192,125253,128,0,125343:0:0:0:0:
36,192,125434,1,8,0:0:0:0:
182,192,125434,128,0,125524:0:0:0:0:
329,192,125434,128,0,125524:0:0:0:0:
475,192,125614,128,0,126066:0:0:0:0:
36,192,125795,128,2,126066:0:0:0:0:
109,192,125795,1,0,0:0:0:0:
182,192,125976,1,0,0:0:0:0:
329,192,126066,128,0,126337:0:0:0:0:
36,192,126157,1,8,0:0:0:0:
256,192,126157,1,0,0:0:0:0:
475,192,126157,1,0,0:0:0:0:
182,192,126337,128,0,126518:0:0:0:0:
36,192,126518,1,2,0:0:0:0:
402,192,126518,1,0,0:0:0:0:
329,192,126699,128,0,126879:0:0:0:0:
109,192,126879,1,8,0:0:0:0:
256,192,126879,128,0,126970:0:0:0:0:
256,192,127060,128,0,127150:0:0:0:0:
402,192,127060,128,0,127422:0:0:0:0:
36,192,127241,1,2,0:0:0:0:
109,192,127241,1,4,0:0:0:0:
182,192,127241,1,0,0:0:0:0:
329,192,127241,1,0,0:0:0:0:
36,192,127422,128,0,127783:0:0:0:0:
109,192,127602,1,8,0:0:0:0:
256,192,127602,128,0,127964:0:0:0:0:
475,192,127602,1,0,0:0:0:0:
402,192,127783,128,0,128144:0:0:0:0:
109,192,127964,128,2,128506:0:0:0:0:
329,192,127964,1,0,0:0:0:0:
182,192,128144,1,0,0:0:0:0:
36,192,128325,1,8,0:0:0:0:
256,192,128325,128,0,128687:0:0:0:0:
475,192,128325,1,0,0:0:0:0:
402,192,128506,128,0,128867:0:0:0:0:
36,192,128687,1,2,0:0:0:0:
182,192,128687,1,4,0:0:0:0:
329,192,128687,1,0,0:0:0:0:
475,192,128687,1,0,0:0:0:0:
109,192,128867,128,0,129229:0:0:0:0:
36,192,129048,1,8,0:0:0:0:
256,192,129048,128,0,129410:0:0:0:0:
329,192,129048,1,0,0:0:0:0:
475,192,129229,128,0,129590:0:0:0:0:
182,192,129410,128,2,129590:0:0:0:0:
329,192,129410,1,0,0:0:0:0:
402,192,129590,128,0,130132:0:0:0:0:
36,192,129771,1,8,0:0:0:0:
182,192,129771,1,0,0:0:0:0:
256,192,129771,128,0,130132:0:0:0:0:
109,192,129952,128,0,130132:0:0:0:0:
36,192,130132,1,2,0:0:0:0:
182,192,130132,1,4,0:0:0:0:
329,192,130132,1,0,0:0:0:0:
475,192,130132,1,0,0:0:0:0:
36,192,130313,1,2,0:0:0:0:
329,192,130313,1,0,0:0:0:0:
109,192,130494,1,8,0:0:0:0:
256,192,130494,1,2,0:0:0:0:
402,192,130494,1,0,0:0:0:0:
109,192,130675,1,2,0:0:0:0:
402,192,130675,1,0,0:0:0:0:
36,192,130855,1,2,0:0:0:0:
182,192,130855,1,4,0:0:0:0:
329,192,130855,1,0,0:0:0:0:
475,192,130855,1,0,0:0:0:0:
182,192,131036,1,2,0:0:0:0:
475,192,131036,1,0,0:0:0:0:
109,192,131217,1,2,0:0:0:0:
256,192,131217,1,8,0:0:0:0:
402,192,131217,1,0,0:0:0:0:
109,192,131397,1,2,0:0:0:0:
402,192,131397,1,0,0:0:0:0:
36,192,131578,128,2,132482:0:0:0:0:
182,192,131578,128,4,132482:0:0:0:0:
329,192,131578,128,0,132482:0:0:0:0:
475,192,131578,128,0,132482:0:0:0:0:
109,192,132663,1,0,0:0:0:70:LR3_Snare LRW.wav
256,192,132663,1,0,0:0:0:0:
402,192,132663,1,0,0:0:0:0:
36,192,133024,1,2,0:0:0:0:
182,192,133024,1,4,0:0:0:0:
329,192,133024,1,0,0:0:0:0:
475,192,133024,1,0,0:0:0:0:
36,192,133205,1,0,0:0:0:0:
36,192,133385,1,0,0:0:0:0:
36,192,133566,1,0,0:0:0:0:
36,192,133747,1,0,0:0:0:0:
36,192,133928,1,0,0:0:0:0:
36,192,134108,1,0,0:0:0:0:
36,192,134289,1,0,0:0:0:0:
475,192,134470,1,0,0:0:0:0:
475,192,134650,1,0,0:0:0:0:
475,192,134831,1,0,0:0:0:0:
475,192,135012,1,0,0:0:0:0:
475,192,135193,1,0,0:0:0:0:
475,192,135373,1,0,0:0:0:0:
475,192,135554,1,0,0:0:0:0:
475,192,135735,1,0,0:0:0:0:
109,192,135916,1,0,0:0:0:0:
109,192,136096,1,0,0:0:0:0:
109,192,136277,1,0,0:0:0:0:
109,192,136458,1,0,0:0:0:0:
109,192,136638,1,0,0:0:0:0:
109,192,136819,1,0,0:0:0:0:
109,192,137000,1,0,0:0:0:0:
109,192,137181,1,0,0:0:0:0:
402,192,137361,1,0,0:0:0:0:
402,192,137542,1,0,0:0:0:0:
402,192,137723,1,0,0:0:0:0:
402,192,137903,1,0,0:0:0:0:
402,192,138084,1,0,0:0:0:0:
402,192,138265,1,0,0:0:0:0:
402,192,138446,1,0,0:0:0:0:
402,192,138626,1,0,0:0:0:0:
36,192,138807,1,0,0:0:0:0:
36,192,138988,1,0,0:0:0:0:
36,192,139169,1,0,0:0:0:0:
36,192,139349,1,0,0:0:0:0:
36,192,139530,1,0,0:0:0:0:
36,192,139711,1,0,0:0:0:0:
36,192,139891,1,0,0:0:0:0:
36,192,140072,1,0,0:0:0:0:
475,192,140253,1,0,0:0:0:0:
475,192,140434,1,0,0:0:0:0:
475,192,140614,1,0,0:0:0:0:
475,192,140795,1,0,0:0:0:0:
475,192,140976,1,0,0:0:0:0:
475,192,141157,1,0,0:0:0:0:
475,192,141337,1,0,0:0:0:0:
475,192,141518,1,0,0:0:0:0:
182,192,141699,1,0,0:0:0:0:
182,192,141879,1,0,0:0:0:0:
182,192,142060,1,0,0:0:0:0:
182,192,142241,1,0,0:0:0:0:
182,192,142422,1,0,0:0:0:0:
182,192,142602,1,0,0:0:0:0:
182,192,142783,1,0,0:0:0:0:
182,192,142964,1,0,0:0:0:0:
329,192,143144,1,0,0:0:0:0:
329,192,143325,1,0,0:0:0:0:
329,192,143506,1,0,0:0:0:0:
329,192,143687,1,0,0:0:0:0:
329,192,143867,1,0,0:0:0:0:
329,192,144048,1,0,0:0:0:0:
329,192,144229,1,0,0:0:0:0:
329,192,144410,1,0,0:0:0:0:
36,192,144590,1,0,0:0:0:0:
36,192,144771,1,0,0:0:0:0:
36,192,144952,1,0,0:0:0:0:
36,192,145132,1,0,0:0:0:0:
36,192,145313,1,0,0:0:0:0:
36,192,145494,1,0,0:0:0:0:
36,192,145675,1,0,0:0:0:0:
36,192,145855,1,0,0:0:0:0:
329,192,146036,1,0,0:0:0:0:
329,192,146217,1,0,0:0:0:0:
329,192,146397,1,0,0:0:0:0:
329,192,146578,1,0,0:0:0:0:
329,192,146759,1,0,0:0:0:0:
329,192,146940,1,0,0:0:0:0:
329,192,147120,1,0,0:0:0:0:
329,192,147301,1,0,0:0:0:0:
182,192,147482,1,0,0:0:0:0:
182,192,147663,1,0,0:0:0:0:
182,192,147843,1,0,0:0:0:0:
182,192,148024,1,0,0:0:0:0:
182,192,148205,1,0,0:0:0:0:
182,192,148385,1,0,0:0:0:0:
182,192,148566,1,0,0:0:0:0:
182,192,148747,1,0,0:0:0:0:
329,192,148928,1,0,0:0:0:0:
329,192,149108,1,0,0:0:0:0:
329,192,149289,1,0,0:0:0:0:
329,192,149470,1,0,0:0:0:0:
329,192,149650,1,0,0:0:0:0:
329,192,149831,1,0,0:0:0:0:
329,192,150012,1,0,0:0:0:0:
329,192,150193,1,0,0:0:0:0:
182,192,150373,1,0,0:0:0:0:
475,192,150464,1,0,0:0:0:0:
182,192,150554,1,0,0:0:0:0:
475,192,150644,1,0,0:0:0:0:
109,192,150735,1,0,0:0:0:0:
402,192,150825,1,0,0:0:0:0:
109,192,150916,1,0,0:0:0:0:
402,192,151006,1,0,0:0:0:0:
36,192,151096,1,0,0:0:0:0:
329,192,151187,1,0,0:0:0:0:
36,192,151277,1,0,0:0:0:0:
329,192,151367,1,0,0:0:0:0:
109,192,151458,1,0,0:0:0:0:
256,192,151548,1,0,0:0:0:0:
109,192,151638,1,0,0:0:0:0:
256,192,151729,1,0,0:0:0:0:
402,192,151819,1,0,0:0:0:0:
475,192,151819,1,0,0:0:0:0:
36,192,151910,1,0,0:0:0:0:
109,192,151910,1,0,0:0:0:0:
402,192,152000,1,0,0:0:0:0:
475,192,152000,1,0,0:0:0:0:
36,192,152090,1,0,0:0:0:0:
109,192,152090,1,0,0:0:0:0:
329,192,152181,1,0,0:0:0:0:
402,192,152181,1,0,0:0:0:0:
109,192,152271,1,0,0:0:0:0:
182,192,152271,1,0,0:0:0:0:
329,192,152361,1,0,0:0:0:0:
402,192,152361,1,0,0:0:0:0:
109,192,152452,1,0,0:0:0:0:
182,192,152452,1,0,0:0:0:0:
329,192,152542,1,0,0:0:0:0:
475,192,152542,1,0,0:0:0:0:
36,192,152632,1,0,0:0:0:0:
182,192,152632,1,0,0:0:0:0:
329,192,152723,1,0,0:0:0:0:
475,192,152723,1,0,0:0:0:0:
36,192,152813,1,0,0:0:0:0:
182,192,152813,1,0,0:0:0:0:
402,192,152903,1,0,0:0:0:0:
475,192,152903,1,0,0:0:0:0:
36,192,152994,1,0,0:0:0:0:
109,192,152994,1,0,0:0:0:0:
402,192,153084,1,0,0:0:0:0:
475,192,153084,1,0,0:0:0:0:
36,192,153175,1,0,0:0:0:0:
109,192,153175,1,0,0:0:0:0:
182,192,153265,1,4,0:0:0:0:
256,192,153265,1,2,0:0:0:0:
402,192,153265,1,0,0:0:0:0:
475,192,153265,1,0,0:0:0:0:
36,192,153626,1,2,0:0:0:0:
329,192,153626,1,0,0:0:0:0:
36,192,153807,1,2,0:0:0:0:
329,192,153807,1,0,0:0:0:0:
182,192,153988,1,4,0:0:0:0:
256,192,153988,1,2,0:0:0:0:
402,192,153988,1,0,0:0:0:0:
475,192,153988,1,0,0:0:0:0:
36,192,154169,1,2,0:0:0:0:
329,192,154169,1,0,0:0:0:0:
36,192,154349,1,2,0:0:0:0:
329,192,154349,1,0,0:0:0:0:
36,192,154530,1,2,0:0:0:0:
329,192,154530,1,0,0:0:0:0:
182,192,154711,1,4,0:0:0:0:
256,192,154711,1,2,0:0:0:0:
402,192,154711,1,0,0:0:0:0:
475,192,154711,1,0,0:0:0:0:
36,192,154801,1,2,0:0:0:0:
109,192,154801,1,0,0:0:0:0:
402,192,154891,1,2,0:0:0:0:
475,192,154891,1,0,0:0:0:0:
36,192,154982,1,2,0:0:0:0:
109,192,154982,1,0,0:0:0:0:
182,192,155072,1,2,0:0:0:0:
256,192,155072,1,4,0:0:0:0:
402,192,155072,1,0,0:0:0:0:
475,192,155072,1,0,0:0:0:0:
36,192,155163,1,2,0:0:0:0:
109,192,155163,1,0,0:0:0:0:
402,192,155253,1,2,0:0:0:0:
475,192,155253,1,0,0:0:0:0:
36,192,155343,1,2,0:0:0:0:
109,192,155343,1,0,0:0:0:0:
182,192,155434,1,8,0:0:0:0:
256,192,155434,1,4,0:0:0:0:
402,192,155434,1,0,0:0:0:0:
475,192,155434,1,0,0:0:0:0:
109,192,155614,1,2,0:0:0:0:
329,192,155614,1,0,0:0:0:0:
36,192,155795,1,4,0:0:0:0:
256,192,155795,1,0,0:0:0:70:LR3_Snare FCSRL.wav
402,192,155795,1,0,0:0:0:0:
475,192,155795,1,0,0:0:0:0:
182,192,155976,1,2,0:0:0:0:
329,192,155976,1,0,0:0:0:0:
36,192,156157,128,4,157964:0:0:0:0:
109,192,156157,1,2,0:0:0:0:
402,192,156157,1,0,0:0:0:0:
475,192,156157,1,0,0:0:0:0:
329,192,156337,1,0,0:0:0:0:
109,192,156518,1,8,0:0:0:0:
256,192,156518,1,0,0:0:0:0:
402,192,156518,1,0,0:0:0:0:
182,192,156699,1,0,0:0:0:0:
329,192,156879,1,2,0:0:0:0:
475,192,156879,1,0,0:0:0:0:
109,192,157060,1,0,0:0:0:0:
182,192,157241,1,8,0:0:0:0:
256,192,157241,1,0,0:0:0:0:
402,192,157241,1,0,0:0:0:0:
475,192,157422,1,0,0:0:0:0:
109,192,157602,1,2,0:0:0:0:
329,192,157602,1,0,0:0:0:0:
182,192,157783,1,0,0:0:0:0:
256,192,157964,1,8,0:0:0:0:
329,192,157964,1,0,0:0:0:0:
402,192,157964,1,0,0:0:0:0:
109,192,158144,1,0,0:0:0:0:
475,192,158144,128,0,158235:0:0:0:0:
36,192,158325,1,2,0:0:0:0:
475,192,158325,128,0,158687:0:0:0:0:
182,192,158506,1,0,0:0:0:0:
256,192,158687,128,8,159048:0:0:0:0:
329,192,158687,1,0,0:0:0:0:
402,192,158687,1,0,0:0:0:0:
109,192,158867,1,0,0:0:0:0:
36,192,159048,128,2,159952:0:0:0:0:
475,192,159048,1,0,0:0:0:0:
402,192,159229,1,0,0:0:0:0:
109,192,159410,1,8,0:0:0:0:
256,192,159410,1,0,0:0:0:0:
329,192,159410,1,0,0:0:0:0:
182,192,159590,1,0,0:0:0:0:
402,192,159771,1,2,0:0:0:0:
475,192,159771,1,0,0:0:0:0:
109,192,159952,128,0,160313:0:0:0:0:
329,192,159952,1,0,0:0:0:0:
182,192,160132,1,8,0:0:0:0:
256,192,160132,128,0,160313:0:0:0:0:
402,192,160132,1,0,0:0:0:0:
475,192,160313,128,0,160855:0:0:0:0:
36,192,160494,1,2,0:0:0:0:
329,192,160494,1,0,0:0:0:0:
109,192,160675,1,0,0:0:0:0:
182,192,160855,1,8,0:0:0:0:
256,192,160855,1,0,0:0:0:0:
402,192,160855,1,0,0:0:0:0:
36,192,161036,128,0,161217:0:0:0:0:
329,192,161217,128,2,161578:0:0:0:0:
475,192,161217,1,0,0:0:0:0:
36,192,161397,128,0,161578:0:0:0:0:
109,192,161578,128,8,161940:0:0:0:0:
256,192,161578,1,0,0:0:0:0:
402,192,161578,1,0,0:0:0:0:
329,192,161759,128,0,161940:0:0:0:0:
36,192,161940,1,2,0:0:0:0:
475,192,161940,128,0,162663:0:0:0:0:
182,192,162120,1,0,0:0:0:0:
109,192,162301,1,8,0:0:0:0:
256,192,162301,1,0,0:0:0:0:
402,192,162301,1,0,0:0:0:0:
329,192,162482,1,0,0:0:0:0:
36,192,162663,1,2,0:0:0:0:
182,192,162663,1,0,0:0:0:0:
109,192,162843,1,0,0:0:0:0:
475,192,162843,128,0,162934:0:0:0:0:
256,192,163024,1,8,0:0:0:0:
402,192,163024,1,0,0:0:0:0:
475,192,163024,128,0,163385:0:0:0:0:
329,192,163205,128,0,163385:0:0:0:0:
36,192,163385,128,2,163747:0:0:0:0:
109,192,163385,1,0,0:0:0:0:
182,192,163566,1,0,0:0:0:0:
256,192,163747,1,8,0:0:0:0:
329,192,163747,1,0,0:0:0:0:
402,192,163747,128,0,164108:0:0:0:0:
475,192,163928,1,0,0:0:0:0:
36,192,164108,128,2,164470:0:0:0:0:
109,192,164108,1,0,0:0:0:0:
182,192,164289,1,0,0:0:0:0:
256,192,164470,1,8,0:0:0:0:
329,192,164470,128,0,164831:0:0:0:0:
402,192,164470,1,0,0:0:0:0:
109,192,164650,1,0,0:0:0:0:
36,192,164831,1,2,0:0:0:0:
475,192,164831,128,0,165193:0:0:0:0:
182,192,165012,1,0,0:0:0:0:
109,192,165193,128,8,165554:0:0:0:0:
256,192,165193,1,0,0:0:0:0:
402,192,165193,1,0,0:0:0:0:
329,192,165373,1,0,0:0:0:0:
182,192,165554,1,2,0:0:0:0:
475,192,165554,128,0,165916:0:0:0:0:
402,192,165735,1,0,0:0:0:0:
36,192,165916,128,8,166277:0:0:0:0:
109,192,165916,1,0,0:0:0:0:
256,192,165916,1,0,0:0:0:0:
182,192,166096,1,0,0:0:0:0:
329,192,166277,128,2,166819:0:0:0:0:
475,192,166277,1,0,0:0:0:0:
109,192,166458,1,0,0:0:0:0:
36,192,166638,1,8,0:0:0:0:
256,192,166638,1,0,0:0:0:0:
402,192,166638,1,0,0:0:0:0:
182,192,166819,128,0,166910:0:0:0:0:
182,192,167000,128,2,167361:0:0:0:0:
475,192,167000,1,0,0:0:0:0:
402,192,167181,1,0,0:0:0:0:
36,192,167361,1,8,0:0:0:0:
256,192,167361,128,0,167723:0:0:0:0:
329,192,167361,1,0,0:0:0:0:
109,192,167542,1,2,0:0:0:0:
402,192,167542,1,0,0:0:0:0:
36,192,167723,1,2,0:0:0:0:
182,192,167723,1,4,0:0:0:0:
329,192,167723,1,0,0:0:0:0:
475,192,167723,128,0,169169:0:0:0:0:
402,192,167903,1,0,0:0:0:0:
109,192,168084,1,8,0:0:0:0:
256,192,168084,1,0,0:0:0:0:
329,192,168084,1,0,0:0:0:0:
36,192,168265,1,0,0:0:0:0:
182,192,168446,1,2,0:0:0:0:
402,192,168446,1,0,0:0:0:0:
329,192,168626,1,0,0:0:0:0:
36,192,168807,1,8,0:0:0:0:
109,192,168807,1,0,0:0:0:0:
256,192,168807,1,0,0:0:0:0:
182,192,168988,1,0,0:0:0:0:
109,192,169169,1,2,0:0:0:0:
402,192,169169,1,0,0:0:0:0:
329,192,169349,1,0,0:0:0:0:
182,192,169530,1,8,0:0:0:0:
256,192,169530,1,0,0:0:0:0:
475,192,169530,1,0,0:0:0:0:
109,192,169711,128,0,169801:0:0:0:0:
402,192,169711,1,0,0:0:0:0:
109,192,169891,128,2,170253:0:0:0:0:
329,192,169891,1,0,0:0:0:0:
36,192,170072,1,0,0:0:0:0:
182,192,170253,1,8,0:0:0:0:
256,192,170253,128,0,170614:0:0:0:0:
475,192,170253,1,0,0:0:0:0:
329,192,170434,1,0,0:0:0:0:
36,192,170614,1,2,0:0:0:0:
402,192,170614,128,0,171518:0:0:0:0:
109,192,170795,1,0,0:0:0:0:
182,192,170976,1,8,0:0:0:0:
329,192,170976,1,0,0:0:0:0:
475,192,170976,1,0,0:0:0:0:
256,192,171157,1,0,0:0:0:0:
109,192,171337,1,2,0:0:0:0:
182,192,171337,1,0,0:0:0:0:
36,192,171518,128,0,171879:0:0:0:0:
329,192,171518,1,0,0:0:0:0:
182,192,171699,128,8,171879:0:0:0:0:
256,192,171699,1,0,0:0:0:0:
402,192,171699,1,0,0:0:0:0:
475,192,171879,128,0,172422:0:0:0:0:
109,192,172060,1,2,0:0:0:0:
329,192,172060,128,0,172422:0:0:0:0:
182,192,172241,1,0,0:0:0:0:
36,192,172422,1,8,0:0:0:0:
256,192,172422,1,0,0:0:0:0:
402,192,172422,1,0,0:0:0:0:
329,192,172602,128,0,172783:0:0:0:0:
36,192,172783,128,2,173144:0:0:0:0:
109,192,172783,1,0,0:0:0:0:
182,192,172964,128,0,173144:0:0:0:0:
256,192,173144,1,8,0:0:0:0:
402,192,173144,1,0,0:0:0:0:
475,192,173144,128,0,173506:0:0:0:0:
329,192,173325,128,0,173506:0:0:0:0:
36,192,173506,1,2,0:0:0:0:
109,192,173506,1,4,0:0:0:0:
182,192,173506,1,0,0:0:0:0:
402,192,173506,1,0,0:0:0:0:
256,192,173596,1,0,0:0:0:0:
329,192,173687,1,0,0:0:0:0:
402,192,173777,1,0,0:0:0:0:
36,192,173867,1,8,0:0:0:0:
256,192,173867,1,0,0:0:0:0:
475,192,173867,1,0,0:0:0:0:
109,192,173958,1,0,0:0:0:0:
182,192,174048,1,0,0:0:0:0:
256,192,174138,1,0,0:0:0:0:
36,192,174229,1,2,0:0:0:0:
475,192,174229,1,0,0:0:0:0:
402,192,174319,1,0,0:0:0:0:
329,192,174410,1,0,0:0:0:0:
256,192,174500,1,0,0:0:0:0:
109,192,174590,1,8,0:0:0:0:
402,192,174590,1,0,0:0:0:0:
475,192,174590,1,0,0:0:0:0:
182,192,174681,1,0,0:0:0:0:
256,192,174771,1,0,0:0:0:0:
329,192,174861,1,0,0:0:0:0:
36,192,174952,1,2,0:0:0:0:
109,192,174952,1,4,0:0:0:0:
182,192,174952,1,0,0:0:0:0:
475,192,174952,1,0,0:0:0:0:
402,192,175042,1,0,0:0:0:0:
329,192,175132,1,0,0:0:0:0:
256,192,175223,1,0,0:0:0:0:
36,192,175313,1,8,0:0:0:0:
402,192,175313,1,0,0:0:0:0:
475,192,175313,1,0,0:0:0:0:
109,192,175403,1,0,0:0:0:0:
182,192,175494,1,0,0:0:0:0:
256,192,175584,1,0,0:0:0:0:
36,192,175675,1,2,0:0:0:0:
402,192,175675,1,0,0:0:0:0:
329,192,175765,1,0,0:0:0:0:
256,192,175855,1,0,0:0:0:0:
182,192,175946,1,0,0:0:0:0:
36,192,176036,1,8,0:0:0:0:
329,192,176036,1,0,0:0:0:0:
475,192,176036,1,0,0:0:0:0:
109,192,176126,1,0,0:0:0:0:
182,192,176217,1,2,0:0:0:0:
402,192,176217,1,0,0:0:0:0:
256,192,176307,1,0,0:0:0:0:
36,192,176397,1,2,0:0:0:0:
182,192,176397,1,4,0:0:0:0:
329,192,176397,1,0,0:0:0:0:
475,192,176397,1,0,0:0:0:0:
36,192,176578,1,2,0:0:0:0:
475,192,176578,1,0,0:0:0:0:
109,192,176759,1,2,0:0:0:0:
256,192,176759,1,8,0:0:0:0:
402,192,176759,1,0,0:0:0:0:
109,192,176940,1,2,0:0:0:0:
402,192,176940,1,0,0:0:0:0:
36,192,177120,1,2,0:0:0:0:
182,192,177120,1,4,0:0:0:0:
329,192,177120,1,0,0:0:0:0:
475,192,177120,1,0,0:0:0:0:
182,192,177301,1,2,0:0:0:0:
329,192,177301,1,0,0:0:0:0:
109,192,177482,1,2,0:0:0:0:
256,192,177482,1,8,0:0:0:0:
402,192,177482,1,0,0:0:0:0:
109,192,177663,1,2,0:0:0:0:
402,192,177663,1,0,0:0:0:0:
36,192,177843,1,2,0:0:0:0:
182,192,177843,1,4,0:0:0:0:
329,192,177843,1,0,0:0:0:0:
475,192,177843,1,0,0:0:0:0:
109,192,178114,1,4,0:0:0:0:
182,192,178114,1,2,0:0:0:0:
329,192,178114,1,0,0:0:0:0:
402,192,178114,1,0,0:0:0:0:
256,192,178205,1,8,0:0:0:0:
36,192,178385,1,4,0:0:0:0:
109,192,178385,1,2,0:0:0:0:
402,192,178385,1,0,0:0:0:0:
475,192,178385,1,0,0:0:0:0:
256,192,178566,1,8,0:0:0:0:
36,192,178657,1,4,0:0:0:0:
182,192,178657,1,2,0:0:0:0:
329,192,178657,1,0,0:0:0:0:
475,192,178657,1,0,0:0:0:0:
36,192,178928,1,2,0:0:0:0:
109,192,178928,1,4,0:0:0:0:
402,192,178928,1,0,0:0:0:0:
475,192,178928,1,0,0:0:0:0:
109,192,179108,1,4,0:0:0:0:
182,192,179108,1,2,0:0:0:0:
329,192,179108,1,0,0:0:0:0:
402,192,179108,1,0,0:0:0:0:
36,192,179289,1,2,0:0:0:0:
182,192,179289,1,4,0:0:0:0:
329,192,179289,1,0,0:0:0:0:
475,192,179289,1,0,0:0:0:0:
109,192,179470,1,0,0:0:0:0:
182,192,179560,1,0,0:0:0:0:
475,192,179650,1,0,0:0:0:0:
402,192,179741,1,0,0:0:0:0:
329,192,179831,1,0,0:0:0:0:
256,192,179922,1,0,0:0:0:0:
36,192,180012,1,0,0:0:0:0:
109,192,180102,1,0,0:0:0:0:
182,192,180193,1,0,0:0:0:0:
256,192,180283,1,0,0:0:0:0:
109,192,180373,1,0,0:0:0:0:
182,192,180464,1,0,0:0:0:0:
256,192,180554,1,0,0:0:0:0:
329,192,180644,1,0,0:0:0:0:
475,192,180735,1,0,0:0:0:0:
402,192,180825,1,0,0:0:0:0:
329,192,180916,1,0,0:0:0:0:
256,192,181006,1,0,0:0:0:0:
402,192,181096,1,0,0:0:0:0:
329,192,181187,1,0,0:0:0:0:
256,192,181277,1,0,0:0:0:0:
182,192,181367,1,0,0:0:0:0:
36,192,181458,1,0,0:0:0:0:
109,192,181548,1,0,0:0:0:0:
182,192,181638,1,0,0:0:0:0:
256,192,181729,1,0,0:0:0:0:
109,192,181819,1,0,0:0:0:0:
182,192,181910,1,0,0:0:0:0:
256,192,182000,1,0,0:0:0:0:
329,192,182090,1,0,0:0:0:0:
475,192,182181,1,0,0:0:0:0:
402,192,182271,1,0,0:0:0:0:
329,192,182361,1,0,0:0:0:0:
256,192,182452,1,0,0:0:0:0:
402,192,182542,1,0,0:0:0:0:
329,192,182632,1,0,0:0:0:0:
256,192,182723,1,0,0:0:0:0:
182,192,182813,1,0,0:0:0:0:
36,192,182903,1,0,0:0:0:0:
109,192,182994,1,0,0:0:0:0:
182,192,183084,1,0,0:0:0:0:
256,192,183175,1,0,0:0:0:0:
109,192,183265,1,0,0:0:0:0:
182,192,183355,1,0,0:0:0:0:
256,192,183446,1,0,0:0:0:0:
329,192,183536,1,0,0:0:0:0:
475,192,183626,1,0,0:0:0:0:
402,192,183717,1,0,0:0:0:0:
329,192,183807,1,0,0:0:0:0:
256,192,183897,1,0,0:0:0:0:
402,192,183988,1,0,0:0:0:0:
329,192,184078,1,0,0:0:0:0:
256,192,184169,1,0,0:0:0:0:
182,192,184259,1,0,0:0:0:0:
36,192,184349,1,0,0:0:0:0:
109,192,184440,1,0,0:0:0:0:
182,192,184530,1,0,0:0:0:0:
256,192,184620,1,0,0:0:0:0:
109,192,184711,1,0,0:0:0:0:
182,192,184801,1,0,0:0:0:0:
256,192,184891,1,0,0:0:0:0:
329,192,184982,1,0,0:0:0:0:
475,192,185072,1,0,0:0:0:0:
402,192,185163,1,0,0:0:0:0:
329,192,185253,1,0,0:0:0:0:
256,192,185343,1,0,0:0:0:0:
402,192,185434,1,0,0:0:0:0:
329,192,185524,1,0,0:0:0:0:
256,192,185614,1,0,0:0:0:0:
182,192,185705,1,0,0:0:0:0:
36,192,185795,1,0,0:0:0:0:
109,192,185885,1,0,0:0:0:0:
182,192,185976,1,0,0:0:0:0:
256,192,186066,1,0,0:0:0:0:
109,192,186157,1,0,0:0:0:0:
182,192,186247,1,0,0:0:0:0:
256,192,186337,1,0,0:0:0:0:
329,192,186428,1,0,0:0:0:0:
475,192,186518,1,0,0:0:0:0:
402,192,186699,1,0,0:0:0:0:
329,192,186879,1,0,0:0:0:0:
256,192,187060,1,0,0:0:0:0:
182,192,187241,1,0,0:0:0:0:
109,192,187422,1,0,0:0:0:0:
36,192,187602,1,0,0:0:0:0:
109,192,187783,1,0,0:0:0:0:
182,192,187964,1,0,0:0:0:0:
256,192,188144,1,0,0:0:0:0:
329,192,188325,1,0,0:0:0:0:
475,192,188506,1,0,0:0:0:0:
402,192,188687,1,0,0:0:0:0:
329,192,188867,1,0,0:0:0:0:
256,192,189048,1,0,0:0:0:0:
182,192,189229,1,0,0:0:0:0:
109,192,189410,1,0,0:0:0:0:
36,192,189590,1,0,0:0:0:0:
109,192,189771,1,0,0:0:0:0:
475,192,189771,128,0,190855:0:0:0:0:
182,192,189952,1,0,0:0:0:0:
256,192,190132,1,0,0:0:0:0:
329,192,190313,1,0,0:0:0:0:
402,192,190494,1,0,0:0:0:0:
329,192,190675,1,0,0:0:0:0:
36,192,190855,1,0,0:0:0:0:
256,192,190855,1,0,0:0:0:0:
109,192,190885,1,0,0:0:0:0:
182,192,191217,1,0,0:0:0:0:
256,192,191578,1,0,0:0:0:0:
329,192,191940,1,0,0:0:0:0:
109,192,192301,1,0,0:0:0:0:
475,192,192301,1,0,0:0:0:0:
182,192,192331,1,0,0:0:0:0:
329,192,192572,1,0,0:0:0:0:
109,192,192843,1,0,0:0:0:0:
109,192,193024,1,0,0:0:0:0:
109,192,193566,1,0,0:0:0:0:
182,192,193747,1,0,0:0:0:0:
402,192,193747,1,0,0:0:0:0:
256,192,193777,1,0,0:0:0:0:
329,192,194018,1,0,0:0:0:0:
475,192,194289,1,0,0:0:0:0:
475,192,194470,1,0,0:0:0:0:
36,192,194831,1,0,0:0:0:0:
182,192,195012,1,0,0:0:0:0:
36,192,195193,1,0,0:0:0:0:
402,192,195193,1,0,0:0:0:0:
109,192,195223,1,0,0:0:0:0:
256,192,195464,1,0,0:0:0:0:
182,192,195735,1,0,0:0:0:0:
36,192,195916,1,0,0:0:0:0:
256,192,196277,1,0,0:0:0:0:
36,192,196638,1,0,0:0:0:0:
329,192,196638,1,0,0:0:0:0:
109,192,196669,1,0,0:0:0:0:
182,192,197000,1,0,0:0:0:0:
256,192,197361,1,0,0:0:0:0:
329,192,197723,1,0,0:0:0:0:
109,192,198084,1,0,0:0:0:0:
475,192,198084,1,0,0:0:0:0:
182,192,198114,1,0,0:0:0:0:
256,192,198355,1,0,0:0:0:0:
402,192,198626,1,0,0:0:0:0:
475,192,198807,1,0,0:0:0:0:
182,192,199169,1,0,0:0:0:0:
329,192,199349,1,0,0:0:0:0:
36,192,199530,1,0,0:0:0:0:
329,192,199530,1,0,0:0:0:0:
109,192,199560,1,0,0:0:0:0:
256,192,199801,1,0,0:0:0:0:
182,192,200072,1,0,0:0:0:0:
182,192,200253,1,0,0:0:0:0:
109,192,200795,1,0,0:0:0:0:
109,192,200976,1,0,0:0:0:0:
475,192,200976,1,0,0:0:0:0:
402,192,201006,1,0,0:0:0:0:
182,192,201247,1,0,0:0:0:0:
182,192,201518,1,0,0:0:0:0:
36,192,201699,128,0,202422:0:0:0:0:
256,192,201699,1,0,0:0:0:0:
109,192,202422,1,0,0:0:0:70:ClapHand.wav
256,192,202422,1,0,0:0:0:0:
402,192,202422,1,0,0:0:0:0:
475,192,202602,1,0,0:0:0:0:
109,192,202783,1,0,0:0:0:70:ClapHand.wav
256,192,202783,1,0,0:0:0:0:
402,192,202783,1,0,0:0:0:0:
36,192,202964,1,0,0:0:0:0:
109,192,203144,1,0,0:0:0:70:ClapHand.wav
256,192,203144,1,0,0:0:0:0:
402,192,203144,1,0,0:0:0:0:
329,192,203325,1,0,0:0:0:0:
109,192,203506,1,0,0:0:0:70:ClapHand.wav
256,192,203506,1,0,0:0:0:0:
402,192,203506,1,0,0:0:0:0:
182,192,203687,1,0,0:0:0:0:
36,192,203867,1,0,0:0:0:70:ClapHand.wav
256,192,203867,1,0,0:0:0:0:
475,192,203867,1,0,0:0:0:0:
402,192,204048,1,0,0:0:0:0:
36,192,204229,1,0,0:0:0:70:ClapHand.wav
256,192,204229,1,0,0:0:0:0:
475,192,204229,1,0,0:0:0:0:
109,192,204410,1,0,0:0:0:0:
36,192,204590,1,0,0:0:0:70:ClapHand.wav
256,192,204590,1,0,0:0:0:0:
475,192,204590,1,0,0:0:0:0:
329,192,204771,1,0,0:0:0:0:
36,192,204952,1,0,0:0:0:70:ClapHand.wav
256,192,204952,1,0,0:0:0:0:
475,192,204952,1,0,0:0:0:0:
182,192,205132,1,0,0:0:0:0:
109,192,205313,1,0,0:0:0:70:ClapHand.wav
256,192,205313,1,0,0:0:0:0:
402,192,205313,1,0,0:0:0:0:
475,192,205494,1,0,0:0:0:0:
109,192,205675,1,0,0:0:0:70:ClapHand.wav
256,192,205675,1,0,0:0:0:0:
402,192,205675,1,0,0:0:0:0:
36,192,205855,1,0,0:0:0:0:
109,192,206036,1,0,0:0:0:70:ClapHand.wav
256,192,206036,1,0,0:0:0:0:
402,192,206036,1,0,0:0:0:0:
329,192,206217,1,0,0:0:0:0:
109,192,206397,1,0,0:0:0:70:ClapHand.wav
256,192,206397,1,0,0:0:0:0:
402,192,206397,1,0,0:0:0:0:
182,192,206578,1,0,0:0:0:0:
36,192,206759,1,0,0:0:0:70:ClapHand.wav
256,192,206759,1,0,0:0:0:0:
475,192,206759,1,0,0:0:0:0:
402,192,206940,1,0,0:0:0:0:
36,192,207120,1,0,0:0:0:70:ClapHand.wav
256,192,207120,1,0,0:0:0:0:
475,192,207120,1,0,0:0:0:0:
109,192,207301,1,0,0:0:0:0:
36,192,207482,1,0,0:0:0:70:ClapHand.wav
256,192,207482,1,0,0:0:0:0:
475,192,207482,1,0,0:0:0:0:
329,192,207663,1,0,0:0:0:0:
36,192,207843,1,0,0:0:0:70:ClapHand.wav
256,192,207843,1,0,0:0:0:0:
475,192,207843,1,0,0:0:0:0:
182,192,208024,1,0,0:0:0:0:
109,192,208205,1,0,0:0:0:70:ClapHand.wav
256,192,208205,1,0,0:0:0:0:
402,192,208205,1,0,0:0:0:0:
475,192,208385,1,0,0:0:0:0:
109,192,208566,1,0,0:0:0:70:ClapHand.wav
256,192,208566,1,0,0:0:0:0:
402,192,208566,1,0,0:0:0:0:
36,192,208747,1,0,0:0:0:0:
109,192,208928,1,0,0:0:0:70:ClapHand.wav
256,192,208928,1,0,0:0:0:0:
402,192,208928,1,0,0:0:0:0:
329,192,209108,1,0,0:0:0:0:
109,192,209289,1,0,0:0:0:70:ClapHand.wav
256,192,209289,1,0,0:0:0:0:
402,192,209289,1,0,0:0:0:0:
182,192,209470,1,0,0:0:0:0:
36,192,209650,1,0,0:0:0:70:ClapHand.wav
256,192,209650,1,0,0:0:0:0:
475,192,209650,1,0,0:0:0:0:
109,192,209741,1,0,0:0:0:0:
402,192,209831,1,0,0:0:0:0:
329,192,209922,1,0,0:0:0:0:
36,192,210012,1,0,0:0:0:70:ClapHand.wav
256,192,210012,1,0,0:0:0:0:
475,192,210012,1,0,0:0:0:0:
109,192,210102,1,0,0:0:0:0:
402,192,210193,1,0,0:0:0:0:
329,192,210283,1,0,0:0:0:0:
36,192,210373,1,0,0:0:0:70:ClapHand.wav
256,192,210373,1,0,0:0:0:0:
475,192,210373,1,0,0:0:0:0:
402,192,210464,1,0,0:0:0:0:
109,192,210554,1,0,0:0:0:0:
182,192,210644,1,0,0:0:0:0:
36,192,210735,1,0,0:0:0:70:ClapHand.wav
256,192,210735,1,0,0:0:0:0:
475,192,210735,1,0,0:0:0:0:
402,192,210825,1,0,0:0:0:0:
109,192,210916,1,0,0:0:0:0:
182,192,211006,1,0,0:0:0:0:
36,192,211096,1,0,0:0:0:70:ClapHand.wav
256,192,211096,1,0,0:0:0:0:
475,192,211096,1,0,0:0:0:0:
329,192,211187,1,0,0:0:0:0:
402,192,211187,1,0,0:0:0:0:
109,192,211277,1,0,0:0:0:0:
182,192,211277,1,0,0:0:0:0:
329,192,211367,1,0,0:0:0:0:
402,192,211367,1,0,0:0:0:0:
109,192,211458,1,0,0:0:0:70:ClapHand.wav
182,192,211458,1,0,0:0:0:0:
329,192,211548,1,0,0:0:0:0:
475,192,211548,1,0,0:0:0:0:
36,192,211638,1,0,0:0:0:0:
182,192,211638,1,0,0:0:0:0:
329,192,211729,1,0,0:0:0:0:
475,192,211729,1,0,0:0:0:0:
36,192,211819,1,0,0:0:0:70:ClapHand.wav
182,192,211819,1,0,0:0:0:0:
402,192,211910,1,0,0:0:0:0:
475,192,211910,1,0,0:0:0:0:
36,192,212000,1,0,0:0:0:0:
109,192,212000,1,0,0:0:0:0:
402,192,212090,1,0,0:0:0:0:
475,192,212090,1,0,0:0:0:0:
36,192,212181,1,0,0:0:0:70:ClapHand.wav
109,192,212181,1,0,0:0:0:0:
329,192,212271,1,0,0:0:0:0:
402,192,212271,1,0,0:0:0:0:
109,192,212361,1,0,0:0:0:0:
182,192,212361,1,0,0:0:0:0:
329,192,212452,1,0,0:0:0:0:
402,192,212452,1,0,0:0:0:0:
109,192,212542,1,4,0:0:0:0:
182,192,212542,1,2,0:0:0:0:
256,192,212542,1,0,0:0:0:0:
475,192,212542,1,0,0:0:0:0:
402,192,212723,1,0,0:0:0:0:
329,192,212813,1,0,0:0:0:0:
109,192,212903,1,0,0:0:0:0:
182,192,212994,1,0,0:0:0:0:
475,192,213084,1,0,0:0:0:0:
402,192,213175,1,0,0:0:0:0:
109,192,213355,1,0,0:0:0:0:
182,192,213446,1,0,0:0:0:0:
256,192,213536,1,0,0:0:0:0:
36,192,213626,1,0,0:0:0:70:LR3_Snare FCSRL.wav
329,192,213626,1,0,0:0:0:0:
475,192,213626,1,0,0:0:0:0:
36,192,213988,128,2,215253:0:0:0:0:
109,192,213988,128,4,215253:0:0:0:0:
402,192,213988,128,0,215253:0:0:0:0:
475,192,213988,128,0,215253:0:0:0:0:
182,192,214349,1,0,0:0:0:70:ClapHand.wav
329,192,214349,1,0,0:0:0:0:
182,192,214711,1,0,0:0:0:70:ClapHand.wav
329,192,214711,1,0,0:0:0:0:
182,192,215072,1,0,0:0:0:70:ClapHand.wav
329,192,215072,1,0,0:0:0:0:
182,192,215434,128,4,216337:0:0:0:0:
256,192,215434,128,2,216337:0:0:0:0:
402,192,215434,128,0,216337:0:0:0:70:ClapHand.wav
475,192,215434,128,0,216337:0:0:0:0:
36,192,215795,1,0,0:0:0:70:ClapHand.wav
109,192,215795,1,0,0:0:0:0:
36,192,216157,1,0,0:0:0:70:ClapHand.wav
109,192,216157,1,0,0:0:0:0:
36,192,216518,1,0,0:0:0:70:ClapHand.wav
109,192,216518,1,0,0:0:0:0:
182,192,216578,1,0,0:0:0:0:
256,192,216638,1,0,0:0:0:0:
475,192,216699,1,0,0:0:0:0:
402,192,216759,1,0,0:0:0:0:
329,192,216819,1,0,0:0:0:0:
36,192,216879,128,4,217964:0:0:0:0:
109,192,216879,128,2,217964:0:0:0:0:
182,192,216879,128,0,217964:0:0:0:0:
256,192,216879,128,0,217964:0:0:0:0:
402,192,217241,1,0,0:0:0:70:ClapHand.wav
475,192,217241,1,0,0:0:0:0:
402,192,217602,1,0,0:0:0:70:ClapHand.wav
475,192,217602,1,0,0:0:0:0:
402,192,217964,1,0,0:0:0:70:ClapHand.wav
475,192,217964,1,0,0:0:0:0:
182,192,218144,128,4,219229:0:0:0:0:
256,192,218144,128,2,219229:0:0:0:0:
402,192,218144,128,0,219229:0:0:0:0:
475,192,218144,128,0,219229:0:0:0:0:
36,192,218325,1,0,0:0:0:70:ClapHand.wav
109,192,218325,1,0,0:0:0:0:
36,192,218687,1,0,0:0:0:70:ClapHand.wav
109,192,218687,1,0,0:0:0:0:
36,192,219048,1,0,0:0:0:70:ClapHand.wav
109,192,219048,1,0,0:0:0:0:
36,192,219410,128,0,219500:0:0:0:0:
109,192,219410,128,0,219500:0:0:0:0:
36,192,219771,128,4,221036:0:0:0:0:
109,192,219771,128,2,221036:0:0:0:0:
402,192,219771,128,0,221036:0:0:0:0:
475,192,219771,128,0,221036:0:0:0:0:
182,192,220132,1,0,0:0:0:70:ClapHand.wav
329,192,220132,1,0,0:0:0:0:
182,192,220494,1,0,0:0:0:70:ClapHand.wav
329,192,220494,1,0,0:0:0:0:
182,192,220855,1,0,0:0:0:70:ClapHand.wav
329,192,220855,1,0,0:0:0:0:
256,192,221217,128,4,222301:0:0:0:0:
329,192,221217,128,2,222301:0:0:0:0:
402,192,221217,128,0,222301:0:0:0:70:ClapHand.wav
475,192,221217,128,0,222301:0:0:0:0:
36,192,221578,1,0,0:0:0:70:ClapHand.wav
109,192,221578,1,0,0:0:0:0:
36,192,221940,1,0,0:0:0:70:ClapHand.wav
109,192,221940,1,0,0:0:0:0:
36,192,222301,1,0,0:0:0:70:ClapHand.wav
109,192,222301,1,0,0:0:0:0:
182,192,222391,1,0,0:0:0:0:
475,192,222482,1,0,0:0:0:0:
402,192,222572,1,0,0:0:0:0:
36,192,222663,128,2,223747:0:0:0:0:
109,192,222663,128,4,223747:0:0:0:0:
256,192,222663,128,0,223747:0:0:0:0:
329,192,222663,128,0,223747:0:0:0:0:
402,192,223024,1,0,0:0:0:70:ClapHand.wav
475,192,223024,1,0,0:0:0:0:
402,192,223385,1,0,0:0:0:70:ClapHand.wav
475,192,223385,1,0,0:0:0:0:
402,192,223747,1,0,0:0:0:70:ClapHand.wav
475,192,223747,1,0,0:0:0:0:
36,192,223928,128,4,225193:0:0:0:0:
109,192,223928,128,2,225193:0:0:0:0:
402,192,223928,128,0,225193:0:0:0:0:
475,192,223928,128,0,225193:0:0:0:0:
182,192,224108,1,0,0:0:0:70:ClapHand.wav
329,192,224108,1,0,0:0:0:0:
182,192,224470,1,0,0:0:0:70:ClapHand.wav
329,192,224470,1,0,0:0:0:0:
182,192,224831,1,0,0:0:0:70:ClapHand.wav
329,192,224831,1,0,0:0:0:0:
329,192,225193,128,0,225373:0:0:0:0:
256,192,225283,128,0,225464:0:0:0:0:
182,192,225373,128,0,225554:0:0:0:0:
109,192,225464,128,0,225554:0:0:0:0:
36,192,225554,128,2,227000:0:0:0:0:
329,192,225554,1,4,0:0:0:0:
402,192,225554,1,8,0:0:0:0:
475,192,225554,1,0,0:0:0:0:
182,192,225735,1,0,0:0:0:0:
256,192,225916,1,2,0:0:0:0:
402,192,225916,1,8,0:0:0:0:
475,192,226096,1,0,0:0:0:0:
109,192,226277,1,2,0:0:0:0:
329,192,226277,1,8,0:0:0:0:
182,192,226458,1,0,0:0:0:0:
256,192,226638,1,2,0:0:0:0:
475,192,226638,1,8,0:0:0:0:
402,192,226819,1,0,0:0:0:0:
109,192,227000,1,2,0:0:0:0:
182,192,227000,1,4,0:0:0:0:
329,192,227000,128,8,228446:0:0:0:0:
475,192,227000,1,0,0:0:0:0:
402,192,227181,1,0,0:0:0:0:
36,192,227361,1,2,0:0:0:0:
256,192,227361,1,8,0:0:0:0:
109,192,227542,1,0,0:0:0:0:
182,192,227723,1,2,0:0:0:0:
475,192,227723,1,8,0:0:0:0:
402,192,227903,1,0,0:0:0:0:
36,192,228084,1,2,0:0:0:0:
256,192,228084,1,8,0:0:0:0:
109,192,228265,1,0,0:0:0:0:
36,192,228446,1,2,0:0:0:0:
182,192,228446,1,4,0:0:0:0:
402,192,228446,1,8,0:0:0:0:
475,192,228446,128,0,229891:0:0:0:0:
109,192,228626,1,8,0:0:0:0:
256,192,228626,1,0,0:0:0:0:
329,192,228626,1,0,0:0:0:0:
36,192,228807,1,2,0:0:0:0:
402,192,228807,1,8,0:0:0:0:
109,192,228988,1,8,0:0:0:0:
182,192,228988,1,0,0:0:0:0:
329,192,228988,1,0,0:0:0:0:
36,192,229169,1,2,0:0:0:0:
256,192,229169,1,8,0:0:0:0:
109,192,229349,1,8,0:0:0:0:
182,192,229349,1,0,0:0:0:0:
402,192,229349,1,0,0:0:0:0:
256,192,229530,1,2,0:0:0:0:
329,192,229530,1,8,0:0:0:0:
36,192,229711,1,8,0:0:0:0:
182,192,229711,1,0,0:0:0:0:
402,192,229711,1,0,0:0:0:0:
36,192,229891,1,2,0:0:0:0:
109,192,229891,1,4,0:0:0:0:
256,192,229891,1,8,0:0:0:0:
329,192,229891,128,0,231337:0:0:0:0:
182,192,230072,1,8,0:0:0:0:
402,192,230072,1,0,0:0:0:0:
475,192,230072,1,0,0:0:0:0:
36,192,230253,1,2,0:0:0:0:
109,192,230253,1,8,0:0:0:0:
182,192,230434,1,8,0:0:0:0:
256,192,230434,1,0,0:0:0:0:
402,192,230434,1,0,0:0:0:0:
109,192,230614,1,2,0:0:0:0:
475,192,230614,1,8,0:0:0:0:
36,192,230795,1,8,0:0:0:0:
256,192,230795,1,0,0:0:0:0:
402,192,230795,1,0,0:0:0:0:
109,192,230976,1,2,0:0:0:0:
182,192,230976,1,8,0:0:0:0:
109,192,231157,1,2,0:0:0:0:
182,192,231157,1,8,0:0:0:0:
36,192,231337,1,4,0:0:0:0:
109,192,231337,1,2,0:0:0:0:
402,192,231337,1,8,0:0:0:0:
475,192,231337,1,0,0:0:0:0:
256,192,231428,1,8,0:0:0:0:
109,192,231518,1,2,0:0:0:0:
182,192,231518,1,8,0:0:0:0:
402,192,231608,1,8,0:0:0:0:
256,192,231699,1,2,0:0:0:0:
329,192,231699,1,8,0:0:0:0:
475,192,231789,1,8,0:0:0:0:
329,192,231879,1,2,0:0:0:0:
402,192,231879,1,8,0:0:0:0:
182,192,231970,1,8,0:0:0:0:
36,192,232060,1,2,0:0:0:0:
109,192,232060,1,4,0:0:0:0:
402,192,232060,1,8,0:0:0:0:
475,192,232060,1,0,0:0:0:0:
256,192,232150,1,8,0:0:0:0:
109,192,232241,1,2,0:0:0:0:
182,192,232241,1,8,0:0:0:0:
329,192,232331,1,8,0:0:0:0:
182,192,232422,1,2,0:0:0:0:
256,192,232422,1,8,0:0:0:0:
402,192,232512,1,8,0:0:0:0:
256,192,232602,1,2,0:0:0:0:
329,192,232602,1,8,0:0:0:0:
475,192,232693,1,8,0:0:0:0:
36,192,232783,1,2,0:0:0:0:
109,192,232783,1,4,0:0:0:0:
329,192,232783,1,8,0:0:0:0:
402,192,232783,1,0,0:0:0:0:
182,192,232873,1,8,0:0:0:0:
256,192,232964,1,2,0:0:0:0:
329,192,232964,1,8,0:0:0:0:
109,192,233054,1,8,0:0:0:0:
182,192,233144,1,2,0:0:0:0:
256,192,233144,1,8,0:0:0:0:
36,192,233235,1,8,0:0:0:0:
109,192,233325,1,2,0:0:0:0:
182,192,233325,1,8,0:0:0:0:
329,192,233416,1,8,0:0:0:0:
36,192,233506,1,2,0:0:0:0:
109,192,233506,1,4,0:0:0:0:
402,192,233506,1,8,0:0:0:0:
475,192,233506,1,0,0:0:0:0:
256,192,233596,1,8,0:0:0:0:
329,192,233687,1,2,0:0:0:0:
402,192,233687,1,8,0:0:0:0:
182,192,233777,1,8,0:0:0:0:
256,192,233867,1,2,0:0:0:0:
329,192,233867,1,8,0:0:0:0:
109,192,233958,1,8,0:0:0:0:
182,192,234048,1,2,0:0:0:0:
256,192,234048,1,8,0:0:0:0:
329,192,234138,1,8,0:0:0:0:
402,192,234229,1,2,0:0:0:0:
475,192,234229,1,0,0:0:0:0:
109,192,234319,1,2,0:0:0:0:
182,192,234319,1,0,0:0:0:0:
402,192,234410,1,2,0:0:0:0:
475,192,234410,1,0,0:0:0:0:
109,192,234500,1,2,0:0:0:0:
182,192,234500,1,0,0:0:0:0:
329,192,234590,1,2,0:0:0:0:
475,192,234590,1,0,0:0:0:0:
36,192,234681,1,2,0:0:0:0:
182,192,234681,1,0,0:0:0:0:
329,192,234771,1,2,0:0:0:0:
475,192,234771,1,0,0:0:0:0:
36,192,234861,1,2,0:0:0:0:
182,192,234861,1,0,0:0:0:0:
329,192,234952,1,2,0:0:0:0:
402,192,234952,1,0,0:0:0:0:
36,192,235042,1,2,0:0:0:0:
109,192,235042,1,0,0:0:0:0:
329,192,235132,1,2,0:0:0:0:
402,192,235132,1,0,0:0:0:0:
36,192,235223,1,2,0:0:0:0:
109,192,235223,1,0,0:0:0:0:
402,192,235313,1,2,0:0:0:0:
475,192,235313,1,0,0:0:0:0:
109,192,235403,1,2,0:0:0:0:
182,192,235403,1,0,0:0:0:0:
402,192,235494,1,2,0:0:0:0:
475,192,235494,1,0,0:0:0:0:
109,192,235584,1,2,0:0:0:0:
182,192,235584,1,0,0:0:0:0:
36,192,235675,1,4,0:0:0:0:
256,192,235675,1,2,0:0:0:0:
329,192,235675,1,0,0:0:0:0:
475,192,235675,128,0,235855:0:0:0:0:
402,192,235765,128,0,235946:0:0:0:0:
182,192,235855,1,0,0:0:0:0:
329,192,235855,128,0,236036:0:0:0:0:
256,192,235946,128,0,236126:0:0:0:0:
109,192,236036,1,0,0:0:0:0:
402,192,236036,128,0,236217:0:0:0:0:
329,192,236126,128,0,236307:0:0:0:0:
36,192,236217,1,0,0:0:0:0:
256,192,236217,128,0,236397:0:0:0:0:
182,192,236307,128,0,236488:0:0:0:0:
329,192,236397,128,0,236578:0:0:0:0:
475,192,236397,1,0,0:0:0:0:
256,192,236488,128,0,236669:0:0:0:0:
182,192,236578,128,0,236759:0:0:0:0:
402,192,236578,1,0,0:0:0:0:
109,192,236669,128,0,236759:0:0:0:0:
36,192,236759,128,0,236940:0:0:0:70:LR3_Snare LRW.wav
256,192,236759,128,0,236940:0:0:0:0:
475,192,236759,128,0,236940:0:0:0:0:
256,192,237120,1,4,0:0:0:0:
329,192,237120,1,2,0:0:0:0:
402,192,237120,1,0,0:0:0:0:
475,192,237120,128,0,237482:0:0:0:0:
109,192,237301,1,0,0:0:0:0:
36,192,237482,128,8,237843:0:0:0:0:
256,192,237482,1,0,0:0:0:0:
329,192,237482,1,0,0:0:0:0:
475,192,237663,1,0,0:0:0:0:
182,192,237843,128,2,238205:0:0:0:0:
402,192,237843,1,0,0:0:0:0:
329,192,238024,1,0,0:0:0:0:
36,192,238205,1,8,0:0:0:0:
402,192,238205,128,0,238566:0:0:0:0:
475,192,238205,1,0,0:0:0:0:
182,192,238385,128,0,238566:0:0:0:0:
36,192,238566,128,2,238837:0:0:0:0:
329,192,238566,1,0,0:0:0:0:
475,192,238747,1,0,0:0:0:0:
109,192,238837,128,0,239108:0:0:0:0:
182,192,238928,1,8,0:0:0:0:
256,192,238928,1,0,0:0:0:0:
402,192,238928,1,0,0:0:0:0:
329,192,239108,128,0,239199:0:0:0:0:
475,192,239108,128,0,239199:0:0:0:0:
182,192,239289,1,2,0:0:0:0:
256,192,239289,128,0,239470:0:0:0:0:
402,192,239289,128,0,239470:0:0:0:0:
36,192,239470,1,0,0:0:0:0:
109,192,239650,1,8,0:0:0:0:
256,192,239650,1,0,0:0:0:0:
475,192,239650,1,0,0:0:0:0:
402,192,239831,128,0,240012:0:0:0:0:
36,192,240012,128,2,240283:0:0:0:0:
109,192,240012,1,0,0:0:0:0:
329,192,240193,1,0,0:0:0:0:
182,192,240283,128,0,240554:0:0:0:0:
36,192,240373,1,8,0:0:0:0:
256,192,240373,1,0,0:0:0:0:
402,192,240373,1,0,0:0:0:0:
329,192,240554,128,0,240644:0:0:0:0:
475,192,240554,128,0,240644:0:0:0:0:
182,192,240735,1,2,0:0:0:0:
256,192,240735,128,0,240916:0:0:0:0:
402,192,240735,128,0,240916:0:0:0:0:
109,192,240916,1,0,0:0:0:0:
36,192,241096,128,8,241458:0:0:0:0:
256,192,241096,1,0,0:0:0:0:
402,192,241096,1,0,0:0:0:0:
329,192,241277,128,0,241458:0:0:0:0:
402,192,241458,1,2,0:0:0:0:
475,192,241458,128,0,241729:0:0:0:0:
329,192,241638,1,0,0:0:0:0:
182,192,241729,128,0,242000:0:0:0:0:
36,192,241819,1,8,0:0:0:0:
109,192,241819,1,0,0:0:0:0:
256,192,241819,1,0,0:0:0:0:
402,192,242000,128,0,242181:0:0:0:0:
109,192,242181,1,2,0:0:0:0:
329,192,242181,128,0,242542:0:0:0:0:
182,192,242361,1,0,0:0:0:0:
36,192,242542,128,8,242903:0:0:0:0:
256,192,242542,1,0,0:0:0:0:
475,192,242542,1,0,0:0:0:0:
402,192,242723,1,0,0:0:0:0:
109,192,242903,1,2,0:0:0:0:
182,192,242903,128,0,243265:0:0:0:0:
402,192,243084,1,0,0:0:0:0:
36,192,243265,1,8,0:0:0:0:
256,192,243265,1,0,0:0:0:0:
475,192,243265,128,0,243626:0:0:0:0:
182,192,243446,1,0,0:0:0:0:
109,192,243626,128,2,243988:0:0:0:0:
329,192,243626,1,0,0:0:0:0:
475,192,243807,1,0,0:0:0:0:
36,192,243988,1,8,0:0:0:0:
256,192,243988,1,0,0:0:0:0:
402,192,243988,128,0,244349:0:0:0:0:
109,192,244169,128,0,244349:0:0:0:0:
36,192,244349,128,2,244620:0:0:0:0:
182,192,244349,1,0,0:0:0:0:
329,192,244530,1,0,0:0:0:0:
475,192,244620,128,0,244891:0:0:0:0:
109,192,244711,1,8,0:0:0:0:
256,192,244711,1,0,0:0:0:0:
402,192,244711,1,0,0:0:0:0:
182,192,244891,128,0,244982:0:0:0:0:
329,192,244891,128,0,244982:0:0:0:0:
36,192,245072,1,2,0:0:0:0:
109,192,245072,128,0,245253:0:0:0:0:
256,192,245072,128,0,245253:0:0:0:0:
329,192,245253,1,0,0:0:0:0:
109,192,245434,1,8,0:0:0:0:
256,192,245434,1,0,0:0:0:0:
475,192,245434,128,0,245795:0:0:0:0:
182,192,245614,128,0,245795:0:0:0:0:
36,192,245795,128,2,246066:0:0:0:0:
402,192,245795,1,0,0:0:0:0:
182,192,245976,1,0,0:0:0:0:
329,192,246066,128,0,246337:0:0:0:0:
256,192,246157,1,8,0:0:0:0:
402,192,246157,1,0,0:0:0:0:
475,192,246157,1,0,0:0:0:0:
36,192,246337,128,0,246428:0:0:0:0:
182,192,246337,128,0,246428:0:0:0:0:
109,192,246518,128,2,246699:0:0:0:0:
256,192,246518,128,0,246699:0:0:0:0:
475,192,246518,1,0,0:0:0:0:
402,192,246699,1,0,0:0:0:0:
36,192,246879,1,8,0:0:0:0:
256,192,246879,1,0,0:0:0:0:
475,192,246879,128,0,247241:0:0:0:0:
182,192,247060,128,0,247241:0:0:0:0:
36,192,247241,1,2,0:0:0:0:
109,192,247241,1,4,0:0:0:0:
329,192,247241,1,0,0:0:0:0:
402,192,247241,1,0,0:0:0:0:
36,192,247512,1,2,0:0:0:0:
109,192,247512,1,4,0:0:0:0:
329,192,247512,1,0,0:0:0:0:
402,192,247512,1,0,0:0:0:0:
182,192,247602,1,8,0:0:0:0:
256,192,247602,1,0,0:0:0:0:
475,192,247602,1,0,0:0:0:0:
36,192,247783,1,2,0:0:0:0:
109,192,247783,1,4,0:0:0:0:
329,192,247783,1,0,0:0:0:0:
402,192,247783,1,0,0:0:0:0:
182,192,247964,1,0,0:0:0:0:
329,192,248144,1,2,0:0:0:0:
402,192,248144,1,0,0:0:0:0:
36,192,248325,1,0,0:0:0:70:LR3_Snare FCSRL.wav
256,192,248325,1,0,0:0:0:0:
475,192,248325,1,0,0:0:0:0:
402,192,248385,1,0,0:0:0:0:
329,192,248446,1,0,0:0:0:0:
36,192,248506,1,0,0:0:0:0:
109,192,248566,1,0,0:0:0:0:
182,192,248626,1,0,0:0:0:0:
36,192,248687,1,4,0:0:0:0:
256,192,248687,1,2,0:0:0:0:
402,192,248687,1,0,0:0:0:0:
475,192,248687,128,0,249048:0:0:0:0:
329,192,248867,1,0,0:0:0:0:
36,192,249048,1,8,0:0:0:0:
109,192,249048,128,0,249410:0:0:0:0:
256,192,249048,1,0,0:0:0:0:
182,192,249229,1,0,0:0:0:0:
329,192,249410,1,2,0:0:0:0:
402,192,249410,128,0,249771:0:0:0:0:
36,192,249590,1,0,0:0:0:0:
182,192,249771,128,8,250132:0:0:0:0:
256,192,249771,1,0,0:0:0:0:
475,192,249771,1,0,0:0:0:0:
402,192,249952,128,0,250132:0:0:0:0:
36,192,250132,128,2,250403:0:0:0:0:
109,192,250132,1,0,0:0:0:0:
329,192,250313,1,0,0:0:0:0:
475,192,250403,128,0,250675:0:0:0:0:
109,192,250494,1,8,0:0:0:0:
256,192,250494,1,0,0:0:0:0:
402,192,250494,1,0,0:0:0:0:
36,192,250675,128,0,250765:0:0:0:0:
182,192,250675,128,0,250765:0:0:0:0:
109,192,250855,128,2,251036:0:0:0:0:
256,192,250855,128,0,251036:0:0:0:0:
475,192,250855,1,0,0:0:0:0:
329,192,251036,1,0,0:0:0:0:
109,192,251217,1,8,0:0:0:0:
256,192,251217,1,0,0:0:0:0:
402,192,251217,1,0,0:0:0:0:
329,192,251397,128,0,251578:0:0:0:0:
36,192,251578,128,2,251849:0:0:0:0:
182,192,251578,1,0,0:0:0:0:
475,192,251759,1,0,0:0:0:0:
402,192,251849,128,0,252120:0:0:0:0:
109,192,251940,1,8,0:0:0:0:
256,192,251940,1,0,0:0:0:0:
329,192,251940,1,0,0:0:0:0:
36,192,252120,128,0,252211:0:0:0:0:
182,192,252120,128,0,252211:0:0:0:0:
109,192,252301,128,2,252482:0:0:0:0:
256,192,252301,128,0,252482:0:0:0:0:
475,192,252301,1,0,0:0:0:0:
402,192,252482,1,0,0:0:0:0:
36,192,252663,1,8,0:0:0:0:
256,192,252663,1,0,0:0:0:0:
475,192,252663,128,0,253024:0:0:0:0:
182,192,252843,128,0,253024:0:0:0:0:
36,192,253024,128,2,253295:0:0:0:0:
329,192,253024,1,0,0:0:0:0:
109,192,253205,1,0,0:0:0:0:
402,192,253295,128,0,253566:0:0:0:0:
182,192,253385,1,8,0:0:0:0:
256,192,253385,1,0,0:0:0:0:
475,192,253385,1,0,0:0:0:0:
109,192,253566,128,0,253928:0:0:0:0:
36,192,253747,1,2,0:0:0:0:
329,192,253747,128,0,253928:0:0:0:0:
402,192,253928,1,0,0:0:0:0:
36,192,254108,128,8,254289:0:0:0:0:
256,192,254108,1,0,0:0:0:0:
475,192,254108,1,0,0:0:0:0:
109,192,254289,1,0,0:0:0:0:
182,192,254470,1,2,0:0:0:0:
402,192,254470,128,0,254831:0:0:0:0:
329,192,254650,1,0,0:0:0:0:
36,192,254831,128,8,255193:0:0:0:0:
256,192,254831,1,0,0:0:0:0:
475,192,254831,1,0,0:0:0:0:
402,192,255012,1,0,0:0:0:0:
182,192,255193,1,2,0:0:0:0:
329,192,255193,128,0,255554:0:0:0:0:
36,192,255373,1,0,0:0:0:0:
109,192,255554,128,8,255916:0:0:0:0:
256,192,255554,1,0,0:0:0:0:
475,192,255554,1,0,0:0:0:0:
329,192,255735,128,0,255916:0:0:0:0:
36,192,255916,1,2,0:0:0:0:
475,192,255916,128,0,256187:0:0:0:0:
329,192,256096,1,0,0:0:0:0:
182,192,256187,128,0,256458:0:0:0:0:
36,192,256277,1,8,0:0:0:0:
256,192,256277,1,0,0:0:0:0:
402,192,256277,1,0,0:0:0:0:
329,192,256458,128,0,256548:0:0:0:0:
475,192,256458,128,0,256548:0:0:0:0:
182,192,256638,1,2,0:0:0:0:
256,192,256638,128,0,256819:0:0:0:0:
402,192,256638,128,0,256819:0:0:0:0:
109,192,256819,1,0,0:0:0:0:
36,192,257000,128,8,257361:0:0:0:0:
256,192,257000,1,0,0:0:0:0:
475,192,257000,1,0,0:0:0:0:
329,192,257181,128,0,257361:0:0:0:0:
109,192,257361,1,2,0:0:0:0:
182,192,257361,1,4,0:0:0:0:
402,192,257361,1,0,0:0:0:0:
475,192,257361,128,0,257632:0:0:0:0:
256,192,257632,128,0,257903:0:0:0:0:
109,192,257723,1,8,0:0:0:0:
329,192,257723,1,0,0:0:0:0:
402,192,257723,1,0,0:0:0:0:
36,192,257903,128,2,257994:0:0:0:0:
182,192,257903,128,4,257994:0:0:0:0:
402,192,257903,1,0,0:0:0:0:
475,192,257903,128,0,258265:0:0:0:0:
109,192,258084,128,0,258265:0:0:0:0:
256,192,258084,128,0,258265:0:0:0:0:
36,192,258446,1,8,0:0:0:0:
256,192,258446,1,0,0:0:0:0:
475,192,258446,1,0,0:0:0:0:
36,192,258807,1,4,0:0:0:0:
109,192,258807,1,2,0:0:0:0:
402,192,258807,1,0,0:0:0:0:
475,192,258807,1,0,0:0:0:0:
182,192,258897,1,0,0:0:0:0:
256,192,258897,1,0,0:0:0:0:
329,192,258988,1,2,0:0:0:0:
402,192,258988,1,0,0:0:0:0:
109,192,259078,1,2,0:0:0:0:
182,192,259078,1,0,0:0:0:0:
256,192,259169,1,2,0:0:0:0:
329,192,259169,1,0,0:0:0:0:
402,192,259259,1,2,0:0:0:0:
475,192,259259,1,0,0:0:0:0:
36,192,259349,1,2,0:0:0:0:
109,192,259349,1,0,0:0:0:0:
182,192,259440,1,2,0:0:0:0:
256,192,259440,1,0,0:0:0:0:
329,192,259530,1,2,0:0:0:0:
402,192,259530,1,0,0:0:0:0:
36,192,259620,1,2,0:0:0:0:
109,192,259620,1,0,0:0:0:0:
182,192,259711,1,2,0:0:0:0:
256,192,259711,1,0,0:0:0:0:
329,192,259801,1,2,0:0:0:0:
402,192,259801,1,0,0:0:0:0:
475,192,259891,128,0,260253:0:0:0:0:
256,192,260072,128,0,260253:0:0:0:0:
36,192,260253,1,2,0:0:0:0:
109,192,260253,1,4,0:0:0:0:
329,192,260253,128,0,260434:0:0:0:0:
402,192,260253,128,0,260434:0:0:0:0:
182,192,260434,1,0,0:0:0:0:
329,192,260614,128,8,260795:0:0:0:0:
402,192,260614,128,0,260795:0:0:0:0:
475,192,260614,1,0,0:0:0:0:
256,192,260795,1,0,0:0:0:0:
109,192,260976,128,2,261157:0:0:0:0:
182,192,260976,128,0,261157:0:0:0:0:
402,192,261157,1,0,0:0:0:0:
36,192,261337,1,8,0:0:0:0:
109,192,261337,128,0,261518:0:0:0:0:
182,192,261337,128,0,261518:0:0:0:0:
256,192,261518,1,0,0:0:0:0:
329,192,261699,128,2,261879:0:0:0:0:
475,192,261699,128,0,261879:0:0:0:0:
109,192,261879,1,0,0:0:0:0:
182,192,262060,1,8,0:0:0:0:
329,192,262060,128,0,262241:0:0:0:0:
475,192,262060,128,0,262241:0:0:0:0:
256,192,262241,1,0,0:0:0:0:
36,192,262422,128,2,262602:0:0:0:0:
182,192,262422,128,0,262602:0:0:0:0:
402,192,262602,1,0,0:0:0:0:
36,192,262783,128,8,262964:0:0:0:0:
182,192,262783,128,0,262964:0:0:0:0:
329,192,262783,1,0,0:0:0:0:
256,192,262964,1,0,0:0:0:0:
402,192,263144,128,2,263325:0:0:0:0:
475,192,263144,128,0,263325:0:0:0:0:
109,192,263325,1,0,0:0:0:0:
182,192,263506,1,8,0:0:0:0:
402,192,263506,128,0,263687:0:0:0:0:
475,192,263506,128,0,263687:0:0:0:0:
256,192,263687,1,0,0:0:0:0:
36,192,263867,128,2,264048:0:0:0:0:
109,192,263867,128,0,264048:0:0:0:0:
402,192,264048,1,0,0:0:0:0:
36,192,264229,128,8,264410:0:0:0:0:
109,192,264229,128,0,264410:0:0:0:0:
329,192,264229,1,0,0:0:0:0:
256,192,264410,1,0,0:0:0:0:
182,192,264590,128,2,264771:0:0:0:0:
329,192,264590,128,0,264771:0:0:0:0:
109,192,264771,1,0,0:0:0:0:
182,192,264952,128,8,265132:0:0:0:0:
329,192,264952,128,0,265132:0:0:0:0:
475,192,264952,1,0,0:0:0:0:
36,192,265132,1,0,0:0:0:0:
109,192,265313,128,2,265494:0:0:0:0:
402,192,265313,128,0,265494:0:0:0:0:
182,192,265494,1,0,0:0:0:0:
109,192,265675,128,8,265855:0:0:0:0:
256,192,265675,1,0,0:0:0:0:
402,192,265675,128,0,265855:0:0:0:0:
329,192,265855,1,0,0:0:0:0:
402,192,266036,128,2,266217:0:0:0:0:
475,192,266036,128,0,266217:0:0:0:0:
109,192,266217,1,0,0:0:0:0:
182,192,266397,1,8,0:0:0:0:
402,192,266397,128,0,266578:0:0:0:0:
475,192,266397,128,0,266578:0:0:0:0:
256,192,266578,1,0,0:0:0:0:
36,192,266759,128,2,266940:0:0:0:0:
109,192,266759,128,0,266940:0:0:0:0:
402,192,266940,1,0,0:0:0:0:
36,192,267120,128,8,267301:0:0:0:0:
109,192,267120,128,0,267301:0:0:0:0:
329,192,267120,1,0,0:0:0:0:
256,192,267301,1,0,0:0:0:0:
329,192,267482,128,2,267663:0:0:0:0:
475,192,267482,128,0,267663:0:0:0:0:
109,192,267663,1,0,0:0:0:0:
182,192,267843,1,8,0:0:0:0:
329,192,267843,128,0,268024:0:0:0:0:
475,192,267843,128,0,268024:0:0:0:0:
256,192,268024,1,0,0:0:0:0:
36,192,268205,128,2,268385:0:0:0:0:
182,192,268205,128,0,268385:0:0:0:0:
402,192,268385,1,0,0:0:0:0:
36,192,268566,128,8,268747:0:0:0:0:
182,192,268566,128,0,268747:0:0:0:0:
329,192,268566,1,0,0:0:0:0:
256,192,268747,1,0,0:0:0:0:
329,192,268928,128,2,269108:0:0:0:0:
402,192,268928,128,0,269108:0:0:0:0:
182,192,269108,1,0,0:0:0:0:
109,192,269289,1,8,0:0:0:0:
329,192,269289,128,0,269470:0:0:0:0:
402,192,269289,128,0,269470:0:0:0:0:
36,192,269470,1,0,0:0:0:0:
109,192,269650,128,2,269831:0:0:0:0:
182,192,269650,128,0,269831:0:0:0:0:
329,192,269831,1,0,0:0:0:0:
109,192,270012,128,8,270193:0:0:0:0:
182,192,270012,128,0,270193:0:0:0:0:
402,192,270012,1,0,0:0:0:0:
475,192,270193,1,0,0:0:0:0:
36,192,270373,1,2,0:0:0:0:
182,192,270373,1,4,0:0:0:0:
329,192,270373,1,0,0:0:0:0:
475,192,270373,1,0,0:0:0:0:
36,192,270644,1,2,0:0:0:0:
182,192,270644,1,4,0:0:0:0:
329,192,270644,1,0,0:0:0:0:
475,192,270644,1,0,0:0:0:0:
256,192,270735,1,8,0:0:0:0:
109,192,270916,1,4,0:0:0:0:
182,192,270916,1,2,0:0:0:0:
329,192,270916,1,0,0:0:0:0:
402,192,270916,1,0,0:0:0:0:
182,192,271277,1,2,0:0:0:0:
329,192,271277,1,0,0:0:0:0:
36,192,271458,1,0,0:0:0:70:LR3_Snare FCSRL.wav
256,192,271458,1,0,0:0:0:0:
475,192,271458,1,0,0:0:0:0:
402,192,271518,1,0,0:0:0:0:
329,192,271578,1,0,0:0:0:0:
36,192,271638,1,0,0:0:0:0:
109,192,271699,1,0,0:0:0:0:
182,192,271759,1,0,0:0:0:0:
36,192,271819,1,4,0:0:0:0:
256,192,271819,1,2,0:0:0:0:
329,192,271819,128,0,272000:0:0:0:0:
402,192,271819,128,0,272000:0:0:0:0:
182,192,272000,1,0,0:0:0:0:
329,192,272181,128,8,272361:0:0:0:0:
402,192,272181,128,0,272361:0:0:0:0:
475,192,272181,1,0,0:0:0:0:
256,192,272361,1,0,0:0:0:0:
109,192,272542,128,2,272723:0:0:0:0:
182,192,272542,128,0,272723:0:0:0:0:
402,192,272723,1,0,0:0:0:0:
36,192,272903,1,8,0:0:0:0:
109,192,272903,128,0,273084:0:0:0:0:
182,192,272903,128,0,273084:0:0:0:0:
256,192,273084,1,0,0:0:0:0:
329,192,273265,128,2,273446:0:0:0:0:
475,192,273265,128,0,273446:0:0:0:0:
109,192,273446,1,0,0:0:0:0:
182,192,273626,1,8,0:0:0:0:
329,192,273626,128,0,273807:0:0:0:0:
475,192,273626,128,0,273807:0:0:0:0:
256,192,273807,1,0,0:0:0:0:
36,192,273988,128,2,274169:0:0:0:0:
182,192,273988,128,0,274169:0:0:0:0:
402,192,274169,1,0,0:0:0:0:
36,192,274349,128,8,274530:0:0:0:0:
182,192,274349,128,0,274530:0:0:0:0:
329,192,274349,1,0,0:0:0:0:
256,192,274530,1,0,0:0:0:0:
402,192,274711,128,2,274891:0:0:0:0:
475,192,274711,128,0,274891:0:0:0:0:
109,192,274891,1,0,0:0:0:0:
182,192,275072,1,8,0:0:0:0:
402,192,275072,128,0,275253:0:0:0:0:
475,192,275072,128,0,275253:0:0:0:0:
256,192,275253,1,0,0:0:0:0:
36,192,275434,128,2,275614:0:0:0:0:
109,192,275434,128,0,275614:0:0:0:0:
402,192,275614,1,0,0:0:0:0:
36,192,275795,128,8,275976:0:0:0:0:
109,192,275795,128,0,275976:0:0:0:0:
329,192,275795,1,0,0:0:0:0:
256,192,275976,1,0,0:0:0:0:
182,192,276157,128,2,276337:0:0:0:0:
329,192,276157,128,0,276337:0:0:0:0:
109,192,276337,1,0,0:0:0:0:
182,192,276518,128,8,276699:0:0:0:0:
329,192,276518,128,0,276699:0:0:0:0:
475,192,276518,1,0,0:0:0:0:
36,192,276699,1,0,0:0:0:0:
109,192,276879,128,2,277060:0:0:0:0:
402,192,276879,128,0,277060:0:0:0:0:
182,192,277060,1,0,0:0:0:0:
109,192,277241,128,8,277422:0:0:0:0:
256,192,277241,1,0,0:0:0:0:
402,192,277241,128,0,277422:0:0:0:0:
329,192,277422,1,0,0:0:0:0:
36,192,277602,1,2,0:0:0:0:
182,192,277602,128,4,277964:0:0:0:0:
402,192,277602,1,0,0:0:0:0:
475,192,277602,128,0,277964:0:0:0:0:
36,192,277964,128,8,278325:0:0:0:0:
256,192,277964,128,0,278325:0:0:0:0:
402,192,277964,1,0,0:0:0:0:
109,192,278325,1,2,0:0:0:0:
182,192,278325,1,4,0:0:0:0:
329,192,278325,128,0,278687:0:0:0:0:
475,192,278325,128,0,278687:0:0:0:0:
36,192,278687,128,8,278777:0:0:0:0:
182,192,278687,128,0,278777:0:0:0:0:
256,192,278687,1,0,0:0:0:0:
36,192,278867,1,2,0:0:0:0:
182,192,278867,1,4,0:0:0:0:
329,192,278867,128,0,279229:0:0:0:0:
475,192,278867,128,0,279229:0:0:0:0:
36,192,279229,128,2,279590:0:0:0:0:
109,192,279229,1,4,0:0:0:0:
182,192,279229,1,0,0:0:0:0:
256,192,279229,1,0,0:0:0:0:
109,192,279590,1,2,0:0:0:0:
256,192,279590,1,4,0:0:0:0:
329,192,279590,128,0,279681:0:0:0:0:
475,192,279590,128,0,279681:0:0:0:0:
36,192,279771,1,4,0:0:0:0:
182,192,279771,1,2,0:0:0:0:
256,192,279771,128,0,279952:0:0:0:0:
402,192,279771,128,0,279952:0:0:0:0:
109,192,279952,128,0,280042:0:0:0:0:
36,192,280042,1,4,0:0:0:0:
182,192,280042,1,2,0:0:0:0:
329,192,280042,128,0,280313:0:0:0:0:
475,192,280042,128,0,280313:0:0:0:0:
36,192,280313,1,2,0:0:0:0:
109,192,280313,1,4,0:0:0:0:
256,192,280313,128,0,281669:0:0:0:0:
402,192,280313,128,0,281669:0:0:0:0:
36,192,281759,128,0,281849:0:0:0:0:
182,192,281759,128,0,281849:0:0:0:0:
36,192,281940,128,2,282211:0:0:0:0:
182,192,281940,128,4,282211:0:0:0:0:
329,192,281940,1,0,0:0:0:0:
475,192,281940,1,0,0:0:0:0:
329,192,282211,128,0,282391:0:0:0:0:
475,192,282211,128,0,282391:0:0:0:0:
329,192,282482,128,0,282572:0:0:0:0:
475,192,282482,128,0,282572:0:0:0:0:
329,192,282663,128,0,282934:0:0:0:0:
475,192,282663,128,0,282934:0:0:0:0:
36,192,282934,128,0,283024:0:0:0:0:
182,192,282934,128,0,283024:0:0:0:0:
109,192,283024,1,0,0:0:0:70:LR3_Snare FCSRL.wav
329,192,283024,1,0,0:0:0:0:
475,192,283024,1,0,0:0:0:0:
256,192,283084,1,0,0:0:0:0:
182,192,283144,1,0,0:0:0:0:
329,192,283205,128,0,283295:0:0:0:0:
475,192,283205,128,0,283295:0:0:0:0:
36,192,283265,1,0,0:0:0:0:
109,192,283325,1,0,0:0:0:0:
182,192,283385,1,2,0:0:0:0:
256,192,283385,1,4,0:0:0:0:
329,192,283385,1,0,0:0:0:0:
475,192,283385,128,0,283657:0:0:0:0:
402,192,283566,1,0,0:0:0:0:
109,192,283657,128,0,283928:0:0:0:0:
36,192,283747,1,8,0:0:0:0:
182,192,283747,1,0,0:0:0:0:
256,192,283747,1,0,0:0:0:0:
329,192,283928,128,0,284470:0:0:0:0:
36,192,284108,1,2,0:0:0:0:
402,192,284108,1,0,0:0:0:0:
182,192,284289,1,0,0:0:0:0:
109,192,284470,1,8,0:0:0:0:
256,192,284470,1,0,0:0:0:0:
475,192,284470,1,0,0:0:0:0:
36,192,284650,128,0,284831:0:0:0:0:
182,192,284741,128,0,284831:0:0:0:0:
329,192,284831,1,2,0:0:0:0:
475,192,284831,128,0,285102:0:0:0:0:
182,192,285012,1,0,0:0:0:0:
109,192,285102,128,0,285373:0:0:0:0:
36,192,285193,1,8,0:0:0:0:
256,192,285193,1,0,0:0:0:0:
402,192,285193,1,0,0:0:0:0:
329,192,285373,128,0,285916:0:0:0:0:
182,192,285554,1,2,0:0:0:0:
475,192,285554,1,0,0:0:0:0:
109,192,285735,1,0,0:0:0:0:
36,192,285916,1,8,0:0:0:0:
256,192,285916,1,0,0:0:0:0:
402,192,285916,1,0,0:0:0:0:
475,192,286096,128,0,286277:0:0:0:0:
329,192,286187,128,0,286277:0:0:0:0:
36,192,286277,1,2,0:0:0:0:
182,192,286277,128,0,286548:0:0:0:0:
329,192,286458,1,0,0:0:0:0:
402,192,286548,128,0,286819:0:0:0:0:
109,192,286638,1,8,0:0:0:0:
256,192,286638,1,0,0:0:0:0:
475,192,286638,1,0,0:0:0:0:
36,192,286819,128,0,287361:0:0:0:0:
182,192,287000,1,2,0:0:0:0:
475,192,287000,1,0,0:0:0:0:
109,192,287181,1,0,0:0:0:0:
256,192,287361,1,8,0:0:0:0:
402,192,287361,1,0,0:0:0:0:
475,192,287361,1,0,0:0:0:0:
182,192,287542,128,0,287723:0:0:0:0:
329,192,287542,1,0,0:0:0:0:
36,192,287632,128,0,287723:0:0:0:0:
402,192,287723,1,2,0:0:0:0:
475,192,287723,128,0,287903:0:0:0:0:
109,192,287903,128,0,288084:0:0:0:0:
36,192,288084,1,8,0:0:0:0:
256,192,288084,128,0,288265:0:0:0:0:
475,192,288084,1,0,0:0:0:0:
329,192,288265,128,0,288807:0:0:0:0:
182,192,288446,1,2,0:0:0:0:
402,192,288446,1,0,0:0:0:0:
109,192,288626,1,0,0:0:0:0:
36,192,288807,1,8,0:0:0:0:
256,192,288807,1,0,0:0:0:0:
475,192,288807,1,0,0:0:0:0:
402,192,288867,1,0,0:0:0:0:
329,192,288928,1,0,0:0:0:0:
109,192,288988,1,0,0:0:0:0:
182,192,289048,1,0,0:0:0:0:
256,192,289108,1,0,0:0:0:0:
36,192,289169,1,2,0:0:0:0:
329,192,289169,128,0,289440:0:0:0:0:
182,192,289349,1,0,0:0:0:0:
475,192,289440,128,0,289711:0:0:0:0:
109,192,289530,1,8,0:0:0:0:
256,192,289530,1,0,0:0:0:0:
402,192,289530,1,0,0:0:0:0:
36,192,289711,128,0,290253:0:0:0:0:
329,192,289711,1,0,0:0:0:0:
182,192,289891,1,2,0:0:0:0:
475,192,289891,1,0,0:0:0:0:
329,192,290072,1,0,0:0:0:0:
109,192,290253,1,8,0:0:0:0:
256,192,290253,1,0,0:0:0:0:
402,192,290253,1,0,0:0:0:0:
475,192,290434,128,0,290614:0:0:0:0:
329,192,290524,128,0,290614:0:0:0:0:
36,192,290614,128,2,290885:0:0:0:0:
182,192,290614,1,0,0:0:0:0:
329,192,290795,1,0,0:0:0:0:
402,192,290885,128,0,291157:0:0:0:0:
109,192,290976,1,8,0:0:0:0:
256,192,290976,1,0,0:0:0:0:
475,192,290976,1,0,0:0:0:0:
182,192,291157,128,0,291699:0:0:0:0:
36,192,291337,1,2,0:0:0:0:
329,192,291337,1,0,0:0:0:0:
402,192,291518,1,0,0:0:0:0:
109,192,291699,1,8,0:0:0:0:
256,192,291699,1,0,0:0:0:0:
475,192,291699,1,0,0:0:0:0:
36,192,291879,128,0,292060:0:0:0:0:
182,192,291970,128,0,292060:0:0:0:0:
329,192,292060,128,2,292331:0:0:0:0:
475,192,292060,1,0,0:0:0:0:
182,192,292241,1,0,0:0:0:0:
109,192,292331,128,0,292602:0:0:0:0:
36,192,292422,1,8,0:0:0:0:
256,192,292422,1,0,0:0:0:0:
402,192,292422,1,0,0:0:0:0:
475,192,292602,128,0,293144:0:0:0:0:
36,192,292783,1,2,0:0:0:0:
329,192,292783,1,0,0:0:0:0:
182,192,292964,1,0,0:0:0:0:
36,192,293144,1,8,0:0:0:0:
109,192,293144,1,0,0:0:0:0:
256,192,293144,1,0,0:0:0:0:
329,192,293325,128,0,293506:0:0:0:0:
475,192,293416,128,0,293506:0:0:0:0:
36,192,293506,128,2,293687:0:0:0:0:
109,192,293506,1,4,0:0:0:0:
256,192,293506,1,0,0:0:0:0:
402,192,293506,1,0,0:0:0:0:
182,192,293687,128,0,293867:0:0:0:0:
256,192,293867,128,8,294138:0:0:0:0:
402,192,293867,1,0,0:0:0:0:
475,192,293867,1,0,0:0:0:0:
329,192,293958,128,0,294138:0:0:0:0:
36,192,294138,1,2,0:0:0:0:
109,192,294138,1,4,0:0:0:0:
182,192,294138,1,0,0:0:0:0:
475,192,294138,128,0,294410:0:0:0:0:
182,192,294410,1,2,0:0:0:0:
329,192,294410,128,0,294590:0:0:0:0:
36,192,294590,128,0,294861:0:0:0:70:LR3_Snare FCSRL.wav
256,192,294590,1,0,0:0:0:0:
475,192,294590,1,0,0:0:0:0:
109,192,294681,128,0,294861:0:0:0:0:
182,192,294771,128,0,294861:0:0:0:0:
36,192,294952,1,2,0:0:0:0:
182,192,294952,1,4,0:0:0:0:
329,192,294952,128,0,295223:0:0:0:0:
475,192,294952,1,0,0:0:0:0:
109,192,295223,128,0,295494:0:0:0:0:
36,192,295313,1,8,0:0:0:0:
256,192,295313,1,0,0:0:0:0:
402,192,295313,1,0,0:0:0:0:
475,192,295494,128,0,296036:0:0:0:0:
36,192,295675,1,2,0:0:0:0:
329,192,295675,1,0,0:0:0:0:
109,192,295855,1,0,0:0:0:0:
182,192,296036,1,8,0:0:0:0:
256,192,296036,1,0,0:0:0:0:
402,192,296036,1,0,0:0:0:0:
36,192,296217,128,0,296397:0:0:0:0:
182,192,296307,128,0,296397:0:0:0:0:
329,192,296397,1,2,0:0:0:0:
475,192,296397,128,0,296669:0:0:0:0:
182,192,296578,1,0,0:0:0:0:
109,192,296669,128,0,296940:0:0:0:0:
36,192,296759,1,8,0:0:0:0:
256,192,296759,1,0,0:0:0:0:
402,192,296759,1,0,0:0:0:0:
329,192,296940,128,0,297482:0:0:0:0:
182,192,297120,1,2,0:0:0:0:
475,192,297120,1,0,0:0:0:0:
109,192,297301,1,0,0:0:0:0:
36,192,297482,1,8,0:0:0:0:
256,192,297482,1,0,0:0:0:0:
402,192,297482,1,0,0:0:0:0:
475,192,297663,128,0,297843:0:0:0:0:
329,192,297753,128,0,297843:0:0:0:0:
36,192,297843,1,2,0:0:0:0:
182,192,297843,128,0,298114:0:0:0:0:
329,192,298024,1,0,0:0:0:0:
402,192,298114,128,0,298385:0:0:0:0:
109,192,298205,1,8,0:0:0:0:
256,192,298205,1,0,0:0:0:0:
475,192,298205,1,0,0:0:0:0:
36,192,298385,128,0,298928:0:0:0:0:
182,192,298566,1,2,0:0:0:0:
329,192,298566,1,0,0:0:0:0:
402,192,298747,1,0,0:0:0:0:
109,192,298928,1,8,0:0:0:0:
256,192,298928,1,0,0:0:0:0:
475,192,298928,1,0,0:0:0:0:
182,192,299108,128,0,299289:0:0:0:0:
36,192,299199,128,0,299289:0:0:0:0:
329,192,299289,1,2,0:0:0:0:
475,192,299289,128,0,299470:0:0:0:0:
109,192,299470,128,0,299650:0:0:0:0:
36,192,299650,1,8,0:0:0:0:
256,192,299650,128,0,299831:0:0:0:0:
475,192,299650,1,0,0:0:0:0:
329,192,299831,128,0,300373:0:0:0:0:
109,192,300012,1,2,0:0:0:0:
402,192,300012,1,0,0:0:0:0:
182,192,300193,1,0,0:0:0:0:
36,192,300373,1,8,0:0:0:0:
256,192,300373,1,0,0:0:0:0:
475,192,300373,1,0,0:0:0:0:
402,192,300434,1,0,0:0:0:0:
329,192,300494,1,0,0:0:0:0:
36,192,300554,1,0,0:0:0:0:
109,192,300614,1,0,0:0:0:0:
182,192,300675,1,0,0:0:0:0:
36,192,300735,1,2,0:0:0:0:
256,192,300735,1,4,0:0:0:0:
329,192,300735,128,0,301006:0:0:0:0:
475,192,300735,1,0,0:0:0:0:
182,192,300916,1,0,0:0:0:0:
475,192,301006,128,0,301277:0:0:0:0:
109,192,301096,1,8,0:0:0:0:
256,192,301096,1,0,0:0:0:0:
402,192,301096,1,0,0:0:0:0:
36,192,301277,128,0,301819:0:0:0:0:
182,192,301458,1,2,0:0:0:0:
475,192,301458,1,0,0:0:0:0:
402,192,301638,1,0,0:0:0:0:
109,192,301819,1,8,0:0:0:0:
256,192,301819,1,0,0:0:0:0:
329,192,301819,1,0,0:0:0:0:
475,192,302000,128,0,302181:0:0:0:0:
329,192,302090,128,0,302181:0:0:0:0:
36,192,302181,128,2,302452:0:0:0:0:
182,192,302181,1,4,0:0:0:0:
256,192,302181,1,0,0:0:0:0:
402,192,302181,1,0,0:0:0:0:
109,192,302361,1,0,0:0:0:0:
402,192,302452,128,0,302723:0:0:0:0:
256,192,302542,1,8,0:0:0:0:
329,192,302542,1,0,0:0:0:0:
475,192,302542,1,0,0:0:0:0:
182,192,302723,128,0,303265:0:0:0:0:
36,192,302903,1,2,0:0:0:0:
475,192,302903,1,0,0:0:0:0:
402,192,303084,1,0,0:0:0:0:
109,192,303265,1,8,0:0:0:0:
256,192,303265,1,0,0:0:0:0:
329,192,303265,1,0,0:0:0:0:
36,192,303446,128,0,303626:0:0:0:0:
182,192,303536,128,0,303626:0:0:0:0:
109,192,303626,1,2,0:0:0:0:
256,192,303626,1,4,0:0:0:0:
329,192,303626,128,0,303897:0:0:0:0:
475,192,303626,1,0,0:0:0:0:
402,192,303717,1,0,0:0:0:0:
182,192,303807,1,0,0:0:0:0:
109,192,303897,128,0,304169:0:0:0:0:
36,192,303988,1,8,0:0:0:0:
256,192,303988,1,0,0:0:0:0:
475,192,303988,1,0,0:0:0:0:
329,192,304078,1,0,0:0:0:0:
475,192,304169,128,0,304711:0:0:0:0:
182,192,304259,1,0,0:0:0:0:
36,192,304349,1,2,0:0:0:0:
256,192,304349,1,4,0:0:0:0:
329,192,304349,1,0,0:0:0:0:
402,192,304349,1,0,0:0:0:0:
109,192,304440,1,0,0:0:0:0:
256,192,304530,1,0,0:0:0:0:
182,192,304620,1,0,0:0:0:0:
36,192,304711,1,8,0:0:0:0:
109,192,304711,1,0,0:0:0:0:
402,192,304711,1,0,0:0:0:0:
329,192,304801,1,0,0:0:0:0:
109,192,304891,1,0,0:0:0:0:
475,192,304891,128,0,305072:0:0:0:0:
182,192,304982,1,0,0:0:0:0:
329,192,304982,128,0,305072:0:0:0:0:
36,192,305072,128,2,305253:0:0:0:0:
109,192,305072,1,4,0:0:0:0:
256,192,305072,1,0,0:0:0:0:
402,192,305072,1,0,0:0:0:0:
182,192,305253,128,0,305434:0:0:0:0:
475,192,305434,128,0,305705:0:0:0:0:
329,192,305524,128,0,305705:0:0:0:0:
109,192,305705,128,0,305976:0:0:0:0:
402,192,305976,128,0,306157:0:0:0:0:
329,192,306157,128,0,306428:0:0:0:0:
256,192,306247,128,0,306428:0:0:0:0:
182,192,306337,128,0,306428:0:0:0:0:
36,192,306518,1,2,0:0:0:0:
182,192,306518,1,4,0:0:0:0:
329,192,306518,1,0,0:0:0:0:
475,192,306518,1,0,0:0:0:0:
256,192,306699,1,0,0:0:0:0:
109,192,306879,1,8,0:0:0:0:
402,192,306879,1,0,0:0:0:0:
36,192,307060,1,2,0:0:0:0:
182,192,307060,1,4,0:0:0:0:
329,192,307060,1,0,0:0:0:0:
475,192,307060,1,0,0:0:0:0:
256,192,307241,1,0,0:0:0:0:
402,192,307331,1,0,0:0:0:0:
329,192,307376,1,0,0:0:0:0:
256,192,307422,1,0,0:0:0:0:
109,192,307512,1,0,0:0:0:0:
36,192,307602,128,2,310042:0:0:0:0:
182,192,307602,128,4,309884:0:0:0:0:
329,192,307602,128,0,309952:0:0:0:0:
475,192,307602,128,0,309816:0:0:0:0:
475,192,309907,1,0,0:0:0:0:
182,192,309974,1,0,0:0:0:0:
329,192,310042,1,0,0:0:0:0:
36,192,310132,1,0,0:0:0:0:
