osu file format v14

[General]
AudioFilename: audio.mp3
AudioLeadIn: 0
PreviewTime: 58046
Countdown: 0
SampleSet: Soft
StackLeniency: 0.7
Mode: 0
LetterboxInBreaks: 0
WidescreenStoryboard: 1

[Editor]
Bookmarks: 331,3257,11855,23745,29599,35452,47160,53013,58684,70391,76428,85026,88318
DistanceSpacing: 1.1
BeatDivisor: 4
GridSize: 32
TimelineZoom: 3.500004

[Metadata]
Title:Alethea (TV Size)
TitleUnicode:アリシア (TV Size)
Artist:ClariS
ArtistUnicode:ClariS
Creator:Syoko
Version:Cayssa's Hard
Source:マギアレコード 魔法少女まどか☆マギカ外伝
Tags:Puella Magi Madoka Magica Side Story: Magia Record Mahou Shoujo Madoka☆Magica Gaiden Anime Japanese Pop j-pop jpop Wanpachi Cycopton Cayssa 1st season 1 ending ed Alicia
BeatmapID:2951047
BeatmapSetID:1431888

[Difficulty]
HPDrainRate:5
CircleSize:3.5
OverallDifficulty:6
ApproachRate:7.5
SliderMultiplier:1.45
SliderTickRate:1

[Events]
//Background and Video events
0,0,"bg.jpg",0,0
Video,-1180,"video.mp4"
//Break Periods
//Storyboard Layer 0 (Background)
//Storyboard Layer 1 (Fail)
//Storyboard Layer 2 (Pass)
//Storyboard Layer 3 (Foreground)
//Storyboard Layer 4 (Overlay)
//Storyboard Sound Samples

[TimingPoints]
331,365.853658536585,4,2,5,35,1,0
696,-111.111111111111,4,2,5,40,0,0
1062,-111.111111111111,4,2,5,45,0,0
1428,-111.111111111111,4,2,5,50,0,0
1794,-111.111111111111,4,2,5,55,0,0
2160,-111.111111111111,4,2,5,60,0,0
2526,-111.111111111111,4,2,5,45,0,0
3257,-111.111111111111,4,2,5,50,0,0
8379,-111.111111111111,4,2,5,55,0,0
10940,-111.111111111111,4,2,5,58,0,0
11855,-90.9090909090909,4,2,5,70,0,0
23745,-100,4,2,5,50,0,0
29599,-100,4,2,5,56,0,0
32526,-100,4,2,5,56,0,0
33806,-100,4,2,5,58,0,0
35452,-100,4,2,5,60,0,0
47160,-100,4,2,5,60,0,0
53013,-100,4,2,5,65,0,0
55940,-100,4,2,5,70,0,0
57495,-100,4,2,5,5,0,0
57587,-100,4,2,5,70,0,0
57861,-100,4,2,5,5,0,0
57952,-100,4,2,5,70,0,0
58684,-90.9090909090909,4,2,5,78,0,1
83562,-90.9090909090909,4,2,5,78,0,0
84111,-90.9090909090909,4,2,5,60,0,0
85026,-100,4,2,5,70,0,0

[Colours]
Combo1 : 240,140,140
Combo2 : 200,180,220
Combo3 : 240,200,155
Combo4 : 150,185,220

[HitObjects]
75,61,331,6,0,P|87:95|98:137,3,72.5,2|2|2|2,0:0|0:0|0:0|0:0,0:0:0:0:
50,186,1062,2,0,P|37:220|28:255,3,65.2499980087281,2|2|2|2,0:0|0:0|0:0|0:0,0:0:0:0:
69,315,1794,2,0,P|81:349|92:391,2,65.2499980087281,2|2|2,0:0|0:0|0:0,0:0:0:0:
123,258,2343,1,2,0:0:0:0:
123,258,3257,6,0,B|188:252|173:317|270:306,1,130.499996017456,4|2,2:1|0:0,0:0:0:0:
313,276,3806,2,0,P|343:247|300:167,1,130.499996017456,2|0,0:0|0:0,0:0:0:0:
241,157,4355,2,0,P|231:122|218:88,1,65.2499980087281,0|2,0:0|0:0,0:0:0:0:
269,36,4721,1,2,0:0:0:0:
269,36,5452,5,2,0:0:0:0:
269,36,5635,2,0,P|304:39|333:19,1,65.2499980087281,2|2,0:0|0:0,0:0:0:0:
409,27,6001,1,2,0:0:0:0:
409,27,6184,2,0,P|441:108|456:171,1,130.499996017456,2|2,0:0|0:0,0:0:0:0:
416,219,6733,2,0,P|388:287|369:359,1,130.499996017456,2|0,0:0|0:0,0:0:0:0:
297,368,7282,2,0,P|286:333|273:299,1,65.2499980087281,2|2,0:0|0:0,0:0:0:0:
318,239,7648,1,2,0:0:0:0:
318,239,8379,5,2,0:0:0:0:
318,239,8562,2,0,P|282:226|248:238,1,65.2499980087281,2|2,0:0|0:0,0:0:0:0:
181,248,8928,1,2,0:0:0:0:
181,248,9111,2,0,B|141:199|149:162|149:162|177:123,1,130.499996017456,2|0,0:0|0:0,0:0:0:0:
161,54,9660,2,0,P|95:79|26:98,1,130.499996017456,2|0,0:0|0:0,0:0:0:0:
4,168,10209,1,2,0:0:0:0:
69,227,10391,1,8,0:3:0:0:
69,227,10483,1,8,0:3:0:0:
69,227,10574,1,2,1:2:0:0:
233,312,11855,6,0,B|273:319|292:365|292:365|335:370|399:339,1,159.500004867554,4|0,1:2|0:0,0:0:0:0:
332,280,12404,1,8,0:0:0:0:
332,280,12770,2,0,P|326:236|312:181,1,79.7500024337769,2|2,1:2|1:2,0:0:0:0:
369,140,13135,1,10,0:0:0:0:
310,193,13318,2,0,P|233:194|214:107,1,159.500004867554,4|0,1:2|1:0,0:0:0:0:
246,56,13867,1,8,0:0:0:0:
174,20,14050,2,0,L|-10:12,1,159.500004867554,2|0,0:0|1:0,0:0:0:0:
31,91,14599,1,8,0:0:0:0:
83,170,14782,6,0,B|90:253|29:239|35:317,1,159.500004867554,6|0,1:2|1:0,0:0:0:0:
101,361,15330,1,8,0:0:0:0:
179,351,15513,2,0,P|247:319|235:232,1,159.500004867554,2|0,0:0|1:0,0:0:0:0:
185,198,16062,1,10,0:0:0:0:
235,136,16245,2,0,P|317:111|398:78,1,159.500004867554,6|0,1:2|1:0,0:0:0:0:
464,94,16794,1,8,0:0:0:0:
439,170,16977,2,0,P|456:214|469:261,1,79.7500024337769,0|8,1:0|0:0,0:0:0:0:
406,298,17343,1,2,1:2:0:0:
406,298,17434,1,2,1:2:0:0:
406,298,17526,2,0,P|394:327|386:357,3,39.8750012168885,2|2|2|2,1:2|1:2|1:2|1:2,0:0:0:0:
361,360,17891,6,0,L|267:353,1,79.7500024337769,14|0,0:0|0:0,0:0:0:0:
216,307,18257,2,0,P|204:268|189:231,1,79.7500024337769,8|0,0:0|1:0,0:0:0:0:
229,162,18623,2,0,P|240:123|255:86,1,79.7500024337769,10|0,0:0|1:0,0:0:0:0:
219,14,18989,1,10,0:0:0:0:
164,72,19172,1,2,1:2:0:0:
164,72,19263,1,2,1:2:0:0:
164,72,19355,6,0,P|127:88|89:79,1,79.7500024337769,10|0,0:0|0:0,0:0:0:0:
44,14,19721,1,8,0:0:0:0:
6,84,19904,1,2,1:2:0:0:
6,84,19995,1,2,1:2:0:0:
6,84,20087,2,0,P|20:120|31:159,1,79.7500024337769,10|0,0:0|1:0,0:0:0:0:
17,238,20452,1,8,0:0:0:0:
90,290,20635,1,0,1:0:0:0:
90,290,20727,1,0,1:0:0:0:
90,290,20818,6,0,B|173:297|159:236|237:242,1,159.500004867554,14|10,0:0|0:0,0:0:0:0:
285,178,21367,2,0,P|352:158|360:228,1,159.500004867554,6|2,1:2|1:2,0:0:0:0:
305,287,21916,1,8,0:0:0:0:
349,353,22099,2,0,L|449:336,1,79.7500024337769,6|0,1:2|0:0,0:0:0:0:
501,309,22465,1,2,1:2:0:0:
454,244,22648,1,10,0:0:0:0:
499,178,22830,2,0,B|492:138|461:106|461:106|482:70|475:4,1,159.500004867554,6|2,1:2|0:0,0:0:0:0:
291,148,23745,6,0,B|223:135|238:217|144:196,1,145,2|0,1:2|1:0,0:0:0:0:
114,263,24294,1,2,0:0:0:0:
114,263,24477,2,0,P|99:191|77:122,1,145,2|0,1:2|1:0,0:0:0:0:
126,60,25026,1,2,0:0:0:0:
126,60,25209,2,0,P|149:32|183:20,1,72.5,2|0,1:2|0:0,0:0:0:0:
252,68,25574,1,2,1:2:0:0:
252,68,25757,2,0,P|275:95|394:102,1,145,2|2,0:0|0:0,0:0:0:0:
454,135,26306,2,0,P|444:169|437:205,1,72.5,2|0,1:2|0:0,0:0:0:0:
340,235,26672,6,0,P|329:300|263:295,1,145,2|2,1:2|1:2,0:0:0:0:
278,373,27221,2,0,P|312:363|348:356,1,72.5,2|0,0:0|1:0,0:0:0:0:
413,309,27587,2,0,P|447:318|483:325,1,72.5,2|0,0:0|1:0,0:0:0:0:
508,251,27952,1,2,0:0:0:0:
508,251,28135,2,0,P|498:217|491:181,1,72.5,2|2,1:2|0:0,0:0:0:0:
479,105,28501,1,2,1:2:0:0:
479,105,28684,1,2,0:0:0:0:
238,100,29050,6,0,B|192:124|150:117|150:117|133:66|73:49,1,181.25,2|0,0:0|0:0,0:0:0:0:
56,77,29599,6,0,P|73:171|83:244,1,145,6|0,1:2|1:0,0:0:0:0:
137,283,30148,1,2,0:0:0:0:
137,283,30330,2,0,P|65:277|62:360,1,145,2|0,1:2|1:0,0:0:0:0:
115,384,30879,1,2,0:0:0:0:
115,384,31062,2,0,P|149:374|185:367,1,72.5,2|0,1:2|1:0,0:0:0:0:
253,322,31428,1,2,1:2:0:0:
253,322,31611,2,0,P|309:366|389:339,1,145,2|2,0:0|0:0,0:0:0:0:
401,274,32160,2,0,P|407:238|418:203,1,72.5,0|2,1:0|0:0,0:0:0:0:
304,136,32526,5,6,1:2:0:0:
304,136,32709,1,2,1:2:0:0:
323,62,32891,1,10,0:0:0:0:
323,62,33074,2,0,P|394:51|465:37,1,145,2|2,1:2|1:2,0:0:0:0:
465,36,33806,2,0,P|418:86|437:152,1,145,6|0,1:2|1:0,0:0:0:0:
355,244,34355,5,10,0:0:0:0:
355,244,34538,1,0,1:0:0:0:
280,271,34721,2,0,P|245:260|209:254,1,72.5,2|2,1:2|1:2,0:0:0:0:
159,191,35087,2,0,P|194:185|229:174,1,72.5,10|0,0:0|1:0,0:0:0:0:
323,94,35452,5,14,0:0:0:0:
323,94,35635,1,8,0:0:0:0:
247,91,35818,1,10,0:0:0:0:
247,91,36001,2,0,B|174:103|189:28|100:43,1,145,10|0,0:0|0:0,0:0:0:0:
56,92,36550,1,0,1:0:0:0:
56,92,36916,6,0,P|67:127|73:163,1,72.5,2|0,1:2|0:0,0:0:0:0:
58,244,37282,1,2,1:2:0:0:
58,244,37465,2,0,P|99:244|139:207,1,72.5,14|0,0:0|1:0,0:0:0:0:
202,209,37830,2,0,B|251:169|295:178|295:178|328:210,1,145,2|0,0:0|0:0,0:0:0:0:
318,349,38379,5,10,0:0:0:0:
318,349,38562,1,8,0:0:0:0:
401,347,38745,1,8,0:0:0:0:
401,347,38928,2,0,P|414:263|440:181,1,145,8|0,0:0|0:0,0:0:0:0:
473,137,39477,2,0,P|441:119|405:120,1,72.5,0|0,1:0|0:0,0:0:0:0:
332,151,39843,2,0,P|291:151|251:114,1,72.5,0|0,1:0|0:0,0:0:0:0:
196,93,40209,2,0,P|191:58|182:23,1,72.5,0|12,1:0|0:0,0:0:0:0:
107,129,40574,6,0,P|87:99|30:95,1,72.5,2|0,1:2|1:0,0:0:0:0:
24,116,40849,1,0,1:0:0:0:
24,116,40941,2,0,P|14:151|9:186,1,72.5,2|0,1:2|1:0,0:0:0:0:
82,309,41306,5,10,0:0:0:0:
82,309,41489,1,8,0:0:0:0:
153,271,41672,1,10,0:0:0:0:
153,271,41855,2,0,P|224:285|295:296,1,145,10|0,0:0|0:0,0:0:0:0:
375,290,42404,1,0,1:0:0:0:
306,182,42587,5,10,0:0:0:0:
306,182,42770,2,0,P|307:110|340:46,1,145,2|2,1:2|1:2,0:0:0:0:
419,42,43318,2,0,P|426:77|431:113,1,72.5,2|0,1:2|1:0,0:0:0:0:
458,194,43684,1,2,0:0:0:0:
458,194,43867,2,0,P|450:229|445:265,1,72.5,2|2,1:2|0:0,0:0:0:0:
320,267,44233,5,10,1:2:0:0:
320,267,44416,1,8,0:0:0:0:
246,250,44599,1,8,0:0:0:0:
246,250,44782,2,0,B|210:250|176:263|176:263|147:236|112:230,1,145,8|0,0:0|0:0,0:0:0:0:
35,206,45330,1,0,1:0:0:0:
152,122,45513,6,0,P|187:114|223:109,1,72.5,14|0,0:0|1:0,0:0:0:0:
237,33,45879,1,14,0:0:0:0:
237,33,46062,2,0,P|201:28|165:19,1,72.5,14|0,0:0|1:0,0:0:0:0:
119,84,46428,2,0,P|110:146|94:208,2,108.75,10|0|2,0:0|1:0|1:2,0:0:0:0:
70,10,47160,6,0,P|29:10|-11:47,1,72.5,14|0,0:0|0:0,0:0:0:0:
11,110,47526,1,10,0:0:0:0:
11,110,47709,2,0,P|22:188|42:268,1,145,2|0,1:2|0:0,0:0:0:0:
72,329,48257,1,8,0:0:0:0:
72,329,48623,2,0,P|107:327|139:345,1,72.5,2|0,1:2|0:0,0:0:0:0:
220,368,48989,1,10,0:0:0:0:
220,368,49172,2,0,P|255:370|287:352,1,72.5,2|0,1:2|1:0,0:0:0:0:
271,273,49538,2,0,P|263:237|258:201,1,72.5,2|8,0:0|0:0,0:0:0:0:
223,129,49904,1,2,0:0:0:0:
371,117,50087,6,0,P|306:99|296:18,1,145,6|8,1:2|0:0,0:0:0:0:
374,12,50635,1,0,1:0:0:0:
374,12,50727,1,0,1:0:0:0:
374,12,50818,2,0,P|409:17|445:24,1,72.5,0|0,1:0|0:0,0:0:0:0:
497,85,51184,1,10,0:0:0:0:
475,166,51367,1,2,1:2:0:0:
475,166,51459,1,0,1:0:0:0:
475,166,51550,6,0,P|492:197|490:232,1,72.5,0|0,1:0|0:0,0:0:0:0:
427,283,51916,2,0,P|391:289|355:295,1,72.5,8|0,0:0|1:0,0:0:0:0:
289,270,52282,1,2,1:2:0:0:
289,270,52373,1,0,1:0:0:0:
289,270,52465,2,0,P|253:263|217:257,1,72.5,0|12,1:0|0:0,0:0:0:0:
169,207,52830,1,10,0:0:0:0:
169,207,52922,1,8,0:0:0:0:
169,207,53013,6,0,P|164:171|156:135,1,72.5,6|0,1:2|0:0,0:0:0:0:
225,95,53379,2,0,P|230:59|238:23,1,72.5,10|2,0:0|0:0,0:0:0:0:
158,12,53745,2,0,P|123:10|91:28,1,72.5,8|0,0:0|1:0,0:0:0:0:
61,102,54111,1,8,0:0:0:0:
70,189,54294,1,0,1:0:0:0:
70,189,54385,1,0,1:0:0:0:
70,189,54477,6,0,P|34:194|-2:202,1,72.5,10|0,0:0|0:0,0:0:0:0:
8,281,54843,2,0,P|43:288|79:293,1,72.5,10|2,0:0|0:0,0:0:0:0:
153,324,55209,2,0,P|188:325|219:308,1,72.5,10|0,0:0|1:0,0:0:0:0:
269,244,55574,2,0,P|304:242|335:259,1,72.5,10|2,0:0|1:2,0:0:0:0:
420,384,55940,6,0,P|417:366|414:349,3,36.25,6|2|2|2,1:2|0:0|0:0|0:0,0:0:0:0:
436,315,56306,2,0,P|438:297|442:279,3,36.25,2|2|2|2,0:0|0:0|0:0|0:0,0:0:0:0:
419,245,56672,2,0,P|416:227|412:209,3,36.25,2|2|0|2,0:0|0:0|0:0|0:0,0:0:0:0:
430,173,57038,1,2,0:0:0:0:
324,105,57221,5,10,0:0:0:0:
324,105,57587,1,8,0:0:0:0:
251,137,57770,1,8,0:0:0:0:
256,320,58684,6,0,B|227:356|189:364|189:364|157:325|94:331,1,159.500004867554,6|0,1:2|0:0,0:0:0:0:
51,292,59233,1,10,0:0:0:0:
78,216,59416,2,0,P|69:158|57:108,1,79.7500024337769,2|0,0:0|1:0,0:0:0:0:
127,87,59782,2,0,P|136:29|148:-21,1,79.7500024337769,0|10,1:0|0:0,0:0:0:0:
227,133,60148,6,0,P|290:155|350:91,1,159.500004867554,2|0,1:2|0:0,0:0:0:0:
387,28,60696,1,8,0:0:0:0:
387,28,61062,2,0,P|471:19|491:29,1,79.7500024337769,2|2,1:2|1:2,0:0:0:0:
507,83,61428,1,10,0:0:0:0:
456,184,61611,6,0,B|502:240|491:291|491:291|454:329,1,159.500004867554,2|0,1:2|0:0,0:0:0:0:
384,334,62160,1,10,0:0:0:0:
311,300,62343,2,0,P|271:297|234:311,1,79.7500024337769,2|0,0:0|1:0,0:0:0:0:
168,355,62709,2,0,P|128:357|91:343,1,79.7500024337769,0|10,1:0|0:0,0:0:0:0:
11,228,63074,6,0,B|44:247|85:245|85:245|114:217|161:212,1,159.500004867554,2|0,1:2|1:0,0:0:0:0:
207,147,63623,1,8,0:0:0:0:
207,147,63989,2,0,P|198:108|186:70,1,79.7500024337769,2|2,0:0|1:2,0:0:0:0:
118,26,64355,1,10,0:0:0:0:
69,132,64538,6,0,P|42:219|21:307,1,159.500004867554,2|0,1:2|0:0,0:0:0:0:
67,353,65087,1,10,2:0:0:0:
146,362,65270,2,0,P|226:356|262:281,1,159.500004867554,2|0,0:0|1:0,0:0:0:0:
264,212,65818,1,10,0:0:0:0:
339,186,66001,2,0,P|416:166|492:142,1,159.500004867554,2|0,1:2|1:0,0:0:0:0:
464,66,66550,1,10,0:0:0:0:
386,47,66733,2,1,P|308:27|232:3,1,159.500004867554,2|0,0:0|1:0,0:0:0:0:
159,35,67282,1,10,0:0:0:0:
71,134,67465,6,0,B|108:133|144:153|144:153|171:124|240:111,1,159.500004867554,6|0,1:2|1:0,0:0:0:0:
296,122,68013,1,10,0:0:0:0:
295,197,68196,2,1,P|313:293|325:362,1,159.500004867554,2|1,1:2|1:0,0:0:0:0:
403,368,68745,1,10,0:0:0:0:
484,269,68928,6,0,P|497:190|512:112,1,159.500004867554,2|0,1:2|1:0,0:0:0:0:
455,57,69477,1,10,0:0:0:0:
377,77,69660,1,0,1:0:0:0:
266,132,69843,6,0,P|222:135|177:88,2,79.7500024337769,10|10|2,0:0|0:0|0:0,0:0:0:0:
117,212,70391,6,0,B|128:136|66:141|91:52,1,159.500004867554,6|0,1:2|0:0,0:0:0:0:
151,9,70940,1,10,0:0:0:0:
225,38,71123,2,0,P|297:28|341:28,1,79.7500024337769,2|0,0:0|1:0,0:0:0:0:
367,76,71489,2,0,P|439:86|483:86,1,79.7500024337769,0|10,1:0|0:0,0:0:0:0:
371,218,71855,6,0,P|333:300|313:391,1,159.500004867554,2|0,1:2|1:0,0:0:0:0:
236,370,72404,1,8,0:0:0:0:
236,370,72770,2,0,P|192:373|147:326,1,79.7500024337769,2|2,1:2|1:2,0:0:0:0:
112,293,73135,1,10,0:0:0:0:
130,139,73318,6,0,P|83:198|10:183,1,159.500004867554,2|0,1:2|0:0,0:0:0:0:
19,103,73867,1,10,0:0:0:0:
84,57,74050,2,0,P|163:44|241:29,1,159.500004867554,10|0,0:0|1:0,0:0:0:0:
328,19,74599,1,10,0:0:0:0:
308,141,74782,2,1,B|319:217|257:212|282:301,1,159.500004867554,6|0,1:2|1:0,0:0:0:0:
391,372,75330,6,0,P|435:375|480:328,1,79.7500024337769,8|0,0:0|1:0,0:0:0:0:
502,286,75696,1,10,0:0:0:0:
466,226,75879,1,2,1:2:0:0:
466,226,75971,1,8,0:0:0:0:
466,226,76062,2,0,L|459:186,3,39.8750012168885,10|8|10|8,0:0|0:0|0:0|0:0,0:0:0:0:
435,154,76428,6,8,P|355:130|333:120,1,79.7500024337769,14|0,0:0|1:0,0:0:0:0:
298,184,76794,2,0,P|218:208|196:218,1,79.7500024337769,10|2,0:0|0:0,0:0:0:0:
151,167,77160,2,0,P|71:143|49:133,1,79.7500024337769,8|0,0:0|1:0,0:0:0:0:
8,189,77526,1,10,0:0:0:0:
39,262,77709,1,2,0:0:0:0:
161,359,77891,6,0,P|185:279|195:257,1,79.7500024337769,8|0,0:0|0:0,0:0:0:0:
253,242,78257,1,10,0:0:0:0:
309,298,78440,2,0,P|385:312|432:245,1,159.500004867554,2|0,0:0|1:0,0:0:0:0:
429,173,78989,1,10,0:0:0:0:
358,72,79172,6,0,B|282:61|287:123|198:98,1,159.500004867554,6|2,1:2|1:2,0:0:0:0:
141,57,79721,1,10,0:0:0:0:
80,105,79904,2,0,P|104:213|112:267,1,159.500004867554,6|2,1:2|1:2,0:0:0:0:
133,335,80452,1,10,0:0:0:0:
225,226,80635,2,0,P|292:204|353:271,1,159.500004867554,6|0,1:2|1:0,0:0:0:0:
381,273,81093,1,0,1:0:0:0:
381,273,81184,2,0,P|389:218|402:165,1,79.7500024337769,8|0,0:0|0:0,0:0:0:0:
455,143,81550,1,0,1:0:0:0:
402,83,81733,2,0,P|396:43|388:4,1,79.7500024337769,2|10,1:2|0:0,0:0:0:0:
270,76,82099,6,1,B|237:95|196:93|196:93|167:65|120:60,1,159.500004867554,6|0,1:2|1:2,0:0:0:0:
96,65,82556,1,2,1:2:0:0:
96,65,82648,1,10,0:0:0:0:
121,139,82830,2,0,P|113:178|107:217,1,79.7500024337769,2|8,1:2|0:0,0:0:0:0:
101,301,83196,1,8,0:0:0:0:
101,301,83288,1,8,0:0:0:0:
101,301,83379,2,0,P|106:327|110:353,2,39.8750012168885,10|8|10,0:0|0:0|0:0,0:0:0:0:
256,320,84111,5,2,0:0:0:0:
256,320,84294,2,0,P|325:343|413:289,1,159.500004867554,2|0,0:0|0:0,0:0:0:0:
411,228,84843,1,2,0:0:0:0:
309,129,85026,5,14,0:0:0:0:
256,192,85117,12,0,88318,0:0:0:0:
