osu file format v14

[General]
AudioFilename: clevertv.mp3
AudioLeadIn: 0
PreviewTime: 51412
Countdown: 0
SampleSet: Soft
StackLeniency: 0.7
Mode: 0
LetterboxInBreaks: 0
WidescreenStoryboard: 0

[Editor]
Bookmarks: 10945,18857,40286,48527,52170
DistanceSpacing: 1.1
BeatDivisor: 4
GridSize: 4
TimelineZoom: 1.2

[Metadata]
Title:clever -TV MIX-
TitleUnicode:clever -TV MIX-
Artist:ClariSxGARNiDELiA
ArtistUnicode:ClariS×GARNiDELiA
Creator:xNyamx
Version:Extra
Source:クオリディア・コード
Tags:QUALIDEA_CODE watanabe sho toku ed 3rd tv size Project QUALIDEA yumemikusa yasaija_714
BeatmapID:1115251
BeatmapSetID:525494

[Difficulty]
HPDrainRate:7.2
CircleSize:4
OverallDifficulty:8.8
ApproachRate:9
SliderMultiplier:1.8
SliderTickRate:1

[Events]
//Background and Video events
0,0,"bg.png",0,0
Video,0,"video.avi"
//Break Periods
//Storyboard Layer 0 (Background)
//Storyboard Layer 1 (Fail)
//Storyboard Layer 2 (Pass)
//Storyboard Layer 3 (Foreground)
//Storyboard Sound Samples

[TimingPoints]
396,329.67032967033,4,2,1,50,1,0
33527,-111.111111111111,4,2,1,50,0,0
34681,-100,4,2,1,50,0,0
36165,-111.111111111111,4,2,1,50,0,0
37401,-100,4,2,1,50,0,0
38802,-111.111111111111,4,2,1,50,0,0
40286,-100,4,2,1,50,0,0
50670,-100,4,2,1,30,0,0
52154,-100,4,2,1,70,0,1
53637,-90.9090909090909,4,2,1,70,0,1
54132,-100,4,2,1,70,0,1
62291,-100,4,2,1,55,0,1
62456,-100,4,2,1,70,0,1
71439,-100,4,2,1,5,0,1
71604,-100,4,2,1,70,0,1
72593,-111.111111111111,4,2,1,70,0,1
75560,-100,4,2,1,50,0,0
88665,-111.111111111111,4,2,1,5,0,0

[Colours]
Combo1 : 244,221,9
Combo2 : 51,163,179
Combo3 : 250,48,48
Combo4 : 164,55,148

[HitObjects]
55,195,10945,6,0,L|167:189,1,90,2|0,0:0|0:0,0:0:0:0:
245,108,11275,2,0,B|252:80|252:80|236:-1,1,90,0|2,0:0|0:0,0:0:0:0:
292,277,11604,1,0,0:0:0:0:
401,207,11769,1,2,0:0:0:0:
227,189,11934,1,8,0:0:0:0:
421,139,12099,6,0,B|442:195|422:264|422:264|449:333,1,180,2|0,0:0|0:0,0:0:0:0:
225,313,12593,1,0,0:0:0:0:
321,204,12758,1,2,0:0:0:0:
209,91,12923,2,0,P|260:79|305:95,1,90,2|0,0:0|0:0,0:0:0:0:
123,284,13253,2,0,P|107:235|118:195,1,90,10|0,0:0|0:0,0:0:0:0:
321,204,13582,5,2,0:0:0:0:
239,278,13747,1,0,0:0:0:0:
252,128,13912,1,8,0:0:0:0:
281,346,14077,2,0,B|240:357|240:357|189:344,1,90,2|2,0:0|0:0,0:0:0:0:
371,206,14406,2,0,L|359:332,1,90,2|8,0:0|0:0,0:0:0:0:
416,123,14736,6,0,B|445:110|445:110|514:128,1,90,2|0,0:0|0:0,0:0:0:0:
289,179,15066,1,2,0:0:0:0:
289,179,15148,1,2,0:0:0:0:
289,179,15231,1,10,0:0:0:0:
442,219,15396,1,2,0:0:0:0:
343,65,15560,1,2,0:0:0:0:
273,260,15725,2,0,P|232:273|181:261,1,90,2|8,0:0|0:0,0:0:0:0:
115,95,16055,1,2,0:0:0:0:
36,222,16220,6,0,B|25:253|25:253|49:337,1,90,2|2,0:0|0:0,0:0:0:0:
224,195,16549,1,8,0:0:0:0:
110,259,16714,1,2,0:0:0:0:
187,124,16879,1,2,0:0:0:0:
265,263,17044,2,0,P|297:272|372:239,1,90,2|8,0:0|0:0,0:0:0:0:
380,90,17374,1,0,0:0:0:0:
491,156,17538,6,0,B|515:208|489:263|489:263|510:339,1,180,2|8,0:0|0:0,0:0:0:0:
306,187,18033,1,2,0:0:0:0:
341,340,18198,1,0,0:0:0:0:
200,304,18363,1,0,0:0:0:0:
62,353,18527,2,0,L|45:239,1,90,10|0,0:0|0:0,0:0:0:0:
245,106,18857,5,2,0:0:0:0:
169,177,19022,1,2,0:0:0:0:
64,148,19187,1,8,0:0:0:0:
143,72,19352,5,2,0:0:0:0:
245,106,19516,1,0,0:0:0:0:
342,145,19681,1,2,0:0:0:0:
258,221,19846,5,2,0:0:0:0:
245,106,20011,1,2,0:0:0:0:
324,36,20176,1,8,0:0:0:0:
384,133,20341,5,2,0:0:0:0:
356,229,20505,1,2,0:0:0:0:
330,328,20670,1,2,0:0:0:0:
446,292,20835,5,0,0:0:0:0:
408,249,20917,1,0,0:0:0:0:
356,229,21000,1,0,0:0:0:0:
302,233,21082,1,0,0:0:0:0:
253,254,21165,1,0,0:0:0:0:
200,264,21247,1,0,0:0:0:0:
145,262,21330,1,0,0:0:0:0:
96,241,21412,1,0,0:0:0:0:
55,205,21494,6,0,L|71:115,1,90,4|0,0:0|0:0,0:0:0:0:
235,54,21824,1,0,0:0:0:0:
149,156,21989,1,0,0:0:0:0:
200,264,22154,6,0,L|303:258,1,90
395,326,22483,1,0,0:0:0:0:
328,187,22648,1,0,0:0:0:0:
452,85,22813,6,0,L|462:180,1,90
268,68,23142,1,0,0:0:0:0:
379,128,23307,1,0,0:0:0:0:
194,226,23472,6,0,P|172:189|179:126,1,90,2|2,0:0|0:0,0:0:0:0:
368,234,23802,2,0,P|325:265|274:257,1,90,8|2,0:0|0:0,0:0:0:0:
372,94,24132,1,4,0:0:0:0:
305,190,24296,1,2,0:0:0:0:
250,46,24461,1,8,0:0:0:0:
125,147,24626,2,0,B|163:158|163:158|236:144,1,90,2|0,0:0|0:0,0:0:0:0:
28,214,24956,2,0,L|16:99,1,90,2|8,0:0|0:0,0:0:0:0:
233,308,25286,6,0,B|180:357|94:326|94:326|52:348,1,180,2|0,0:0|0:0,0:0:0:0:
157,162,25780,1,10,0:0:0:0:
80,236,25945,1,0,0:0:0:0:
29,94,26110,1,2,0:0:0:0:
157,162,26275,2,0,L|168:264,1,90,2|8,0:0|0:0,0:0:0:0:
257,46,26604,1,2,0:0:0:0:
353,126,26769,6,0,L|470:114,1,90,6|2,0:0|0:0,0:0:0:0:
309,256,27099,1,8,0:0:0:0:
446,308,27264,1,0,0:0:0:0:
402,199,27428,1,2,0:0:0:0:
356,335,27593,2,0,P|313:350|259:334,1,90,2|8,0:0|0:0,0:0:0:0:
203,243,27923,1,2,0:0:0:0:
252,114,28088,6,0,B|302:74|350:100|350:100|383:83|450:115,1,180,6|0,0:0|0:0,0:0:0:0:
108,218,28582,1,2,0:0:0:0:
44,90,28747,1,0,0:0:0:0:
193,188,28912,1,0,0:0:0:0:
118,324,29077,2,0,L|20:334,1,90,8|0,0:0|0:0,0:0:0:0:
427,191,29406,5,6,0:0:0:0:
369,301,29571,1,2,0:0:0:0:
260,333,29736,1,2,0:0:0:0:
184,180,29901,5,2,0:0:0:0:
305,185,30066,1,2,0:0:0:0:
427,191,30231,1,2,0:0:0:0:
251,79,30396,5,2,0:0:0:0:
184,180,30560,1,2,0:0:0:0:
230,291,30725,1,2,0:0:0:0:
427,191,30890,5,2,0:0:0:0:
305,185,31055,1,2,0:0:0:0:
184,180,31220,1,2,0:0:0:0:
60,172,31385,2,0,L|86:311,1,135,6|2,0:0|0:0,0:0:0:0:
120,340,31714,1,8,0:0:0:0:
159,316,31797,1,8,0:0:0:0:
202,312,31879,1,10,0:0:0:0:
244,323,31961,1,8,0:0:0:0:
278,350,32044,5,6,0:0:0:0:
391,255,32209,1,2,0:0:0:0:
244,214,32374,1,8,0:0:0:0:
407,283,32538,1,6,0:0:0:0:
314,119,32703,1,2,0:0:0:0:
397,305,32868,1,8,0:0:0:0:
424,88,33033,2,0,L|236:99,1,180,6|2,0:0|0:0,0:0:0:0:
58,257,33527,5,2,0:0:0:0:
132,200,33692,2,0,B|143:142|143:142|126:110,1,80.9999975280763,2|2,0:0|0:0,0:0:0:0:
204,263,34022,2,0,L|190:367,1,80.9999975280763,2|2,0:0|0:0,0:0:0:0:
280,167,34352,1,2,0:0:0:0:
324,284,34516,1,2,0:0:0:0:
194,185,34681,5,6,0:0:0:0:
72,266,34846,1,2,0:0:0:0:
225,306,35011,1,8,0:0:0:0:
50,262,35176,1,6,0:0:0:0:
123,103,35341,1,2,0:0:0:0:
59,291,35505,1,8,0:0:0:0:
6,79,35670,2,0,L|194:70,1,180,6|2,0:0|0:0,0:0:0:0:
226,84,36082,5,2,0:0:0:0:
259,53,36165,1,2,0:0:0:0:
302,46,36247,1,2,0:0:0:0:
341,67,36330,1,2,0:0:0:0:
355,108,36412,1,2,0:0:0:0:
342,150,36494,1,2,0:0:0:0:
341,194,36577,1,2,0:0:0:0:
359,234,36659,6,0,B|382:239|382:239|408:230,1,40.4999987640381,2|2,0:0|0:0,0:0:0:0:
486,324,36824,2,0,B|464:331|464:331|434:325,1,40.4999987640381,0|2,0:0|0:0,0:0:0:0:
315,351,36989,2,0,B|296:346|296:346|276:351,1,40.4999987640381,10|2,0:0|0:0,0:0:0:0:
150,278,37154,2,0,B|170:275|170:275|200:280,1,40.4999987640381,10|2,0:0|0:0,0:0:0:0:
381,159,37319,5,14,0:0:0:0:
252,212,37483,1,2,0:0:0:0:
400,266,37648,1,8,0:0:0:0:
309,109,37813,1,6,0:0:0:0:
285,293,37978,1,2,0:0:0:0:
461,203,38143,1,8,0:0:0:0:
236,168,38308,2,0,L|247:350,1,180,6|2,0:0|0:0,0:0:0:0:
297,84,38802,5,2,0:0:0:0:
146,233,38967,2,0,L|51:241,1,80.9999975280763,8|2,0:0|0:0,0:0:0:0:
14,134,39297,2,0,L|121:125,1,80.9999975280763,2|2,0:0|0:0,0:0:0:0:
296,192,39626,1,2,0:0:0:0:
229,334,39791,1,2,0:0:0:0:
410,216,39956,5,0,0:0:0:0:
454,324,40121,1,2,0:0:0:0:
460,132,40286,2,0,L|365:140,1,90,12|2,0:0|0:0,0:0:0:0:
231,216,40615,1,0,0:0:0:0:
324,282,40780,1,2,0:0:0:0:
158,355,40945,2,0,L|143:236,1,90,8|0,0:0|0:0,0:0:0:0:
134,111,41275,5,6,0:0:0:0:
3,190,41439,1,2,0:0:0:0:
207,145,41604,1,10,0:0:0:0:
29,82,41769,1,2,0:0:0:0:
143,188,41934,1,2,0:0:0:0:
114,17,42099,1,2,0:0:0:0:
86,267,42264,1,10,0:0:0:0:
86,267,42346,1,2,0:0:0:0:
86,267,42428,1,2,0:0:0:0:
223,99,42593,6,0,B|256:88|256:88|325:102,1,90,4|0,0:0|0:0,0:0:0:0:
372,279,42923,1,8,0:0:0:0:
469,167,43088,1,8,0:0:0:0:
422,171,43170,1,8,0:0:0:0:
381,175,43253,1,8,0:0:0:0:
263,269,43417,1,2,0:0:0:0:
186,174,43582,2,0,L|176:77,1,90,2|8,0:0|0:0,0:0:0:0:
47,283,43912,5,2,0:0:0:0:
186,309,44077,1,0,0:0:0:0:
101,200,44242,1,8,0:0:0:0:
78,358,44406,1,0,0:0:0:0:
11,153,44571,1,2,0:0:0:0:
74,281,44736,1,2,0:0:0:0:
105,93,44901,1,10,0:0:0:0:
148,69,44983,1,2,0:0:0:0:
198,62,45066,1,2,0:0:0:0:
245,74,45148,1,2,0:0:0:0:
290,101,45231,6,0,B|322:112|322:112|404:90,1,90,6|0,0:0|0:0,0:0:0:0:
478,67,45560,2,0,L|463:192,1,90,10|0,0:0|0:0,0:0:0:0:
359,246,45890,1,2,0:0:0:0:
431,325,46055,1,2,0:0:0:0:
259,344,46220,2,0,L|277:241,1,90,8|0,0:0|0:0,0:0:0:0:
189,147,46549,5,2,0:0:0:0:
83,286,46714,1,0,0:0:0:0:
67,90,46879,1,10,0:0:0:0:
159,263,47044,1,0,0:0:0:0:
200,29,47209,1,2,0:0:0:0:
95,205,47374,1,0,0:0:0:0:
287,99,47538,2,0,B|323:86|323:86|401:100,1,90,8|0,0:0|0:0,0:0:0:0:
447,276,47868,6,0,B|465:236|465:236|445:152|477:92,1,180,4|8,0:0|0:0,0:0:0:0:
249,223,48363,1,0,0:0:0:0:
76,116,48527,1,2,0:0:0:0:
114,91,48610,1,2,0:0:0:0:
158,82,48692,1,2,0:0:0:0:
199,99,48775,1,2,0:0:0:0:
237,121,48857,1,10,0:0:0:0:
279,107,48939,1,2,0:0:0:0:
324,104,49022,1,2,0:0:0:0:
365,121,49104,1,2,0:0:0:0:
398,151,49187,5,12,0:0:0:0:
324,341,49352,1,8,0:0:0:0:
126,58,49846,5,8,0:0:0:0:
189,278,50011,1,8,0:0:0:0:
233,130,50670,5,0,0:0:0:0:
196,279,50835,1,0,0:0:0:0:
335,239,51000,1,0,0:0:0:0:
170,200,51165,5,0,0:0:0:0:
274,296,51330,1,0,0:0:0:0:
322,156,51494,2,0,L|315:34,1,90
409,255,51824,5,8,0:0:0:0:
163,333,52154,6,0,L|155:233,1,90,12|0,0:0|0:0,0:0:0:0:
214,58,52483,1,0,0:0:0:0:
92,169,52648,2,0,B|54:180|54:180|-7:165,1,90,2|8,0:0|0:0,0:0:0:0:
272,227,52978,1,10,0:0:0:0:
272,227,53060,1,10,0:0:0:0:
272,227,53143,1,12,0:0:0:0:
179,136,53308,1,2,0:0:0:0:
144,316,53472,1,8,0:0:0:0:
101,123,53637,2,0,P|175:55|257:136,1,198.000006042481,0|2,0:0|0:0,0:0:0:0:
308,233,54132,6,2,B|333:245|333:245|373:240,1,45,8|0,0:0|0:0,0:0:0:0:
465,159,54297,2,2,B|439:145|439:145|404:145,1,45,8|0,0:0|0:0,0:0:0:0:
443,337,54461,2,0,L|337:345,1,90,4|2,0:0|0:0,0:0:0:0:
222,182,54791,1,8,0:0:0:0:
164,308,54956,1,8,0:0:0:0:
164,308,55038,1,8,0:0:0:0:
164,308,55121,1,8,0:0:0:0:
296,240,55286,1,2,0:0:0:0:
133,155,55450,1,8,0:0:0:0:
305,88,55615,6,0,B|340:76|340:76|391:92,1,90,6|0,0:0|0:0,0:0:0:0:
411,250,55945,1,8,0:0:0:0:
347,160,56110,1,8,0:0:0:0:
479,214,56275,1,2,0:0:0:0:
432,333,56439,2,0,B|414:340|414:340|358:324,1,45,8|0,0:0|0:0,0:0:0:0:
262,286,56604,2,0,B|235:282|235:282|208:294,1,45,8|0,0:0|0:0,0:0:0:0:
97,357,56769,1,8,0:0:0:0:
61,318,56852,1,8,0:0:0:0:
57,266,56934,1,8,0:0:0:0:
75,219,57016,1,8,0:0:0:0:
113,187,57099,5,14,0:0:0:0:
262,286,57264,1,0,0:0:0:0:
282,101,57428,1,10,0:0:0:0:
181,262,57593,1,0,0:0:0:0:
143,32,57758,1,2,0:0:0:0:
240,206,57923,1,0,0:0:0:0:
410,192,58088,5,10,0:0:0:0:
181,262,58253,1,0,0:0:0:0:
369,99,58417,1,6,0:0:0:0:
247,326,58582,1,0,0:0:0:0:
273,62,58747,1,10,0:0:0:0:
338,297,58912,1,2,0:0:0:0:
75,210,59077,5,2,0:0:0:0:
291,149,59242,1,0,0:0:0:0:
157,303,59406,1,10,0:0:0:0:
273,63,59571,1,0,0:0:0:0:
382,300,59736,6,0,P|309:359|228:334,1,180,6|8,0:0|0:0,0:0:0:0:
352,140,60231,1,2,0:0:0:0:
299,279,60396,1,8,0:0:0:0:
252,79,60560,1,8,0:0:0:0:
252,79,60643,1,8,0:0:0:0:
252,79,60725,1,8,0:0:0:0:
461,163,60890,1,8,0:0:0:0:
210,245,61055,5,12,0:0:0:0:
210,245,61137,1,8,0:0:0:0:
210,245,61220,1,8,0:0:0:0:
210,245,61302,1,8,0:0:0:0:
210,245,61385,2,0,B|234:251|234:251|288:241,1,45
308,134,61549,2,0,B|334:129|334:129|379:142,1,45,2|0,0:0|0:0,0:0:0:0:
180,30,61714,2,0,L|167:132,1,90,8|0,0:0|0:0,0:0:0:0:
100,289,62044,1,10,0:0:0:0:
200,209,62209,1,2,0:0:0:0:
65,91,62374,6,0,L|78:194,1,90,4|0,0:0|0:0,0:0:0:0:
188,311,62703,2,0,P|238:323|287:299,1,90,8|0,0:0|0:0,0:0:0:0:
339,158,63033,1,2,0:0:0:0:
425,244,63198,2,0,B|466:254|466:254|550:230,1,90,2|8,0:0|0:0,0:0:0:0:
400,336,63527,1,2,0:0:0:0:
400,336,63609,1,2,0:0:0:0:
400,336,63692,1,6,0:0:0:0:
339,158,63857,1,2,0:0:0:0:
191,206,64022,1,8,0:0:0:0:
378,233,64187,2,0,P|401:218|384:86,1,180,8|0,0:0|0:0,0:0:0:0:
212,281,64681,6,0,B|189:286|189:286|137:272,1,45,10|0,0:0|0:0,0:0:0:0:
244,127,64846,2,0,B|263:121|263:121|311:126,1,45,2|0,0:0|0:0,0:0:0:0:
88,69,65011,2,0,L|102:171,1,90,6|0,0:0|0:0,0:0:0:0:
271,205,65341,1,8,0:0:0:0:
92,283,65505,1,8,0:0:0:0:
92,283,65588,1,8,0:0:0:0:
92,283,65670,1,8,0:0:0:0:
232,318,65835,1,2,0:0:0:0:
190,145,66000,1,8,0:0:0:0:
170,349,66165,6,0,L|279:346,1,90,2|0,0:0|0:0,0:0:0:0:
383,247,66494,1,8,0:0:0:0:
383,247,66576,1,8,0:0:0:0:
383,247,66659,1,8,0:0:0:0:
271,167,66824,1,2,0:0:0:0:
328,61,66989,2,0,B|353:53|353:53|405:71,1,45,8|0,0:0|0:0,0:0:0:0:
191,139,67154,2,0,B|176:146|176:146|136:134,1,45,8|0,0:0|0:0,0:0:0:0:
295,245,67319,1,10,0:0:0:0:
340,264,67401,1,8,0:0:0:0:
386,270,67483,1,10,0:0:0:0:
433,260,67566,1,8,0:0:0:0:
473,231,67648,5,12,0:0:0:0:
379,126,67813,1,2,0:0:0:0:
280,70,67978,2,0,L|292:163,1,90,10|0,0:0|0:0,0:0:0:0:
105,175,68308,1,2,0:0:0:0:
194,280,68472,2,0,P|237:294|296:263,1,90,2|8,0:0|0:0,0:0:0:0:
386,189,68802,2,0,L|396:84,1,90,6|0,0:0|0:0,0:0:0:0:
310,53,69132,5,10,0:0:0:0:
310,53,69214,1,10,0:0:0:0:
310,53,69297,1,10,0:0:0:0:
478,147,69461,1,2,0:0:0:0:
332,255,69626,1,0,0:0:0:0:
397,72,69791,1,2,0:0:0:0:
423,314,69956,1,8,0:0:0:0:
338,136,70121,1,2,0:0:0:0:
291,365,70286,1,12,0:0:0:0:
256,192,70368,12,0,71522,0:0:0:0:
272,290,71604,5,12,0:0:0:0:
150,155,71769,1,8,0:0:0:0:
412,62,72099,1,12,0:0:0:0:
161,75,72593,6,0,L|149:163,1,80.9999975280763,2|0,0:0|0:0,0:0:0:0:
66,259,72923,2,0,P|106:294|214:260,1,161.999995056153,6|0,0:0|0:0,0:0:0:0:
401,135,73582,2,0,B|358:119|358:119|321:162|220:137,1,161.999995056153,2|2,0:0|0:0,0:0:0:0:
481,248,74242,5,10,0:0:0:0:
481,248,74324,1,10,0:0:0:0:
481,248,74406,1,10,0:0:0:0:
379,333,74571,1,8,0:0:0:0:
326,189,74736,2,0,L|333:88,1,80.9999975280763,2|0,0:0|0:0,0:0:0:0:
247,304,75066,1,2,0:0:0:0:
435,211,75231,1,8,0:0:0:0:
72,147,75560,5,6,0:0:0:0:
177,74,75725,1,2,0:0:0:0:
123,226,75890,2,0,L|11:236,1,90,8|0,0:0|0:0,0:0:0:0:
188,339,76220,2,0,B|225:347|225:347|295:334,1,90,2|0,0:0|0:0,0:0:0:0:
376,256,76549,1,10,0:0:0:0:
248,209,76714,1,2,0:0:0:0:
412,185,76879,6,0,L|423:300,1,90,2|0,0:0|0:0,0:0:0:0:
359,90,77209,2,0,P|397:74|470:103,1,90,8|0,0:0|0:0,0:0:0:0:
256,249,77538,1,2,0:0:0:0:
413,184,77703,1,0,0:0:0:0:
242,170,77868,1,10,0:0:0:0:
436,264,78033,1,0,0:0:0:0:
274,325,78198,6,0,B|219:348|150:302|150:302|95:339,1,180,4|8,0:0|0:0,0:0:0:0:
29,228,78692,1,2,0:0:0:0:
101,150,78857,2,0,L|205:144,1,90,2|0,0:0|0:0,0:0:0:0:
339,236,79187,2,0,P|355:193|341:139,1,90,10|0,0:0|0:0,0:0:0:0:
154,56,79516,5,2,0:0:0:0:
276,183,79681,1,0,0:0:0:0:
123,239,79846,1,10,0:0:0:0:
213,123,80011,1,0,0:0:0:0:
266,327,80176,5,2,0:0:0:0:
161,176,80341,1,0,0:0:0:0:
82,346,80505,1,10,0:0:0:0:
127,366,80588,1,8,0:0:0:0:
176,370,80670,1,8,0:0:0:0:
222,355,80753,1,8,0:0:0:0:
266,327,80835,6,0,L|252:224,1,90,6|0,0:0|0:0,0:0:0:0:
363,280,81165,2,0,B|399:292|399:292|461:279,1,90,10|0,0:0|0:0,0:0:0:0:
417,89,81494,2,0,L|407:208,1,90
219,104,81824,1,8,0:0:0:0:
334,142,81988,1,0,0:0:0:0:
183,172,82154,6,0,L|168:64,1,90,2|0,0:0|0:0,0:0:0:0:
77,153,82483,2,0,L|94:251,1,90,8|0,0:0|0:0,0:0:0:0:
302,278,82813,1,2,0:0:0:0:
129,327,82977,1,0,0:0:0:0:
244,163,83143,1,10,0:0:0:0:
207,357,83307,1,0,0:0:0:0:
172,137,83472,6,0,B|226:114|258:131|258:131|312:98|379:128,1,180,6|8,0:0|0:0,0:0:0:0:
435,312,83967,1,2,0:0:0:0:
317,282,84132,2,0,B|304:249|304:249|316:189,1,90,2|0,0:0|0:0,0:0:0:0:
234,336,84461,2,0,L|119:343,1,90,8|0,0:0|0:0,0:0:0:0:
80,114,84791,5,2,0:0:0:0:
22,275,84955,1,0,0:0:0:0:
195,171,85121,1,10,0:0:0:0:
14,188,85285,1,0,0:0:0:0:
157,243,85450,5,2,0:0:0:0:
86,81,85615,1,8,0:0:0:0:
22,275,85780,1,2,0:0:0:0:
195,171,85945,1,12,0:0:0:0:
256,192,86027,12,0,88747,0:0:0:0:
