osu file format v14

[General]
AudioFilename: clever -TV Mix-.mp3
AudioLeadIn: 0
PreviewTime: 51481
Countdown: 0
SampleSet: Soft
StackLeniency: 0.7
Mode: 0
LetterboxInBreaks: 0
WidescreenStoryboard: 1

[Editor]
DistanceSpacing: 1
BeatDivisor: 4
GridSize: 4
TimelineZoom: 2.000006

[Metadata]
Title:clever -TV MIX-
TitleUnicode:clever -TV MIX-
Artist:ClariS x GARNiDELiA
ArtistUnicode:ClariS×GARNiDELiA
Creator:Trust
Version:captin's Normal
Source:クオリディア・コード
Tags:qualidea code ending captin1
BeatmapID:1270537
BeatmapSetID:578231

[Difficulty]
HPDrainRate:3
CircleSize:3.5
OverallDifficulty:3.5
ApproachRate:5
SliderMultiplier:1.2
SliderTickRate:1

[Events]
//Background and Video events
0,0,"clever.jpg",0,0
Video,240,"qc.avi"
//Break Periods
//Storyboard Layer 0 (Background)
//Storyboard Layer 1 (Fail)
//Storyboard Layer 2 (Pass)
//Storyboard Layer 3 (Foreground)
//Storyboard Sound Samples

[TimingPoints]
459,329.67032967033,4,2,1,40,1,0
459,-133.333333333333,4,2,1,40,0,0
11008,-100,4,2,1,60,0,0
21557,-133.333333333333,4,2,1,40,0,0
23535,-100,4,2,1,60,0,0
36063,327.868852459016,4,2,1,60,1,0
37374,331.491712707182,4,2,1,60,1,0
40025,329.67032967033,4,2,1,70,1,0
51893,329.67032967033,4,2,1,70,1,1
51893,-100,4,2,1,70,0,1
72991,-133.333333333333,4,2,1,70,0,1
75629,329.67032967033,4,2,1,70,1,0
75629,-100,4,2,1,70,0,0
86837,-100,4,2,1,60,0,0
87167,-100,4,2,1,50,0,0
87497,-100,4,2,1,40,0,0
87826,-100,4,2,1,30,0,0
88156,-100,4,2,1,20,0,0
88486,-100,4,2,1,10,0,0
88815,-100,4,2,1,5,0,0

[Colours]
Combo1 : 255,94,55
Combo2 : 173,255,95
Combo3 : 17,254,176
Combo4 : 255,88,100

[HitObjects]
96,69,459,5,4,1:0:0:0:
28,216,1118,2,0,P|120:200|197:160,2,180.000006866455,2|0|2,0:0|0:0|0:0,0:0:0:0:
191,288,3096,2,0,L|378:265,1,180.000006866455,2|0,0:0|0:0,0:0:0:0:
428,336,4085,2,0,P|461:315|458:183,1,180.000006866455,2|0,0:0|0:0,0:0:0:0:
381,148,5074,1,2,0:0:0:0:
505,21,5733,5,0,0:0:0:0:
333,76,6393,2,0,B|299:126|299:126|324:264,2,180.000006866455,2|0|2,0:0|0:0|0:0,0:0:0:0:
159,122,8371,2,0,P|72:120|-17:94,1,180.000006866455,2|0,0:0|0:0,0:0:0:0:
0,183,9360,2,0,L|21:361,1,180.000006866455,2|0,0:0|0:0,0:0:0:0:
100,318,10349,1,2,0:0:0:0:
184,348,10678,1,0,1:0:0:0:
239,285,11008,6,0,L|225:157,2,120,4|8|0,1:0|0:0|1:0,0:0:0:0:
313,314,11832,2,0,P|355:287|425:295,1,120,0|0,1:0|1:0,0:0:0:0:
486,190,12491,1,0,1:0:0:0:
486,190,12656,2,0,L|471:69,1,120,8|0,0:0|1:0,0:0:0:0:
359,25,13316,1,8,0:0:0:0:
272,108,13645,6,0,P|223:103|132:73,2,120,0|8|0,1:0|0:0|1:0,0:0:0:0:
350,106,14469,2,0,L|337:227,1,120,0|0,1:0|1:0,0:0:0:0:
243,299,15129,1,0,1:0:0:0:
243,299,15294,2,0,L|174:307,2,60,8|0|0,0:0|1:0|1:0,0:0:0:0:
344,368,15953,1,8,0:0:0:0:
443,300,16283,6,0,B|456:269|456:269|445:176,2,120,0|8|0,1:0|0:0|1:0,0:0:0:0:
378,256,17107,2,0,P|338:240|256:226,1,120,0|0,1:0|1:0,0:0:0:0:
145,256,17766,1,0,1:0:0:0:
145,256,17931,2,0,L|133:121,1,120,8|0,0:0|1:0,0:0:0:0:
53,46,18590,1,8,0:0:0:0:
169,22,18920,6,0,L|290:43,1,120,4|8,1:0|0:0,0:0:0:0:
333,107,19415,2,0,P|377:95|468:94,1,120,0|0,0:0|1:0,0:0:0:0:
500,159,19909,1,8,0:0:0:0:
500,159,20074,2,0,L|488:283,1,120,4|0,1:2|1:0,0:0:0:0:
455,349,20568,2,0,P|416:306|416:248,2,120,8|8|8,0:0|0:0|0:0,0:0:0:0:
324,325,21557,6,0,B|207:306|207:306|156:346,2,180.000006866455,4|0|0,1:0|0:0|0:0,0:0:0:0:
240,165,23535,2,0,L|232:94,1,60,0|0,0:0|1:0,0:0:0:0:
155,93,23865,2,0,L|147:22,1,60,12|0,0:0|0:0,0:0:0:0:
70,21,24195,6,0,P|47:45|57:130,1,120,4|8,1:0|0:0,0:0:0:0:
116,176,24689,2,0,L|101:305,1,120,0|0,0:0|1:0,0:0:0:0:
211,353,25349,2,0,P|248:336|329:337,1,120,0|0,1:0|1:0,0:0:0:0:
396,372,25843,1,8,0:0:0:0:
457,266,26173,1,0,1:0:0:0:
457,266,26338,1,0,0:0:0:0:
372,174,26667,1,0,0:0:0:0:
372,174,26832,6,0,L|386:48,2,120,4|8|0,1:0|0:0|1:0,0:0:0:0:
309,220,27656,2,0,P|274:199|193:201,1,120,0|0,1:0|1:0,0:0:0:0:
106,280,28316,1,0,1:0:0:0:
106,280,28480,2,0,L|122:347,2,60,8|0|0,0:0|1:0|1:0,0:0:0:0:
11,203,29140,1,8,0:0:0:0:
88,110,29469,6,0,L|217:100,1,120,4|0,1:0|0:0,0:0:0:0:
270,54,29964,2,0,P|295:69|395:103,1,120,0|0,1:0|0:0,0:0:0:0:
463,89,30459,1,0,0:0:0:0:
463,89,30623,2,0,L|480:214,1,120,0|8,1:0|0:0,0:0:0:0:
409,306,31283,1,0,1:0:0:0:
409,306,31448,2,0,B|442:327|442:327|489:329,2,80,8|8|8,0:0|0:3|0:3,0:0:0:0:
343,259,32107,6,0,L|202:272,1,120,4|0,1:0|1:0,0:0:0:0:
159,315,32601,2,0,P|126:278|133:189,1,120,0|0,0:0|0:0,0:0:0:0:
178,153,33096,2,0,L|254:145,1,60,0|8,1:0|0:0,0:0:0:0:
321,58,33590,1,8,0:3:0:0:
414,137,33920,2,0,L|473:149,2,60,8|8|8,0:3|0:3|0:3,0:0:0:0:
315,206,34579,1,8,0:3:0:0:
315,206,34744,6,0,L|328:342,1,120,4|0,1:0|1:0,0:0:0:0:
255,359,35239,2,0,B|217:339|217:339|121:354,1,120,0|0,0:0|0:0,0:0:0:0:
76,306,35733,2,0,L|68:229,1,60,0|0,1:0|0:0,0:0:0:0:
23,183,36063,1,8,0:3:0:0:
107,97,36390,1,8,0:3:0:0:
209,164,36718,1,8,0:3:0:0:
163,274,37046,2,0,L|171:342,1,60,8|8,0:0|0:0,0:0:0:0:
246,346,37374,6,0,P|283:325|368:336,1,120,4|0,1:0|1:0,0:0:0:0:
432,360,37871,2,0,B|453:306|453:306|442:230,1,120,0|0,0:0|0:0,0:0:0:0:
474,171,38368,2,0,P|437:150|352:161,1,120,0|0,1:0|1:0,0:0:0:0:
290,254,39031,1,0,1:0:0:0:
180,197,39362,1,0,1:0:0:0:
180,197,39528,2,0,L|185:126,1,60,8|0,0:0|1:0,0:0:0:0:
119,35,40025,6,0,L|-23:21,2,120,4|8|0,1:0|0:0|1:0,0:0:0:0:
176,96,40849,1,0,1:0:0:0:
176,96,41014,2,0,P|211:79|317:88,1,120,8|0,0:0|1:0,0:0:0:0:
374,167,41673,1,8,0:0:0:0:
296,261,42003,2,0,B|307:331,2,60,0|0|8,1:0|1:0|0:0,0:0:0:0:
407,303,42662,6,0,B|488:319|488:319|517:295,1,120,0|8,1:0|0:0,0:0:0:0:
459,187,43321,1,0,1:0:0:0:
459,187,43486,2,0,L|471:58,1,120,0|0,1:0|0:0,0:0:0:0:
410,16,43981,1,0,1:0:0:0:
337,110,44310,1,8,0:0:0:0:
231,51,44640,1,0,1:0:0:0:
158,145,44970,1,8,0:0:0:0:
264,204,45299,6,0,B|340:212|340:212|383:179,2,120,0|8|0,1:0|0:0|1:0,0:0:0:0:
219,269,46123,1,0,1:0:0:0:
219,269,46288,2,0,P|162:249|76:257,1,120,8|0,0:0|1:0,0:0:0:0:
20,339,46948,1,8,0:0:0:0:
136,365,47277,2,0,L|199:355,2,60,0|0|8,1:0|1:0|0:0,0:0:0:0:
103,249,47937,6,0,L|91:111,1,120,0|0,1:0|1:0,0:0:0:0:
178,45,48596,1,0,1:0:0:0:
178,45,48761,2,0,L|242:32,2,60,8|8|8,0:0|0:0|0:3,0:0:0:0:
213,120,49255,5,8,1:2:0:0:
213,120,49420,1,8,1:2:0:0:
391,163,49915,1,8,1:2:0:0:
391,163,50079,1,8,1:2:0:0:
278,243,51563,2,0,L|288:312,1,60,2|2,0:0|0:0,0:0:0:0:
221,347,51893,6,0,B|101:323,1,120,4|8,1:0|1:2,0:0:0:0:
90,245,52387,1,0,0:0:0:0:
90,245,52552,2,0,B|210:269,1,120,0|8,1:0|1:2,0:0:0:0:
207,138,53211,2,0,L|128:151,2,60,0|0|8,1:0|0:0|0:0,0:0:0:0:
279,28,53871,2,0,B|399:52,1,120,0|8,1:0|1:2,0:0:0:0:
494,143,54530,6,0,P|494:198|469:279,1,120,0|8,1:0|1:2,0:0:0:0:
416,318,55024,2,0,B|372:301|372:301|284:323,1,120,2|0,0:0|0:0,0:0:0:0:
171,339,55684,1,0,0:0:0:0:
72,259,56013,1,0,0:0:0:0:
72,259,56178,2,0,L|56:128,2,120,8|0|8,1:2|1:0|1:2,0:0:0:0:
195,208,57167,5,0,1:0:0:0:
163,80,57497,1,8,1:2:0:0:
291,44,57827,2,0,P|310:99|321:161,1,120,0|8,1:0|1:2,0:0:0:0:
195,208,58486,2,0,P|184:267|165:323,1,120,0|8,1:0|1:2,0:0:0:0:
38,291,59145,1,0,1:0:0:0:
71,163,59475,1,8,1:2:0:0:
195,208,59805,6,0,P|235:226|320:239,1,120,4|8,1:2|1:2,0:0:0:0:
384,198,60299,1,0,0:0:0:0:
384,198,60464,2,0,L|407:64,1,120,0|8,1:0|1:2,0:0:0:0:
279,125,61123,6,0,P|239:107|154:94,1,120,0|8,1:0|1:2,0:0:0:0:
88,124,61618,1,0,0:0:0:0:
88,124,61783,2,0,L|71:211,1,60,8|8,1:2|0:0,0:0:0:0:
11,236,62112,2,0,L|28:323,1,60,8|0,1:2|1:0,0:0:0:0:
98,333,62442,6,0,P|140:306|227:303,1,120,4|8,1:0|1:2,0:0:0:0:
294,319,62936,1,0,0:0:0:0:
294,319,63101,2,0,P|336:346|423:349,1,120,0|8,1:0|1:2,0:0:0:0:
383,221,63761,2,0,L|394:155,2,60,0|0|8,1:0|0:0|0:0,0:0:0:0:
251,234,64420,2,0,L|123:200,1,120,0|8,1:0|1:2,0:0:0:0:
57,96,65079,6,0,P|108:67|167:74,1,120,0|8,1:0|1:2,0:0:0:0:
225,136,65574,2,0,L|364:118,1,120,2|0,0:0|0:0,0:0:0:0:
463,61,66233,1,0,0:0:0:0:
479,198,66563,1,0,0:0:0:0:
479,198,66728,2,0,L|463:316,1,120,8|0,1:2|1:0,0:0:0:0:
340,268,67387,1,8,1:2:0:0:
222,323,67717,6,0,L|93:332,2,120,4|8|8,1:0|1:2|1:2,0:0:0:0:
236,191,68706,1,8,1:2:0:0:
254,58,69035,2,0,L|383:49,1,120,12|8,1:2|1:2,0:0:0:0:
441,101,69530,1,0,1:0:0:0:
401,228,69860,1,0,1:0:0:0:
299,149,70189,1,0,1:0:0:0:
299,149,70354,6,0,L|173:134,1,120,8|0,1:2|1:0,0:0:0:0:
59,189,71013,2,0,P|43:235|60:318,1,120,0|0,1:0|1:0,0:0:0:0:
180,332,71673,1,4,1:0:0:0:
180,332,71838,1,0,1:0:0:0:
266,230,72167,1,4,1:0:0:0:
391,274,72497,2,0,L|467:268,1,60,0|8,1:0|0:0,0:0:0:0:
501,136,72991,6,0,B|460:143|398:111|398:111|343:127|343:127|299:96|236:88,1,270.000010299683,4|0,1:0|0:0,0:0:0:0:
134,123,74310,2,0,L|150:227,1,90.0000034332277,4|8,1:2|0:0,0:0:0:0:
98,269,74805,1,0,1:0:0:0:
189,344,75134,2,0,L|233:331,1,45.0000017166138,0|0,1:0|0:0,0:0:0:0:
343,285,75629,6,0,P|383:315|460:316,1,120,4|8,1:0|0:0,0:0:0:0:
491,207,76288,1,0,1:0:0:0:
491,207,76453,2,0,L|472:137,1,60,0|8,1:0|0:0,0:0:0:0:
361,111,76947,2,0,L|374:46,2,60,0|0|8,1:0|1:0|0:0,0:0:0:0:
298,160,77442,2,0,P|258:132|180:127,1,120,0|0,1:0|1:0,0:0:0:0:
116,157,77936,1,8,0:0:0:0:
152,273,78266,6,0,B|140:348|140:348|92:378,2,120,4|8|0,1:0|0:0|1:0,0:0:0:0:
229,252,79090,1,0,1:0:0:0:
229,252,79255,1,8,0:0:0:0:
336,306,79585,2,0,L|400:289,2,60,0|0|8,1:0|1:0|0:0,0:0:0:0:
328,186,80244,2,0,L|392:169,2,60,0|0|8,1:0|1:0|1:2,0:0:0:0:
218,135,80903,6,0,B|196:96|196:96|191:20,1,120,4|8,1:0|0:0,0:0:0:0:
74,54,81563,1,0,1:0:0:0:
74,54,81727,2,0,L|78:113,1,60,0|8,1:0|0:0,0:0:0:0:
20,221,82222,2,0,L|16:280,2,60,0|0|8,1:0|1:0|0:0,0:0:0:0:
99,231,82716,2,0,P|143:217|214:239,1,120,0|0,1:0|1:0,0:0:0:0:
237,312,83211,1,8,0:0:0:0:
329,234,83541,6,0,L|461:257,2,120,4|8|0,1:0|0:0|1:0,0:0:0:0:
308,159,84365,1,0,1:0:0:0:
308,159,84530,1,8,0:0:0:0:
188,146,84859,2,0,L|182:87,2,60,0|0|8,1:0|1:0|0:0,0:0:0:0:
127,199,85354,1,0,1:0:0:0:
127,199,85519,2,0,L|121:258,2,60,8|0|8,0:0|1:0|0:0,0:0:0:0:
57,158,86013,5,4,1:0:0:0:
256,192,86178,12,0,88815,0:0:0:0:
