osu file format v14

[General]
AudioFilename: clever -TV Mix-.mp3
AudioLeadIn: 0
PreviewTime: 51481
Countdown: 0
SampleSet: Soft
StackLeniency: 0.7
Mode: 0
LetterboxInBreaks: 0
WidescreenStoryboard: 1

[Editor]
DistanceSpacing: 0.7
BeatDivisor: 4
GridSize: 4
TimelineZoom: 5.900002

[Metadata]
Title:clever -TV MIX-
TitleUnicode:clever -TV MIX-
Artist:ClariS x GARNiDELiA
ArtistUnicode:ClariS×GARNiDELiA
Creator:Trust
Version:captin's Extra
Source:クオリディア・コード
Tags:qualidea code ending captin1
BeatmapID:1223915
BeatmapSetID:578231

[Difficulty]
HPDrainRate:6
CircleSize:4.2
OverallDifficulty:8
ApproachRate:9.2
SliderMultiplier:1.8
SliderTickRate:1

[Events]
//Background and Video events
0,0,"clever.jpg",0,0
Video,240,"qc.avi"
//Break Periods
//Storyboard Layer 0 (Background)
//Storyboard Layer 1 (Fail)
//Storyboard Layer 2 (Pass)
//Storyboard Layer 3 (Foreground)
//Storyboard Sound Samples

[TimingPoints]
459,329.67032967033,4,2,1,40,1,0
459,-300,4,2,1,40,0,0
10678,-133.333333333333,4,2,1,60,0,0
11008,-111.111111111111,4,2,1,60,0,0
21557,-300,4,2,1,40,0,0
23535,-133.333333333333,4,2,1,60,0,0
24195,-111.111111111111,4,2,1,60,0,0
36063,327.868852459016,4,2,1,60,1,0
36063,-111.111111111111,4,2,1,60,0,0
37374,331.491712707182,4,2,1,60,1,0
37374,-111.111111111111,4,2,1,60,0,0
40025,329.67032967033,4,2,1,70,1,0
40025,-111.111111111111,4,2,1,70,0,0
50739,-166.666666666666,4,2,1,50,0,0
51893,329.67032967033,4,2,1,70,1,1
51893,-100,4,2,1,70,0,1
72991,-133.333333333333,4,2,1,70,0,1
75629,329.67032967033,4,2,1,70,1,0
75629,-100,4,2,1,70,0,0
86837,-100,4,2,1,60,0,0
87167,-100,4,2,1,50,0,0
87497,-100,4,2,1,40,0,0
87826,-100,4,2,1,30,0,0
88156,-100,4,2,1,20,0,0
88486,-100,4,2,1,10,0,0
88815,-100,4,2,1,5,0,0

[Colours]
Combo1 : 255,94,55
Combo2 : 173,255,95
Combo3 : 17,254,176
Combo4 : 255,88,100

[HitObjects]
74,334,459,5,4,1:0:0:0:
183,249,1118,2,0,L|307:265,2,120,2|0|2,0:0|0:0|0:0,0:0:0:0:
0,161,3096,2,0,P|47:126|105:135,1,120,2|0,0:0|0:0,0:0:0:0:
183,165,4085,2,0,L|309:147,1,120,2|0,0:0|0:0,0:0:0:0:
372,193,5074,1,2,0:0:0:0:
469,45,5733,5,0,0:0:0:0:
370,158,6393,2,0,L|385:285,2,120,2|0|2,0:0|0:0|0:0,0:0:0:0:
252,67,8371,2,0,L|125:61,1,120,2|0,0:0|0:0,0:0:0:0:
69,115,9360,2,0,P|51:150|83:231,1,120,2|0,0:0|0:0,0:0:0:0:
146,265,10349,1,2,0:0:0:0:
374,98,10678,6,0,L|362:205,1,101.250003862381,0|0,1:0|0:0,0:0:0:0:
317,270,11008,6,0,P|384:285|444:215,2,161.999995056153,4|8|0,1:0|0:0|1:0,0:0:0:0:
203,144,11832,1,0,1:0:0:0:
163,311,11997,1,8,0:0:0:0:
235,163,12162,6,0,B|300:156|300:156|329:166|329:166|425:154,1,161.999995056153,0|0,1:0|1:0,0:0:0:0:
476,64,12656,1,8,0:0:0:0:
430,240,12821,1,0,1:0:0:0:
302,119,12986,2,0,L|288:36,1,80.9999975280763,0|0,1:0|0:0,0:0:0:0:
478,167,13316,1,8,0:0:0:0:
338,311,13480,1,0,0:0:0:0:
338,311,13563,1,0,0:0:0:0:
338,311,13645,6,0,L|157:290,1,161.999995056153,0|8,1:0|0:0,0:0:0:0:
59,171,14140,1,0,0:0:0:0:
215,190,14305,2,0,L|203:278,1,80.9999975280763,0|0,1:0|1:0,0:0:0:0:
256,372,14634,1,8,0:0:0:0:
109,238,14799,6,0,L|93:61,1,161.999995056153,0|0,1:0|1:0,0:0:0:0:
319,159,15294,2,0,P|275:185|235:182,1,80.9999975280763,8|0,0:0|1:0,0:0:0:0:
31,149,15623,1,0,1:0:0:0:
105,57,15788,1,0,0:0:0:0:
196,255,15953,2,0,L|201:345,1,80.9999975280763,8|0,0:0|0:0,0:0:0:0:
381,248,16283,6,0,P|426:205|410:97,2,161.999995056153,0|8|0,1:0|0:0|1:0,0:0:0:0:
153,226,17107,1,0,1:0:0:0:
293,146,17272,1,8,0:0:0:0:
373,322,17437,6,0,B|264:340|264:340|219:317,1,161.999995056153,0|0,1:0|1:0,0:0:0:0:
51,156,17931,1,8,0:0:0:0:
190,252,18096,1,0,1:0:0:0:
56,366,18261,2,0,L|64:265,1,80.9999975280763,0|0,1:0|0:0,0:0:0:0:
142,43,18590,2,0,P|155:88|161:133,1,80.9999975280763,8|0,0:0|0:0,0:0:0:0:
150,266,18920,5,4,1:0:0:0:
78,136,19085,1,0,0:0:0:0:
238,94,19250,1,8,0:0:0:0:
131,250,19415,6,0,L|36:238,1,80.9999975280763,0|0,0:0|1:0,0:0:0:0:
215,124,19744,1,0,1:0:0:0:
166,340,19909,1,8,0:0:0:0:
319,259,20074,5,4,1:2:0:0:
198,146,20239,2,0,L|156:134,3,40.4999987640381,0|0|0|0,0:0|0:0|1:0|0:0,0:0:0:0:
246,214,20568,1,8,0:0:0:0:
275,228,20651,1,0,0:0:0:0:
307,227,20733,1,0,0:0:0:0:
336,212,20816,1,0,0:0:0:0:
351,183,20898,6,0,L|346:82,1,80.9999975280763,8|0,0:0|1:0,0:0:0:0:
486,246,21228,1,8,0:0:0:0:
486,246,21310,1,0,0:0:0:0:
486,246,21393,1,0,0:0:0:0:
486,246,21475,1,0,0:0:0:0:
486,246,21557,6,0,P|427:245|374:290,2,120,4|0|0,1:0|0:0|0:0,0:0:0:0:
301,351,23535,5,0,0:0:0:0:
277,204,23700,1,0,1:0:0:0:
453,327,23865,2,0,L|362:309,1,67.5000025749208,12|0,0:0|0:0,0:0:0:0:
196,257,24195,6,0,P|156:218|172:109,1,161.999995056153,4|8,1:0|0:0,0:0:0:0:
346,70,24689,1,0,0:0:0:0:
286,284,24854,2,0,L|275:185,1,80.9999975280763,0|0,1:0|1:0,0:0:0:0:
373,76,25184,1,8,0:0:0:0:
241,194,25349,6,0,B|185:205|185:205|142:188|142:188|69:199,1,161.999995056153,0|0,1:0|1:0,0:0:0:0:
106,365,25843,2,0,P|129:324|117:270,1,80.9999975280763,8|0,0:0|1:0,0:0:0:0:
26,124,26173,1,0,1:0:0:0:
53,307,26338,1,0,0:0:0:0:
212,216,26502,2,0,L|221:132,1,80.9999975280763,8|0,0:0|0:0,0:0:0:0:
386,48,26832,6,0,P|428:92|407:189,2,161.999995056153,4|8|0,1:0|0:0|1:0,0:0:0:0:
188,176,27656,1,0,1:0:0:0:
330,155,27821,1,8,0:0:0:0:
167,202,27986,6,0,B|52:181|52:181|95:167,1,161.999995056153,0|0,1:0|1:0,0:0:0:0:
304,62,28480,2,0,L|289:155,1,80.9999975280763,8|0,0:0|1:0,0:0:0:0:
168,359,28810,2,0,L|153:266,1,80.9999975280763,0|0,1:0|0:0,0:0:0:0:
368,114,29140,1,8,0:0:0:0:
284,257,29305,1,8,0:0:0:0:
284,257,29387,1,8,0:0:0:0:
284,257,29469,6,0,L|271:160,1,80.9999975280763,4|0,1:0|0:0,0:0:0:0:
331,88,29799,1,0,0:0:0:0:
195,238,29964,5,0,1:0:0:0:
106,95,30129,1,8,0:0:0:0:
234,143,30294,1,0,0:0:0:0:
103,311,30459,5,0,0:0:0:0:
154,177,30623,2,0,L|244:168,1,80.9999975280763,0|0,1:0|1:0,0:0:0:0:
464,247,30953,2,0,P|417:228|388:208,1,80.9999975280763,8|0,0:0|0:0,0:0:0:0:
338,18,31283,5,0,1:0:0:0:
338,18,31365,1,0,1:0:0:0:
338,18,31448,2,0,B|318:69|318:69|329:132,2,107.999996704102,8|8|8,0:0|0:3|0:3,0:0:0:0:
472,124,32107,6,0,L|306:143,1,161.999995056153,4|0,1:0|1:0,0:0:0:0:
104,72,32601,1,0,0:0:0:0:
200,273,32766,1,0,1:0:0:0:
240,93,32931,1,0,0:0:0:0:
59,161,33096,1,0,1:0:0:0:
145,201,33261,6,0,L|249:188,1,80.9999975280763,8|0,0:0|1:0,0:0:0:0:
451,289,33590,2,0,P|411:270|374:245,1,80.9999975280763,8|0,0:3|1:0,0:0:0:0:
321,63,33920,1,8,0:3:0:0:
321,63,34002,1,8,0:3:0:0:
321,63,34085,1,8,0:3:0:0:
344,247,34250,1,8,0:3:0:0:
190,132,34415,2,0,L|278:139,1,80.9999975280763,0|8,1:0|0:3,0:0:0:0:
295,376,34744,6,0,B|268:339|268:339|259:215,1,161.999995056153,4|0,1:0|1:0,0:0:0:0:
291,47,35239,1,0,0:0:0:0:
365,222,35404,1,0,1:0:0:0:
179,149,35568,1,0,0:0:0:0:
348,107,35733,2,0,L|343:191,1,80.9999975280763,0|0,1:0|0:0,0:0:0:0:
282,286,36063,5,8,0:3:0:0:
255,303,36144,1,8,0:3:0:0:
222,304,36226,1,0,1:0:0:0:
191,292,36308,1,8,0:3:0:0:
167,269,36390,2,0,L|154:221,3,40.4999987640381,8|8|4|8,0:3|0:3|0:3|0:3,0:0:0:0:
241,198,36718,2,0,L|281:190,1,40.4999987640381,8|8,0:3|0:3,0:0:0:0:
74,248,36882,2,0,L|35:240,1,40.4999987640381,0|0,1:0|1:0,0:0:0:0:
249,115,37046,5,8,0:0:0:0:
253,91,37128,1,8,0:0:0:0:
257,66,37210,1,8,0:0:0:0:
261,42,37292,1,8,0:0:0:0:
265,18,37374,6,0,B|311:34|311:34|323:149,1,161.999995056153,4|0,1:0|1:0,0:0:0:0:
151,152,37871,1,0,0:0:0:0:
361,80,38036,1,0,1:0:0:0:
230,305,38202,1,0,0:0:0:0:
178,69,38368,2,0,L|267:89,1,80.9999975280763,0|0,1:0|0:0,0:0:0:0:
407,313,38699,6,0,P|363:301|316:278,1,80.9999975280763,0|0,1:0|0:0,0:0:0:0:
225,166,39031,1,0,1:0:0:0:
368,97,39197,1,0,0:0:0:0:
192,151,39362,1,0,1:0:0:0:
272,330,39528,2,0,L|264:377,2,40.4999987640381,8|8|0,0:0|0:0|1:0,0:0:0:0:
434,219,40025,6,0,L|446:133,1,80.9999975280763,4|0,1:0|1:0,0:0:0:0:
501,295,40354,2,0,B|431:282|431:282|416:259|416:259|330:241,1,161.999995056153,8|0,0:0|1:0,0:0:0:0:
153,209,40849,1,0,1:0:0:0:
272,369,41014,2,0,P|290:331|277:277,1,80.9999975280763,8|0,0:0|0:0,0:0:0:0:
123,104,41343,5,0,1:0:0:0:
181,256,41508,1,0,1:0:0:0:
318,180,41673,2,0,L|230:166,1,80.9999975280763,8|0,0:0|0:0,0:0:0:0:
0,262,42003,2,0,L|88:248,1,80.9999975280763,0|0,1:0|1:0,0:0:0:0:
139,101,42332,1,8,0:0:0:0:
72,295,42497,1,0,0:0:0:0:
105,81,42662,5,0,1:0:0:0:
219,162,42827,2,0,L|240:341,1,161.999995056153,0|0,1:0|0:0,0:0:0:0:
351,216,43321,1,0,1:0:0:0:
258,75,43486,2,0,L|247:161,1,80.9999975280763,0|8,1:0|0:0,0:0:0:0:
329,333,43816,1,0,0:0:0:0:
329,333,43898,1,0,0:0:0:0:
329,333,43981,5,0,1:0:0:0:
180,247,44145,1,0,1:0:0:0:
392,254,44310,2,0,B|404:188|404:188|428:167|428:167|440:97,1,161.999995056153,8|0,0:0|1:0,0:0:0:0:
328,21,44805,1,0,1:0:0:0:
475,239,44970,1,8,0:0:0:0:
298,180,45134,1,8,0:3:0:0:
467,85,45299,6,0,L|378:93,1,80.9999975280763,0|0,1:0|1:0,0:0:0:0:
214,225,45629,2,0,P|251:267|373:238,1,161.999995056153,8|0,0:0|1:0,0:0:0:0:
237,93,46123,1,0,1:0:0:0:
86,226,46288,2,0,L|97:313,1,80.9999975280763,8|0,0:0|0:0,0:0:0:0:
213,194,46618,5,0,1:0:0:0:
183,35,46783,1,0,1:0:0:0:
359,113,46948,2,0,L|251:120,1,80.9999975280763,8|0,0:0|0:0,0:0:0:0:
85,210,47277,2,0,L|193:217,1,80.9999975280763,0|0,1:0|1:0,0:0:0:0:
264,86,47607,1,8,0:0:0:0:
303,303,47772,1,0,0:0:0:0:
85,210,47937,6,0,P|72:152|69:102,1,80.9999975280763,0|8,1:0|0:0,0:0:0:0:
171,15,48184,1,8,0:0:0:0:
171,15,48266,2,0,L|161:103,1,80.9999975280763,0|8,1:0|0:0,0:0:0:0:
219,167,48514,1,8,0:0:0:0:
219,167,48596,1,0,1:0:0:0:
472,115,48761,1,8,0:0:0:0:
450,97,48843,1,8,0:0:0:0:
423,87,48926,1,8,0:0:0:0:
395,93,49008,1,8,0:0:0:0:
371,108,49090,1,8,0:3:0:0:
356,132,49173,1,8,0:3:0:0:
354,160,49255,5,8,1:2:0:0:
443,360,49420,1,8,1:2:0:0:
416,57,49915,5,8,1:2:0:0:
377,298,50079,1,8,1:2:0:0:
32,225,50739,6,0,L|23:151,2,53.9999983520508,2|2|2,0:0|0:0|0:0,0:0:0:0:
31,301,51233,1,2,0:0:0:0:
98,265,51398,1,2,0:0:0:0:
169,291,51563,1,2,0:0:0:0:
86,141,51728,1,2,0:0:0:0:
175,38,51893,6,0,L|162:141,1,90,4|0,1:0|0:0,0:0:0:0:
173,359,52222,1,8,1:2:0:0:
267,211,52387,1,0,0:0:0:0:
267,211,52469,1,0,0:0:0:0:
267,211,52552,1,0,1:0:0:0:
86,141,52717,2,0,P|36:149|-17:171,1,90,0|8,0:0|1:2,0:0:0:0:
208,279,53046,2,0,L|200:222,1,45
241,73,53211,5,0,1:0:0:0:
308,244,53376,1,0,0:0:0:0:
104,221,53541,1,8,1:2:0:0:
251,94,53706,2,0,L|354:115,1,90,0|0,0:0|1:0,0:0:0:0:
447,329,54035,1,0,0:0:0:0:
447,329,54118,1,0,0:0:0:0:
447,329,54200,2,0,B|418:270|422:231|422:231|456:191,1,135,8|0,1:2|0:0,0:0:0:0:
475,217,54530,5,0,1:0:0:0:
341,321,54695,1,0,0:0:0:0:
321,84,54860,1,8,1:2:0:0:
460,252,55024,2,0,L|397:242,1,45
242,279,55189,1,0,1:0:0:0:
352,108,55354,1,0,0:0:0:0:
136,154,55519,2,0,L|129:254,1,90,8|0,1:2|0:0,0:0:0:0:
331,134,55849,5,0,1:0:0:0:
163,34,56013,2,0,L|173:84,1,45
118,254,56178,2,0,L|124:164,1,90,8|0,1:2|0:0,0:0:0:0:
262,93,56425,1,0,0:0:0:0:
262,93,56508,2,0,B|280:132|280:132|273:178,1,90,0|0,1:0|0:0,0:0:0:0:
53,312,56838,2,0,B|34:272|34:272|41:226,1,90,8|0,1:2|0:0,0:0:0:0:
254,187,57167,6,0,L|148:201,1,90,0|0,1:0|0:0,0:0:0:0:
312,271,57497,1,8,1:2:0:0:
78,140,57662,1,0,0:0:0:0:
78,140,57744,1,0,0:0:0:0:
78,140,57827,2,0,P|60:94|69:46,1,90,0|0,1:0|0:0,0:0:0:0:
377,216,58156,2,0,P|395:262|386:310,1,90,8|0,1:2|0:0,0:0:0:0:
182,205,58486,5,0,1:0:0:0:
274,51,58651,1,0,0:0:0:0:
274,51,58733,1,0,0:0:0:0:
274,51,58816,2,0,L|286:150,1,90,8|0,1:2|0:0,0:0:0:0:
215,335,59145,1,0,1:0:0:0:
117,157,59310,1,0,0:0:0:0:
345,205,59475,2,0,B|303:224|303:224|248:223,1,90,8|0,1:2|0:0,0:0:0:0:
34,141,59805,6,0,P|71:86|182:103,1,180,4|8,1:2|1:2,0:0:0:0:
225,255,60299,1,0,0:0:0:0:
430,197,60464,2,0,B|356:186|356:186|326:165|326:165|245:154,1,180,0|8,1:0|1:2,0:0:0:0:
127,297,60958,1,0,0:0:0:0:
328,223,61123,5,0,1:0:0:0:
227,41,61288,1,0,0:0:0:0:
227,41,61371,1,0,0:0:0:0:
227,41,61453,1,8,1:2:0:0:
207,258,61618,2,0,L|198:313,1,45
343,193,61783,1,8,1:2:0:0:
91,128,61947,1,8,0:0:0:0:
95,159,62030,1,8,0:0:0:0:
99,190,62112,2,0,L|106:245,1,45,8|8,1:2|0:0,0:0:0:0:
236,344,62277,2,0,L|243:289,1,45,0|0,1:0|1:0,0:0:0:0:
343,193,62442,6,0,P|294:175|245:179,1,90,4|0,1:0|0:0,0:0:0:0:
45,313,62772,1,8,1:2:0:0:
147,149,62936,1,0,0:0:0:0:
147,149,63019,1,0,0:0:0:0:
147,149,63101,1,0,1:0:0:0:
119,339,63266,2,0,B|99:319|99:319|91:245,1,90,0|8,0:0|1:2,0:0:0:0:
138,26,63596,2,0,L|129:81,1,45
260,120,63761,5,0,1:0:0:0:
54,174,63925,1,0,0:0:0:0:
222,41,64090,1,8,1:2:0:0:
323,228,64255,2,0,L|332:340,1,90,0|0,0:0|1:0,0:0:0:0:
175,150,64585,1,0,0:0:0:0:
175,150,64667,1,0,0:0:0:0:
175,150,64750,2,0,B|231:173|279:161|279:161|312:116,1,135,8|0,1:2|0:0,0:0:0:0:
287,107,65079,5,0,1:0:0:0:
257,335,65244,1,0,0:0:0:0:
410,206,65409,1,8,1:2:0:0:
199,62,65574,2,0,L|211:140,1,45
234,308,65739,1,0,1:0:0:0:
105,131,65903,1,0,0:0:0:0:
283,155,66068,2,0,B|303:195|303:195|297:244,1,90,8|0,1:2|0:0,0:0:0:0:
125,338,66398,5,0,1:0:0:0:
174,203,66563,2,0,L|220:210,1,45
386,224,66728,2,0,L|285:242,1,90,8|0,1:2|0:0,0:0:0:0:
167,121,66975,1,0,0:0:0:0:
167,121,67057,2,0,L|272:136,1,90,0|0,1:0|0:0,0:0:0:0:
407,288,67387,2,0,P|342:288|297:239,1,135,8|0,1:2|0:0,0:0:0:0:
322,212,67717,5,4,1:0:0:0:
83,237,67882,1,0,0:0:0:0:
295,48,68046,2,8,L|281:143,1,90,8|0,1:2|1:0,1:0:0:0:
166,93,68376,5,8,1:2:0:0:
291,349,68541,1,0,1:0:0:0:
309,69,68706,5,8,1:2:0:0:
165,347,68871,1,0,1:0:0:0:
383,211,69035,5,12,1:2:0:0:
166,93,69200,1,0,1:0:0:0:
291,349,69365,1,8,1:2:0:0:
450,117,69530,5,0,1:0:0:0:
239,242,69695,1,8,1:2:0:0:
460,304,69860,5,0,1:0:0:0:
229,55,70024,1,8,1:2:0:0:
324,328,70189,5,0,1:0:0:0:
324,328,70272,1,0,0:0:0:0:
324,328,70354,2,0,L|260:316,3,45,8|0|0|0,1:2|0:0|0:0|0:0,0:0:0:0:
149,225,70684,2,0,L|213:213,3,45,0|0|0|0,1:0|0:0|0:0|0:0,0:0:0:0:
252,121,71013,5,0,1:0:0:0:
274,142,71096,1,0,0:0:0:0:
288,169,71178,1,0,0:0:0:0:
289,200,71261,1,0,0:0:0:0:
276,228,71343,1,0,1:0:0:0:
257,253,71425,1,0,1:0:0:0:
248,283,71508,1,8,0:3:0:0:
250,314,71590,1,8,0:3:0:0:
267,340,71673,5,4,1:0:0:0:
41,164,71838,2,0,L|153:178,1,90,0|8,1:0|0:0,0:0:0:0:
474,77,72167,2,0,P|416:51|316:138,1,180,4|0,1:0|1:0,0:0:0:0:
348,338,72662,2,0,B|366:293|366:293|361:237,1,90,8|0,0:0|1:0,0:0:0:0:
283,196,72909,1,0,1:0:0:0:
283,196,72991,6,0,L|133:183,1,135.000005149842,4|0,1:0|0:0,0:0:0:0:
74,254,73486,1,0,0:0:0:0:
223,116,73651,2,0,B|236:33,1,67.5000025749208,2|0,0:0|0:0,0:0:0:0:
290,299,73980,1,0,0:0:0:0:
451,251,74145,1,0,1:0:0:0:
451,251,74228,1,0,1:0:0:0:
451,251,74310,6,0,L|357:236,1,67.5000025749208,4|0,1:2|0:0,0:0:0:0:
169,298,74640,1,8,0:0:0:0:
359,341,74805,2,0,B|369:307|369:307|365:271,1,67.5000025749208,0|0,1:0|0:0,0:0:0:0:
289,88,75134,1,0,1:0:0:0:
169,298,75299,1,0,0:0:0:0:
202,304,75382,1,0,0:0:0:0:
234,311,75464,1,0,0:0:0:0:
266,318,75546,1,0,0:0:0:0:
293,298,75629,6,0,L|278:161,1,135,4|0,1:0|0:0,0:0:0:0:
329,95,75958,2,0,P|368:136|385:170,1,90,8|0,0:0|0:0,0:0:0:0:
184,241,76288,1,0,1:0:0:0:
228,54,76453,1,0,1:0:0:0:
369,184,76618,2,0,L|391:299,1,90,8|0,0:0|0:0,0:0:0:0:
121,167,76947,5,0,1:0:0:0:
189,338,77112,1,0,1:0:0:0:
279,138,77277,1,8,0:0:0:0:
55,102,77442,2,0,B|26:153|26:153|55:285,1,180,0|0,1:0|1:0,0:0:0:0:
313,279,77936,2,0,L|296:373,1,90,8|0,0:0|0:0,0:0:0:0:
226,114,78266,6,0,P|264:77|366:93,1,135,4|0,1:0|0:0,0:0:0:0:
392,146,78596,2,0,L|504:164,1,90,8|0,0:0|0:0,0:0:0:0:
281,294,78925,1,0,1:0:0:0:
302,151,79090,1,0,1:0:0:0:
93,264,79255,2,0,L|194:251,1,90,8|0,0:0|0:0,0:0:0:0:
218,60,79585,5,0,1:0:0:0:
24,179,79749,1,0,1:0:0:0:
162,357,79914,2,0,P|186:314|197:266,1,90,8|0,0:0|0:0,0:0:0:0:
101,64,80244,1,0,1:0:0:0:
99,254,80409,1,0,1:0:0:0:
257,158,80574,1,8,1:2:0:0:
288,162,80656,1,0,1:0:0:0:
319,166,80738,1,0,1:0:0:0:
350,170,80821,1,0,1:0:0:0:
381,174,80903,6,0,B|410:213|410:213|417:249|400:304,1,135,4|0,1:0|0:0,0:0:0:0:
321,333,81233,2,0,L|336:228,1,90,8|0,0:0|0:0,0:0:0:0:
425,76,81563,1,0,1:0:0:0:
481,276,81727,1,0,1:0:0:0:
256,193,81892,2,0,L|157:208,1,90,8|0,0:0|0:0,0:0:0:0:
55,69,82222,5,0,1:0:0:0:
105,302,82387,1,0,1:0:0:0:
183,134,82552,1,8,0:0:0:0:
19,258,82716,2,0,L|216:286,1,180,0|0,1:0|1:0,0:0:0:0:
422,194,83211,2,0,L|312:211,1,90,8|0,0:0|0:0,0:0:0:0:
112,88,83541,6,0,P|157:47|256:67,1,135,4|0,1:0|0:0,0:0:0:0:
257,125,83870,2,0,L|250:228,1,90,8|0,0:0|0:0,0:0:0:0:
294,360,84200,1,0,1:0:0:0:
138,261,84365,1,0,1:0:0:0:
362,192,84530,2,8,L|381:291,1,90,8|0,0:0|0:0,0:0:0:0:
80,138,84859,5,0,1:0:0:0:
186,38,85024,1,0,1:0:0:0:
130,240,85189,1,8,0:0:0:0:
49,103,85354,1,0,1:0:0:0:
142,323,85519,1,8,0:0:0:0:
195,164,85683,1,0,1:0:0:0:
22,297,85848,1,8,0:0:0:0:
236,338,86013,1,4,1:0:0:0:
256,192,86096,12,0,88815,0:0:0:0:
