osu file format v14

[General]
AudioFilename: clever -TV Mix-.mp3
AudioLeadIn: 0
PreviewTime: 51481
Countdown: 0
SampleSet: Soft
StackLeniency: 0.7
Mode: 0
LetterboxInBreaks: 0
WidescreenStoryboard: 1

[Editor]
Bookmarks: 78925
DistanceSpacing: 1
BeatDivisor: 4
GridSize: 4
TimelineZoom: 2.000006

[Metadata]
Title:clever -TV MIX-
TitleUnicode:clever -TV MIX-
Artist:ClariS x GARNiDELiA
ArtistUnicode:ClariS×GARNiDELiA
Creator:Trust
Version:Insane
Source:クオリディア・コード
Tags:qualidea code ending captin1
BeatmapID:1223916
BeatmapSetID:578231

[Difficulty]
HPDrainRate:6
CircleSize:4
OverallDifficulty:7
ApproachRate:9
SliderMultiplier:1.7
SliderTickRate:1

[Events]
//Background and Video events
0,0,"clever.jpg",0,0
Video,240,"qc.avi"
//Break Periods
//Storyboard Layer 0 (Background)
//Storyboard Layer 1 (Fail)
//Storyboard Layer 2 (Pass)
//Storyboard Layer 3 (Foreground)
//Storyboard Sound Samples

[TimingPoints]
459,329.67032967033,4,2,1,40,1,0
459,-200,4,2,1,40,0,0
10678,-133.333333333333,4,2,1,60,0,0
11008,-111.111111111111,4,2,1,60,0,0
21557,-200,4,2,1,40,0,0
23535,-133.333333333333,4,2,1,60,0,0
24195,-111.111111111111,4,2,1,60,0,0
36063,327.868852459016,4,2,1,50,1,0
36063,-111.111111111111,4,2,1,50,0,0
37374,331.491712707182,4,2,1,60,1,0
37374,-111.111111111111,4,2,1,60,0,0
40025,329.67032967033,4,2,1,70,1,0
40025,-111.111111111111,4,2,1,70,0,0
51893,329.67032967033,4,2,1,70,1,1
51893,-100,4,2,1,70,0,1
72991,-133.333333333333,4,2,1,70,0,1
75629,329.67032967033,4,2,1,70,1,0
75629,-100,4,2,1,70,0,0
86837,-100,4,2,1,60,0,0
87167,-100,4,2,1,50,0,0
87497,-100,4,2,1,40,0,0
87826,-100,4,2,1,30,0,0
88156,-100,4,2,1,20,0,0
88486,-100,4,2,1,10,0,0
88815,-100,4,2,1,5,0,0

[Colours]
Combo1 : 255,94,55
Combo2 : 173,255,95
Combo3 : 17,254,176
Combo4 : 255,88,100

[HitObjects]
147,167,459,5,4,1:0:0:0:
147,167,1118,6,0,P|203:187|307:135,1,170,2|2,0:0|0:0,0:0:0:0:
180,67,2437,2,0,P|231:106|214:44,1,170,2|2,0:0|0:0,0:0:0:0:
9,179,3755,1,0,0:0:0:0:
142,222,4085,2,0,P|230:216|316:177,1,170,2|0,0:0|0:0,0:0:0:0:
92,304,5074,2,0,P|56:268|76:148,1,170,2|0,0:0|0:0,0:0:0:0:
280,48,6393,6,0,P|200:48|96:56,1,170,2|2,0:0|0:0,0:0:0:0:
216,200,7711,2,0,P|296:200|400:192,1,170,2|2,0:0|0:0,0:0:0:0:
504,264,9030,1,0,0:0:0:0:
504,264,9360,2,0,P|484:304|368:328,1,170,2|0,0:0|0:0,0:0:0:0:
252,256,10349,1,2,0:0:0:0:
364,168,10678,6,0,P|404:160|480:156,1,95.6250036478044,0|0,1:0|0:0,0:0:0:0:
503,87,11008,6,0,P|459:123|339:95,1,152.999995330811,4|8,1:0|0:0,0:0:0:0:
288,46,11502,1,0,0:0:0:0:
180,52,11667,2,0,P|120:72|88:100,2,76.4999976654053,0|0|8,1:0|1:0|0:0,0:0:0:0:
288,46,12162,2,0,P|296:102|240:186,1,152.999995330811,0|0,1:0|1:0,0:0:0:0:
140,183,12656,2,0,P|88:171|44:155,1,76.4999976654053,8|0,0:0|1:0,0:0:0:0:
214,26,12986,2,0,P|266:38|310:54,1,76.4999976654053,0|0,1:0|0:0,0:0:0:0:
383,94,13316,1,8,0:0:0:0:
322,180,13480,1,0,0:0:0:0:
322,180,13563,1,0,0:0:0:0:
322,180,13645,6,0,P|279:121|295:32,1,152.999995330811,0|8,1:0|0:0,0:0:0:0:
286,44,14140,1,0,0:0:0:0:
184,94,14305,2,0,P|143:102|105:100,2,76.4999976654053,0|0|8,1:0|1:0|0:0,0:0:0:0:
286,44,14799,2,0,P|375:40|469:31,1,152.999995330811,0|0,1:0|1:0,0:0:0:0:
505,115,15294,2,0,P|510:165|515:208,1,76.4999976654053,8|0,0:0|1:0,0:0:0:0:
421,231,15623,2,0,P|416:181|411:138,1,76.4999976654053,0|0,1:0|0:0,0:0:0:0:
330,63,15953,1,8,0:0:0:0:
413,154,16118,1,0,0:0:0:0:
232,136,16283,6,0,P|141:132|56:121,2,152.999995330811,0|8|0,1:0|0:0|1:0,0:0:0:0:
188,224,17107,1,0,1:0:0:0:
316,184,17272,1,8,0:0:0:0:
187,223,17437,6,0,P|137:167|145:94,1,152.999995330811,0|0,1:0|1:0,0:0:0:0:
327,29,17931,2,0,P|267:44|227:60,1,76.4999976654053,8|0,0:0|1:0,0:0:0:0:
145,94,18261,1,0,1:0:0:0:
232,156,18426,1,0,0:0:0:0:
328,105,18590,2,0,P|333:61|320:9,1,76.4999976654053,8|0,0:0|0:0,0:0:0:0:
145,94,18920,6,0,L|135:177,2,76.4999976654053,4|0|8,1:0|0:0|0:0,0:0:0:0:
332,184,19415,2,0,L|342:267,2,76.4999976654053,0|0|0,0:0|1:0|1:0,0:0:0:0:
107,266,19909,2,0,L|97:349,2,76.4999976654053,8|4|0,0:0|1:2|0:0,0:0:0:0:
184,192,20404,5,0,1:0:0:0:
268,232,20568,2,0,L|277:288,3,38.2499988327027,8|0|0|0,0:0|0:0|0:0|0:0,0:0:0:0:
348,188,20898,2,0,L|341:148,3,38.2499988327027,8|0|0|0,0:0|0:0|1:0|0:0,0:0:0:0:
416,133,21228,1,8,0:0:0:0:
428,97,21310,1,0,0:0:0:0:
419,60,21393,1,0,0:0:0:0:
391,35,21475,1,0,0:0:0:0:
354,31,21557,6,0,P|296:32|176:52,2,170,4|0|0,1:0|0:0|0:0,0:0:0:0:
354,31,23535,5,0,0:0:0:0:
411,164,23700,1,0,1:0:0:0:
504,55,23865,1,12,0:0:0:0:
426,85,24030,5,0,0:0:0:0:
426,85,24112,1,0,0:0:0:0:
426,85,24195,2,0,P|440:180|453:252,1,152.999995330811,4|8,1:0|0:0,0:0:0:0:
372,316,24689,1,0,0:0:0:0:
264,288,24854,2,0,P|262:335|245:384,2,76.4999976654053,0|0|8,1:0|1:0|0:0,0:0:0:0:
188,180,25349,6,0,P|269:173|296:92,1,152.999995330811,0|0,1:0|1:0,0:0:0:0:
177,29,25843,2,0,P|123:37|77:48,1,76.4999976654053,8|0,0:0|1:0,0:0:0:0:
40,152,26173,2,0,P|94:144|138:132,1,76.4999976654053,0|0,1:0|0:0,0:0:0:0:
177,29,26502,1,8,0:0:0:0:
115,138,26667,1,0,0:0:0:0:
295,54,26832,6,0,P|314:149|282:200,1,152.999995330811,4|8,1:0|0:0,0:0:0:0:
207,261,27327,1,0,0:0:0:0:
390,227,27491,2,0,P|435:247|480:262,2,76.4999976654053,0|0|8,1:0|1:0|0:0,0:0:0:0:
273,78,27986,1,0,1:0:0:0:
386,68,28151,6,0,P|376:105|363:142,1,76.4999976654053,0|0,0:0|1:0,0:0:0:0:
164,84,28480,2,0,P|184:15|196:-16,1,76.4999976654053,8|0,0:0|1:0,0:0:0:0:
378,242,28810,2,0,P|340:239|302:217,1,76.4999976654053,0|0,1:0|0:0,0:0:0:0:
164,84,29140,1,8,0:0:0:0:
203,204,29305,1,8,0:0:0:0:
203,204,29387,1,8,0:0:0:0:
203,204,29469,6,0,P|163:187|115:192,2,76.4999976654053,4|0|0,1:0|0:0|0:0,0:0:0:0:
307,222,29964,2,0,P|342:196|362:152,2,76.4999976654053,0|8|0,1:0|0:0|0:0,0:0:0:0:
243,301,30459,1,0,0:0:0:0:
203,204,30623,1,0,1:0:0:0:
307,222,30788,1,0,1:0:0:0:
139,281,30953,6,0,P|108:203|157:117,1,152.999995330811,8|0,0:0|1:0,0:0:0:0:
177,119,31365,1,0,1:0:0:0:
177,119,31448,2,0,P|249:107|285:103,2,101.999996887207,8|8|8,0:0|0:3|0:3,0:0:0:0:
207,13,32107,6,0,P|133:13|78:64,1,152.999995330811,4|0,1:0|1:0,0:0:0:0:
337,220,32601,2,0,P|382:227|475:146,1,152.999995330811,0|0,0:0|0:0,0:0:0:0:
508,73,33096,1,0,1:0:0:0:
366,123,33261,1,8,0:0:0:0:
466,169,33426,5,0,1:0:0:0:
406,27,33590,2,0,P|355:34|299:47,1,76.4999976654053,8|0,0:3|1:0,0:0:0:0:
210,136,33920,1,8,0:3:0:0:
210,136,34002,1,8,0:3:0:0:
210,136,34085,1,8,0:3:0:0:
216,24,34250,1,8,0:3:0:0:
328,144,34415,1,0,1:0:0:0:
340,32,34579,1,8,0:3:0:0:
210,136,34744,6,0,P|219:226|239:322,1,152.999995330811,4|0,1:0|1:0,0:0:0:0:
39,173,35239,2,0,P|30:83|10:-13,1,152.999995330811,0|0,1:0|0:0,0:0:0:0:
256,64,35733,1,0,1:0:0:0:
39,173,36063,6,0,L|35:222,3,38.2499988327027,8|8|0|8,0:3|0:3|1:0|0:3,0:0:0:0:
115,252,36390,2,0,L|119:214,3,38.2499988327027,8|8|4|8,0:3|0:3|0:3|0:3,0:0:0:0:
188,144,36718,1,8,0:3:0:0:
215,127,36800,1,8,0:3:0:0:
245,124,36882,1,0,1:0:0:0:
277,130,36964,1,0,1:0:0:0:
304,147,37046,2,0,P|313:178|316:196,1,38.2499988327027,8|8,0:0|0:0,0:0:0:0:
244,256,37210,2,0,P|236:232|232:216,1,38.2499988327027,8|8,0:0|0:0,0:0:0:0:
312,48,37374,6,0,P|372:26|371:90,1,152.999995330811,4|0,1:0|1:0,0:0:0:0:
256,156,37871,2,0,P|240:160|176:140,1,76.4999976654053,0|0,0:0|1:0,0:0:0:0:
231,66,38202,1,0,0:0:0:0:
360,224,38368,2,0,B|342:267|342:267|261:286|221:235,1,152.999995330811
154,219,38865,5,0,0:0:0:0:
223,159,39031,2,0,P|220:108|215:65,1,76.4999976654053,0|0,1:0|0:0,0:0:0:0:
313,110,39362,1,0,1:0:0:0:
124,124,39528,1,8,0:0:0:0:
313,110,39694,2,0,P|334:172|310:237,1,114.749996498108,0|0,1:0|0:0,0:0:0:0:
332,256,40025,6,0,P|376:244|420:240,1,76.4999976654053,4|0,1:0|1:0,0:0:0:0:
224,220,40354,2,0,P|184:232|140:236,1,76.4999976654053,8|0,0:0|0:0,0:0:0:0:
268,295,40684,2,0,P|314:272|342:242,1,76.4999976654053,0|0,1:0|1:0,0:0:0:0:
380,84,41014,2,0,P|334:107|306:137,1,76.4999976654053,8|0,0:0|0:0,0:0:0:0:
224,220,41343,5,0,1:0:0:0:
332,256,41508,1,0,1:0:0:0:
394,159,41673,2,0,P|378:79|370:55,1,76.4999976654053,8|0,0:0|0:0,0:0:0:0:
212,0,42003,2,0,P|228:80|236:104,1,76.4999976654053,0|0,1:0|1:0,0:0:0:0:
224,220,42332,1,8,0:0:0:0:
124,152,42497,1,0,0:0:0:0:
316,140,42662,6,0,P|380:132|416:124,2,76.4999976654053,0|0|8,1:0|1:0|0:0,0:0:0:0:
224,220,43156,1,0,0:0:0:0:
124,152,43321,2,0,P|60:160|24:168,2,76.4999976654053,0|0|8,1:0|1:0|0:0,0:0:0:0:
224,220,43816,1,0,0:0:0:0:
124,328,43981,6,0,P|132:272|136:240,1,76.4999976654053,0|0,1:0|1:0,0:0:0:0:
234,144,44310,2,0,P|226:200|222:232,1,76.4999976654053,8|0,0:0|0:0,0:0:0:0:
280,376,44640,1,0,1:0:0:0:
204,316,44805,1,0,1:0:0:0:
296,283,44970,2,0,P|344:273|392:265,1,76.4999976654053,8|8,0:0|0:3,0:0:0:0:
424,156,45299,5,4,1:0:0:0:
424,156,45464,1,0,1:0:0:0:
280,64,45629,2,0,P|292:132|300:164,1,76.4999976654053,8|0,0:0|0:0,0:0:0:0:
168,24,45959,2,0,P|176:80|184:128,1,76.4999976654053,0|0,1:0|1:0,0:0:0:0:
72,64,46288,1,8,0:0:0:0:
8,156,46453,1,0,0:0:0:0:
92,228,46618,6,0,P|116:180|116:132,1,76.4999976654053,0|0,1:0|1:0,0:0:0:0:
24,6,46948,2,0,P|53:50|95:74,1,76.4999976654053,8|0,0:0|0:0,0:0:0:0:
252,52,47277,2,0,P|198:55|156:79,1,76.4999976654053,0|0,1:0|1:0,0:0:0:0:
92,140,47607,1,8,0:0:0:0:
144,240,47772,1,0,0:0:0:0:
177,63,47937,5,4,1:0:0:0:
92,140,48101,2,0,L|51:188,2,38.2499988327027,8|8|0,0:0|0:0|1:0,1:0:0:0:
272,200,48431,2,0,L|296:170,2,38.2499988327027,8|8|0,0:0|0:0|1:0,1:0:0:0:
348,104,48761,5,8,0:0:0:0:
365,118,48843,1,8,0:0:0:0:
378,137,48926,1,8,0:0:0:0:
384,159,49008,1,8,0:0:0:0:
384,183,49090,1,8,0:3:0:0:
378,205,49173,1,8,0:3:0:0:
365,225,49255,5,8,1:2:0:0:
484,296,49420,1,8,1:2:0:0:
384,183,49915,5,8,1:2:0:0:
484,296,50079,1,8,1:2:0:0:
220,226,50739,6,0,P|268:218|316:206,2,76.4999976654053,2|2|2,0:0|0:0|0:0,0:0:0:0:
128,368,51233,1,2,0:0:0:0:
208,321,51398,1,2,0:0:0:0:
139,183,51563,2,0,P|126:106|122:82,1,76.4999976654053,2|2,0:0|0:0,0:0:0:0:
64,0,51893,5,4,1:0:0:0:
184,40,52057,1,0,0:0:0:0:
139,183,52222,2,0,P|124:250|113:295,1,85,8|0,1:2|0:0,0:0:0:0:
27,209,52552,1,0,1:0:0:0:
254,155,52717,2,0,P|244:200|232:246,1,85,0|8,0:0|1:2,0:0:0:0:
139,183,53046,1,0,0:0:0:0:
373,116,53211,6,0,P|357:183|346:228,1,85,0|0,1:0|0:0,0:0:0:0:
254,155,53541,1,8,1:2:0:0:
423,22,53706,2,0,P|474:99|451:188,1,170
306,309,54200,2,0,P|385:295|419:293,1,85,8|0,1:2|0:0,0:0:0:0:
512,236,54530,5,0,1:0:0:0:
389,294,54695,1,0,0:0:0:0:
484,344,54860,1,8,1:2:0:0:
344,200,55024,2,0,P|341:131|370:88,1,85,0|0,0:0|1:0,0:0:0:0:
512,64,55354,2,0,P|438:50|396:50,1,85,0|8,0:0|1:2,0:0:0:0:
260,214,55684,2,0,P|302:209|343:199,1,85,0|0,0:0|1:0,0:0:0:0:
428,49,56013,5,0,0:0:0:0:
249,130,56178,2,0,P|241:78|264:28,1,85,8|0,1:2|0:0,0:0:0:0:
428,49,56508,2,0,P|380:89|344:93,1,85,0|0,1:0|0:0,0:0:0:0:
359,93,56755,1,0,0:0:0:0:
359,93,56838,1,8,1:2:0:0:
100,204,57002,5,0,0:0:0:0:
112,212,57085,1,0,0:0:0:0:
124,220,57167,2,0,P|168:216|220:212,1,85,0|0,1:2|0:0,0:0:0:0:
312,312,57497,2,0,P|268:316|216:320,1,85,8|0,1:2|0:0,0:0:0:0:
32,160,57827,2,0,P|88:128|130:132,1,85,0|0,1:0|0:0,0:0:0:0:
256,204,58156,2,0,P|298:203|336:184,1,85,8|0,1:2|0:0,0:0:0:0:
368,152,58403,1,0,0:0:0:0:
368,152,58486,6,0,P|368:100|369:56,1,85,0|0,1:0|0:0,0:0:0:0:
252,4,58816,2,0,P|252:60|253:103,1,85,8|0,1:2|0:0,0:0:0:0:
368,152,59145,1,0,1:0:0:0:
368,152,59310,1,0,0:0:0:0:
340,252,59475,2,0,P|408:244|452:236,1,85,8|0,1:2|0:0,0:0:0:0:
496,160,59805,6,0,P|520:76|473:8,1,170,4|8,1:2|1:2,0:0:0:0:
221,107,60299,1,0,0:0:0:0:
391,91,60464,2,0,P|306:101|222:107,1,170,0|8,1:0|1:2,0:0:0:0:
120,76,60958,1,0,0:0:0:0:
316,200,61123,5,2,1:0:0:0:
187,247,61288,2,0,L|143:261,2,42.5,0|0|8,0:0|0:0|1:2,0:0:0:0:
240,342,61618,2,0,L|288:325,2,42.5,0|0|8,0:0|0:0|1:2,0:0:0:0:
381,338,61947,1,8,0:0:0:0:
394,316,62030,1,8,0:0:0:0:
402,291,62112,1,8,1:2:0:0:
403,265,62195,1,8,0:0:0:0:
398,240,62277,1,0,1:0:0:0:
386,217,62360,1,0,1:0:0:0:
369,198,62442,5,4,1:0:0:0:
294,276,62607,1,0,0:0:0:0:
256,184,62772,2,0,P|267:143|285:104,1,85,8|0,1:2|0:0,0:0:0:0:
369,198,63101,1,0,1:0:0:0:
168,248,63266,2,0,P|156:207|154:165,1,85,0|8,0:0|1:2,0:0:0:0:
128,336,63596,1,0,0:0:0:0:
56,172,63761,6,0,P|68:110|92:66,2,85,0|0|8,1:0|0:0|1:2,0:0:0:0:
280,212,64255,2,0,P|268:274|244:318,1,85,0|0,0:0|1:0,0:0:0:0:
204,372,64585,1,0,0:0:0:0:
112,232,64750,2,0,P|104:140|141:98,1,127.5,8|0,1:2|0:0,0:0:0:0:
160,106,65079,6,0,P|232:99|281:84,1,85,0|0,1:0|0:0,0:0:0:0:
332,136,65409,1,8,1:2:0:0:
512,24,65574,2,0,P|432:4|361:64,1,170
260,200,66068,1,8,1:2:0:0:
241,108,66233,5,0,0:0:0:0:
241,108,66316,1,0,0:0:0:0:
241,108,66398,1,0,1:0:0:0:
65,193,66563,1,0,0:0:0:0:
144,116,66728,2,0,P|172:164|156:248,1,127.5,8|0,1:2|0:0,0:0:0:0:
63,274,67057,2,0,P|55:222|77:174,1,85,0|0,1:0|0:0,0:0:0:0:
293,244,67387,2,0,P|295:296|262:344,1,85,8|0,1:2|0:0,0:0:0:0:
245,351,67634,1,0,0:0:0:0:
245,351,67717,6,0,P|164:361|133:364,1,85,4|0,1:0|0:0,0:0:0:0:
385,154,68046,2,0,P|466:144|497:141,1,85,8|0,1:2|1:0,0:0:0:0:
348,248,68376,1,8,1:2:0:0:
416,64,68541,1,0,1:0:0:0:
288,168,68706,1,8,1:2:0:0:
432,237,68871,5,0,1:0:0:0:
432,237,68953,1,0,0:0:0:0:
432,237,69035,2,0,P|351:247|320:250,1,85,12|0,1:2|1:0,0:0:0:0:
400,332,69365,1,8,1:2:0:0:
288,168,69530,2,0,B|456:146,1,170,0|0,1:0|1:0,0:0:0:0:
200,328,70024,2,0,P|221:281|255:254,1,85,8|0,1:2|1:0,0:0:0:0:
288,168,70354,6,0,L|280:116,3,42.5,8|0|0|0,1:2|0:0|0:0|0:0,0:0:0:0:
188,88,70684,2,0,L|196:140,3,42.5,0|0|0|0,1:0|0:0|0:0|0:0,0:0:0:0:
112,20,71013,1,0,1:0:0:0:
99,35,71096,1,0,0:0:0:0:
89,53,71178,1,0,0:0:0:0:
84,73,71261,1,0,0:0:0:0:
83,93,71343,1,0,1:0:0:0:
86,114,71425,1,0,1:0:0:0:
92,133,71508,1,8,0:3:0:0:
103,150,71590,1,8,0:3:0:0:
117,165,71673,5,4,1:0:0:0:
280,212,71838,1,0,1:0:0:0:
184,84,72002,1,8,0:0:0:0:
52,236,72167,2,0,B|68:284|68:284|112:252|160:260|160:260|176:304,1,170,4|0,1:0|1:0,0:0:0:0:
200,368,72662,1,8,0:0:0:0:
276,288,72991,6,0,P|332:320|412:296,2,127.500004863739,4|0|2,1:0|0:0|0:0,0:0:0:0:
192,172,73980,1,0,0:0:0:0:
279,97,74145,1,0,1:0:0:0:
279,97,74228,1,0,1:0:0:0:
279,97,74310,6,0,P|319:89|355:81,1,63.7500024318696,4|0,1:2|0:0,0:0:0:0:
444,132,74640,1,8,0:0:0:0:
168,64,74805,2,0,P|128:72|92:80,1,63.7500024318696,0|0,1:0|0:0,0:0:0:0:
4,124,75134,1,0,1:2:0:0:
191,224,75299,2,0,P|239:216|287:176,1,95.6250036478044
177,139,75629,6,0,P|189:215|213:339,1,170,4|8,1:0|0:0,0:0:0:0:
404,136,76288,1,0,1:0:0:0:
404,136,76453,1,0,1:0:0:0:
320,84,76618,2,0,P|256:72|208:88,1,85,8|0,0:0|0:0,0:0:0:0:
101,217,76947,5,0,1:0:0:0:
193,190,77112,1,0,1:0:0:0:
168,99,77277,1,8,0:0:0:0:
75,123,77442,2,0,P|13:179|38:288,1,170,0|0,1:0|1:0,0:0:0:0:
272,152,77936,2,0,P|276:116|244:56,1,85,8|0,0:0|0:0,0:0:0:0:
32,72,78266,6,0,P|96:132|200:96,1,170,4|8,1:0|0:0,0:0:0:0:
258,71,78760,1,0,0:0:0:0:
340,16,78925,2,0,P|392:0|444:12,1,85,0|0,1:0|1:0,0:0:0:0:
308,172,79255,2,0,P|260:132|257:70,1,127.5,8|0,0:0|0:0,0:0:0:0:
308,172,79585,6,0,P|304:232|296:280,1,85,0|0,1:0|1:0,0:0:0:0:
152,324,79914,2,0,P|156:264|164:216,1,85,8|0,0:0|0:0,0:0:0:0:
356,316,80244,2,0,P|304:340|252:324,1,85,0|0,1:0|1:0,0:0:0:0:
92,224,80574,2,0,P|40:263|35:273,1,42.5,8|0,0:0|1:0,1:0:0:0:
56,140,80738,2,0,P|-6:128|-15:123,1,42.5,0|0,1:0|1:0,0:0:0:0:
145,150,80903,6,0,P|176:184|140:304,1,170,4|8,1:0|0:0,0:0:0:0:
512,133,81563,1,0,1:0:0:0:
415,102,81727,1,0,1:0:0:0:
388,200,81892,2,0,P|392:260|400:308,1,85,8|0,0:0|0:0,0:0:0:0:
485,227,82222,5,0,1:0:0:0:
388,200,82387,1,0,1:0:0:0:
302,260,82552,2,0,P|306:320|314:368,1,85,8|0,0:0|1:0,0:0:0:0:
388,200,82881,2,0,P|384:140|376:92,1,85,0|0,0:0|1:0,0:0:0:0:
296,48,83211,2,0,P|252:80|176:72,1,127.5,8|0,0:0|0:0,0:0:0:0:
136,68,83541,6,0,P|80:84|48:128,1,85,4|0,1:0|0:0,0:0:0:0:
168,288,83870,2,0,P|189:208|129:149,1,170,8|0,0:0|1:0,0:0:0:0:
92,236,84365,1,0,1:0:0:0:
244,332,84530,2,0,P|332:316|368:312,1,85,8|0,0:0|0:0,0:0:0:0:
444,216,84859,5,0,1:0:0:0:
321,170,85024,1,0,1:0:0:0:
212,254,85189,2,0,P|228:306|264:354,1,85,8|0,0:0|1:0,0:0:0:0:
321,170,85519,2,0,P|281:132|225:109,1,85,8|0,0:0|1:0,0:0:0:0:
132,70,85848,1,8,0:0:0:0:
32,153,86013,1,4,1:0:0:0:
256,192,86096,12,0,88815,0:0:0:0:
