osu file format v14

[General]
AudioFilename: clever -TV Mix-.mp3
AudioLeadIn: 0
PreviewTime: 51481
Countdown: 0
SampleSet: Soft
StackLeniency: 0.7
Mode: 0
LetterboxInBreaks: 0
WidescreenStoryboard: 1

[Editor]
Bookmarks: 13228
DistanceSpacing: 1.2
BeatDivisor: 4
GridSize: 4
TimelineZoom: 2.000006

[Metadata]
Title:clever -TV MIX-
TitleUnicode:clever -TV MIX-
Artist:ClariS x GARNiDELiA
ArtistUnicode:ClariS×GARNiDELiA
Creator:Trust
Version:Hard
Source:クオリディア・コード
Tags:qualidea code ending captin1
BeatmapID:1270331
BeatmapSetID:578231

[Difficulty]
HPDrainRate:5
CircleSize:3.8
OverallDifficulty:5.2
ApproachRate:7.5
SliderMultiplier:1.5
SliderTickRate:1

[Events]
//Background and Video events
0,0,"clever.jpg",0,0
Video,240,"qc.avi"
//Break Periods
//Storyboard Layer 0 (Background)
//Storyboard Layer 1 (Fail)
//Storyboard Layer 2 (Pass)
//Storyboard Layer 3 (Foreground)
//Storyboard Sound Samples

[TimingPoints]
459,329.67032967033,4,2,1,40,1,0
459,-200,4,2,1,40,0,0
10678,-133.333333333333,4,2,1,60,0,0
11008,-111.111111111111,4,2,1,60,0,0
21557,-200,4,2,1,40,0,0
23535,-133.333333333333,4,2,1,60,0,0
24195,-111.111111111111,4,2,1,60,0,0
36063,327.868852459016,4,2,1,60,1,0
36063,-111.111111111111,4,2,1,60,0,0
37374,331.491712707182,4,2,1,60,1,0
37374,-111.111111111111,4,2,1,60,0,0
40025,329.67032967033,4,2,1,70,1,0
40025,-111.111111111111,4,2,1,70,0,0
50739,-133.333333333333,4,2,1,50,0,0
51893,329.67032967033,4,2,1,70,1,1
51893,-100,4,2,1,70,0,1
72991,-133.333333333333,4,2,1,70,0,1
75629,329.67032967033,4,2,1,70,1,0
86837,-100,4,2,1,60,0,0
87167,-100,4,2,1,50,0,0
87497,-100,4,2,1,40,0,0
87826,-100,4,2,1,30,0,0
88156,-100,4,2,1,20,0,0
88486,-100,4,2,1,10,0,0
88815,-100,4,2,1,5,0,0

[Colours]
Combo1 : 255,94,55
Combo2 : 173,255,95
Combo3 : 17,254,176
Combo4 : 255,88,100

[HitObjects]
36,128,459,5,4,1:0:0:0:
36,128,1118,6,0,P|14:183|67:263,1,150,2|0,0:0|0:0,0:0:0:0:
195,218,2437,2,0,P|262:197|355:206,1,150,2|2,0:0|0:0,0:0:0:0:
477,249,3755,5,0,0:0:0:0:
477,249,4085,2,0,P|513:201|497:109,1,150,2|0,0:0|0:0,0:0:0:0:
441,33,5074,2,0,P|405:81|421:173,1,150,2|0,0:0|0:0,0:0:0:0:
344,295,6393,6,0,P|260:311|184:311,1,150,2|0,0:0|0:0,0:0:0:0:
79,200,7711,2,0,P|163:184|239:184,1,150,2|2,0:0|0:0,0:0:0:0:
345,86,9030,5,0,0:0:0:0:
399,164,9360,2,0,P|322:178|260:128,1,150,2|0,0:0|0:0,0:0:0:0:
122,55,10349,2,0,P|126:103|104:140,1,75,2|0,0:0|1:0,0:0:0:0:
32,180,11008,6,0,P|36:232|128:252,1,134.999995880127,4|8,1:0|0:0,0:0:0:0:
262,222,11667,2,0,P|238:286|226:302,2,67.4999979400635,0|0|8,1:0|1:0|0:0,0:0:0:0:
303,151,12162,2,0,P|359:135|463:131,1,134.999995880127,0|0,1:0|1:0,0:0:0:0:
489,188,12656,2,0,P|497:268|497:276,1,67.4999979400635,8|0,0:0|1:0,0:0:0:0:
441,315,12986,1,0,1:0:0:0:
441,315,13151,1,0,0:0:0:0:
363,289,13316,2,0,P|319:293|287:305,1,67.4999979400635,8|0,0:0|0:0,0:0:0:0:
227,341,13645,6,0,P|171:349|103:273,1,134.999995880127,0|8,1:0|0:0,0:0:0:0:
70,233,14140,1,0,0:0:0:0:
122,171,14305,2,0,P|190:167|210:171,2,67.4999979400635,0|0|8,1:0|1:0|0:0,0:0:0:0:
70,233,14799,2,0,P|37:175|81:98,1,134.999995880127,0|0,1:0|1:0,0:0:0:0:
95,41,15294,2,0,P|135:81|139:113,1,67.4999979400635,8|0,0:0|1:0,0:0:0:0:
122,171,15623,1,0,1:0:0:0:
122,171,15788,1,0,0:0:0:0:
198,208,15953,2,0,P|231:202|264:197,1,67.4999979400635,8|0,0:0|0:0,0:0:0:0:
330,149,16283,6,0,P|398:157|442:97,1,134.999995880127,0|8,1:0|0:0,0:0:0:0:
290,27,16942,1,0,1:0:0:0:
256,101,17107,2,0,P|232:137|216:165,1,67.4999979400635,0|8,1:0|0:0,0:0:0:0:
133,153,17437,2,0,P|173:77|222:19,1,134.999995880127,0|0,1:0|1:0,0:0:0:0:
290,27,17931,2,0,P|370:23|386:23,1,67.4999979400635,8|0,0:0|1:0,0:0:0:0:
457,94,18261,2,0,P|377:98|361:98,1,67.4999979400635,0|0,1:0|0:0,0:0:0:0:
320,139,18590,2,0,P|308:187|328:239,1,101.249996910095,8|0,0:0|0:0,0:0:0:0:
343,270,18920,6,0,P|339:314|323:366,2,67.4999979400635,4|0|8,1:0|0:0|0:0,0:0:0:0:
271,231,19415,2,0,P|265:264|261:297,2,67.4999979400635,0|0|0,0:0|1:0|1:0,0:0:0:0:
199,193,19909,2,0,P|192:237|179:289,2,67.4999979400635,8|4|0,0:0|1:2|0:0,0:0:0:0:
151,127,20404,1,0,1:0:0:0:
72,132,20568,2,0,L|48:164,3,33.7499989700318,8|0|0|0,0:0|0:0|0:0|0:0,0:0:0:0:
84,188,20898,2,0,L|36:220,3,33.7499989700318,8|0|0|0,0:0|0:0|1:0|0:0,0:0:0:0:
72,244,21228,2,0,L|39:249,3,33.7499989700318,8|0|0|0,0:0|0:0|0:0|0:0,0:0:0:0:
56,288,21557,6,0,P|48:348|132:380,2,150,4|0|0,1:0|0:0|0:0,0:0:0:0:
124,152,23535,6,0,P|88:160|56:164,2,56.2500021457673,0|0|12,0:0|1:0|0:0,0:0:0:0:
199,176,24030,5,0,0:0:0:0:
199,176,24112,1,0,0:0:0:0:
199,175,24195,2,0,P|229:162|262:152,1,67.4999979400635,4|0,1:0|0:0,0:0:0:0:
336,196,24524,1,8,0:0:0:0:
262,152,24689,1,0,0:0:0:0:
336,108,24854,2,0,P|368:116|402:120,1,67.4999979400635,0|0,1:0|1:0,0:0:0:0:
508,100,25184,1,8,0:0:0:0:
464,168,25349,6,0,P|452:240|496:300,1,134.999995880127,0|0,1:0|1:0,0:0:0:0:
386,291,25843,2,0,P|376:336|371:378,1,67.4999979400635,8|0,0:0|1:0,0:0:0:0:
293,325,26173,2,0,P|269:267|265:245,1,67.4999979400635,0|0,1:0|0:0,0:0:0:0:
242,158,26502,1,8,0:0:0:0:
319,207,26667,5,0,0:0:0:0:
319,207,26750,1,0,0:0:0:0:
319,207,26832,2,0,P|257:247|179:223,1,134.999995880127,4|8,1:0|0:0,0:0:0:0:
132,197,27327,1,0,0:0:0:0:
101,122,27491,2,0,P|108:73|119:30,2,67.4999979400635,0|0|8,1:0|1:0|0:0,0:0:0:0:
179,134,27986,6,0,P|243:121|343:114,1,134.999995880127,0|0,1:0|1:0,0:0:0:0:
380,72,28480,2,0,P|386:26|391:-4,1,67.4999979400635,8|0,0:0|1:0,0:0:0:0:
444,119,28810,2,0,P|438:165|433:195,1,67.4999979400635,0|0,1:0|0:0,0:0:0:0:
372,246,29140,1,8,0:0:0:0:
402,321,29305,1,0,1:0:0:0:
402,321,29387,1,0,1:0:0:0:
402,321,29469,6,0,P|447:305|496:313,2,67.4999979400635,4|0|0,1:0|0:0|0:0,0:0:0:0:
336,364,29964,2,0,P|301:380|269:383,2,67.4999979400635,0|8|0,1:0|0:0|0:0,0:0:0:0:
402,321,30459,2,0,P|408:266|398:236,1,67.4999979400635,0|0,0:0|1:0,0:0:0:0:
338,208,30788,5,0,1:0:0:0:
273,261,30953,2,0,P|233:281|131:241,1,134.999995880127,8|0,0:0|1:0,0:0:0:0:
117,236,31365,1,0,1:0:0:0:
117,236,31448,2,0,P|146:187|163:139,2,89.999997253418,8|8|8,0:0|0:3|0:3,0:0:0:0:
75,114,32107,6,0,P|128:65|216:81,1,134.999995880127,4|0,1:0|1:0,0:0:0:0:
266,148,32601,2,0,P|331:145|378:98,1,134.999995880127,0|0,0:0|0:0,0:0:0:0:
297,65,33096,1,0,1:0:0:0:
266,148,33261,2,0,P|267:210|271:238,1,67.4999979400635,8|0,0:0|1:0,0:0:0:0:
336,326,33590,6,0,P|340:266|340:233,1,67.4999979400635,8|0,0:3|1:0,0:0:0:0:
401,202,33920,1,8,0:3:0:0:
401,202,34002,1,8,0:3:0:0:
401,202,34085,2,0,P|452:193|495:193,1,67.4999979400635,8|8,0:3|0:3,0:0:0:0:
318,182,34415,2,0,P|267:191|224:191,1,67.4999979400635,0|8,1:0|0:3,0:0:0:0:
210,267,34744,6,0,P|180:238|198:126,1,134.999995880127,4|0,1:0|1:0,0:0:0:0:
114,38,35239,2,0,B|111:57|97:72|97:72|106:91|106:91|79:125|83:177,1,134.999995880127,0|0,0:0|0:0,0:0:0:0:
64,240,35733,1,0,1:0:0:0:
222,202,36063,6,0,L|259:221,3,33.7499989700318,8|8|0|8,0:3|0:3|1:0|0:3,0:0:0:0:
282,191,36390,2,0,L|309:222,3,33.7499989700318,8|8|4|8,0:3|0:3|0:3|0:3,0:0:0:0:
338,194,36718,2,0,L|351:233,3,33.7499989700318,8|8|0|0,0:3|0:3|1:0|1:0,0:0:0:0:
389,225,37046,2,0,L|386:266,3,33.7499989700318,8|8|8|8,0:0|0:0|0:0|0:0,0:0:0:0:
427,257,37374,6,0,P|464:213|448:135,1,134.999995880127,4|0,1:0|1:0,0:0:0:0:
380,102,37871,2,0,P|319:109|293:110,2,67.4999979400635,0|0|0,0:0|1:0|0:0,0:0:0:0:
404,24,38368,2,0,P|302:36|248:40,1,134.999995880127,0|0,1:0|1:0,0:0:0:0:
200,80,38865,5,0,0:0:0:0:
120,63,39031,2,0,P|101:30|99:-10,1,67.4999979400635,0|0,1:0|0:0,1:0:0:0:
176,8,39362,1,0,1:0:0:0:
200,80,39528,1,8,0:0:0:0:
146,140,39694,2,0,P|103:155|35:155,1,101.249996910095,0|0,1:0|0:0,0:0:0:0:
19,186,40025,6,0,P|24:230|33:275,1,67.4999979400635,4|0,1:0|1:0,0:0:0:0:
117,330,40354,2,0,P|111:297|108:264,1,67.4999979400635,8|0,0:0|0:0,0:0:0:0:
177,220,40684,1,0,1:0:0:0:
255,238,40849,1,0,1:0:0:0:
317,186,41014,2,0,P|313:142|305:94,1,67.4999979400635,8|0,0:0|0:0,0:0:0:0:
255,58,41343,6,0,P|211:70|179:70,1,67.4999979400635,0|0,1:0|1:0,0:0:0:0:
309,118,41673,2,0,P|353:106|385:106,1,67.4999979400635,8|0,0:0|0:0,0:0:0:0:
454,122,42003,1,0,1:0:0:0:
454,122,42167,1,0,1:0:0:0:
401,183,42332,2,0,P|387:246|385:267,1,67.4999979400635,8|0,0:0|0:0,0:0:0:0:
456,301,42662,6,0,P|470:238|472:217,2,67.4999979400635,0|0|8,1:0|1:0|0:0,0:0:0:0:
393,352,43156,1,0,0:0:0:0:
322,311,43321,2,0,P|256:305|231:311,1,67.4999979400635,0|0,1:0|1:0,0:0:0:0:
187,260,43651,1,8,0:0:0:0:
112,293,43816,1,0,0:0:0:0:
52,237,43981,6,0,P|44:202|55:153,1,67.4999979400635,0|0,1:0|1:0,0:0:0:0:
182,171,44310,2,0,P|140:201|121:205,1,67.4999979400635,8|0,0:0|0:0,0:0:0:0:
51,93,44640,2,0,P|99:109|113:122,1,67.4999979400635,0|0,1:0|1:0,0:0:0:0:
182,171,44970,2,0,P|215:168|260:152,1,67.4999979400635,8|8,0:0|0:3,0:0:0:0:
324,132,45299,5,0,1:0:0:0:
324,132,45464,1,0,1:0:0:0:
377,56,45629,2,0,P|321:44|281:56,1,67.4999979400635,8|0,0:0|0:0,0:0:0:0:
179,116,45959,2,0,P|212:116|244:105,1,67.4999979400635,0|0,1:0|1:0,0:0:0:0:
311,45,46288,1,8,0:0:0:0:
311,45,46453,1,0,0:0:0:0:
324,132,46618,6,0,P|328:184|332:212,1,67.4999979400635,0|0,1:0|1:0,0:0:0:0:
416,261,46948,2,0,P|412:209|408:181,1,67.4999979400635,8|0,0:0|0:0,0:0:0:0:
340,276,47277,2,0,P|343:309|346:343,1,67.4999979400635,0|0,1:0|1:0,0:0:0:0:
261,280,47607,2,0,P|258:246|254:212,1,67.4999979400635,8|0,0:0|0:0,0:0:0:0:
230,134,47937,5,0,1:0:0:0:
295,86,48101,2,0,P|331:78|355:70,2,33.7499989700318,8|8|0,0:0|0:0|1:0,0:0:0:0:
247,19,48431,2,0,P|283:11|307:3,2,33.7499989700318,8|8|0,0:0|0:0|1:0,0:0:0:0:
169,45,48761,1,8,0:0:0:0:
169,45,48843,1,8,0:0:0:0:
169,45,48926,2,0,L|157:101,3,33.7499989700318,8|8|8|8,0:0|0:0|0:3|0:3,0:0:0:0:
132,105,49255,6,0,P|136:144|144:185,1,67.4999979400635,8|8,1:2|1:2,0:0:0:0:
354,278,49915,6,0,P|352:240|344:192,1,67.4999979400635,8|8,1:2|1:2,0:0:0:0:
216,60,50739,6,0,P|184:60|148:64,2,56.2500021457673,2|2|2,0:0|0:0|0:0,0:0:0:0:
280,116,51233,1,2,0:0:0:0:
232,188,51398,1,2,0:0:0:0:
292,248,51563,2,0,P|320:250|348:250,1,56.2500021457673,2|2,0:0|0:0,0:0:0:0:
432,192,51893,6,0,P|440:236|452:264,1,75,4|0,1:0|0:0,0:0:0:0:
512,148,52222,2,0,P|504:104|492:76,1,75,8|0,1:2|0:0,0:0:0:0:
432,12,52552,1,0,1:0:0:0:
360,64,52717,2,0,P|308:80|264:72,1,75,0|8,0:0|1:2,0:0:0:0:
204,44,53046,1,0,0:0:0:0:
116,0,53211,6,0,P|104:72|96:104,1,75,0|0,1:0|0:0,0:0:0:0:
148,152,53541,1,8,1:2:0:0:
68,192,53706,2,0,P|60:256|136:276,1,150,0|0,0:0|0:0,0:0:0:0:
220,244,54200,2,0,P|264:236|340:288,1,112.5,8|0,1:2|0:0,0:0:0:0:
352,296,54530,6,0,P|408:288|452:284,1,75,0|0,1:0|0:0,0:0:0:0:
464,201,54860,1,8,1:2:0:0:
384,152,55024,2,0,P|336:156|276:164,1,75,0|0,0:0|1:0,0:0:0:0:
252,88,55354,1,0,0:0:0:0:
309,159,55519,1,8,1:2:0:0:
256,232,55684,6,0,P|200:244|132:200,1,112.5,0|0,0:0|0:0,0:0:0:0:
124,204,56013,2,0,P|120:136|124:112,2,75,0|8|0,0:0|1:2|0:0,0:0:0:0:
48,272,56508,2,0,P|48:328|44:360,1,75,0|0,1:0|0:0,0:0:0:0:
136,360,56838,2,0,P|188:340|228:344,1,75,8|0,1:2|0:0,0:0:0:0:
229,346,57085,1,0,0:0:0:0:
252,352,57167,6,0,P|289:348|322:331,1,75,0|0,1:0|0:0,0:0:0:0:
432,260,57497,2,0,P|394:256|361:239,1,75,8|0,1:2|0:0,0:0:0:0:
288,164,57827,2,0,P|284:112|276:44,1,112.5,0|0,1:0|0:0,0:0:0:0:
272,24,58156,2,0,P|220:28|176:36,1,75,8|0,1:2|0:0,0:0:0:0:
64,104,58486,6,0,P|101:109|138:111,1,75,0|0,1:0|0:0,0:0:0:0:
192,184,58816,1,8,1:2:0:0:
138,111,58980,1,0,0:0:0:0:
97,196,59145,2,0,P|101:240|109:276,1,75,0|0,1:0|0:0,0:0:0:0:
196,356,59475,2,0,P|200:312|208:276,1,75,8|0,1:2|0:0,0:0:0:0:
276,216,59805,6,0,P|336:232|408:156,1,150,4|8,1:2|1:2,0:0:0:0:
402,93,60299,1,0,0:0:0:0:
326,138,60464,2,0,P|322:202|318:302,1,150,0|8,1:0|1:2,0:0:0:0:
258,356,60958,1,0,0:0:0:0:
179,302,61123,6,0,P|163:245|170:210,1,75,0|0,1:0|0:0,0:0:0:0:
170,212,61371,1,0,0:0:0:0:
181,197,61453,1,8,1:2:0:0:
135,117,61618,2,0,P|100:103|80:91,2,37.5,0|0|8,0:0|0:0|1:2,0:0:0:0:
225,88,61947,1,8,0:0:0:0:
225,88,62030,1,8,0:0:0:0:
225,88,62112,2,0,P|260:102|280:114,3,37.5,8|8|0|0,1:2|0:0|1:0|1:0,0:0:0:0:
294,125,62442,6,0,P|311:189|328:220,1,75,4|0,1:0|0:0,0:0:0:0:
370,269,62772,1,8,1:2:0:0:
370,269,62936,1,0,0:0:0:0:
440,209,63101,2,0,P|479:193|523:196,1,75,0|0,1:0|0:0,0:0:0:0:
421,123,63431,1,8,1:2:0:0:
337,90,63596,6,0,P|334:149|350:180,2,75,0|0|0,0:0|1:0|0:0,0:0:0:0:
393,16,64090,1,8,1:2:0:0:
337,90,64255,2,0,P|279:128|204:114,1,150,0|0,0:0|0:0,0:0:0:0:
136,53,64750,2,0,P|114:107|131:166,1,112.5,8|0,1:2|0:0,0:0:0:0:
141,195,65079,6,0,P|103:207|56:234,1,75,0|0,1:0|0:0,0:0:0:0:
0,273,65409,1,8,1:2:0:0:
83,306,65574,2,0,P|133:339|148:369,1,75,0|0,0:0|1:0,0:0:0:0:
214,298,65903,2,0,P|231:351|226:390,1,75,0|8,0:0|1:2,0:0:0:0:
322,335,66233,6,0,P|325:274|365:229,1,112.5,0|0,0:0|0:0,0:0:0:0:
392,238,66563,2,0,P|447:220|472:209,1,75,0|8,0:0|1:2,0:0:0:0:
487,122,66893,1,0,0:0:0:0:
401,93,67057,2,0,P|429:195|479:217,1,150,0|8,1:0|1:2,0:0:0:0:
487,122,67552,1,0,0:0:0:0:
401,93,67717,6,0,P|325:99|314:99,1,75,4|0,1:0|0:0,0:0:0:0:
243,82,68046,2,0,P|231:34|236:2,1,75,8|0,1:2|1:0,0:0:0:0:
169,131,68376,2,0,P|181:179|176:211,1,75,8|0,1:2|1:0,0:0:0:0:
110,275,68706,1,8,1:2:0:0:
176,338,68871,5,0,1:0:0:0:
176,338,68953,1,0,0:0:0:0:
176,338,69035,2,0,P|214:317|264:311,1,75,12|0,1:2|1:0,0:0:0:0:
334,303,69365,1,8,1:2:0:0:
418,337,69530,2,0,P|472:308|479:216,1,150,0|0,1:0|1:0,0:0:0:0:
434,137,70024,2,0,P|428:94|446:50,1,75,8|0,1:2|1:0,0:0:0:0:
339,99,70354,6,0,P|303:117|283:127,3,37.5,8|0|0|0,1:2|0:0|0:0|0:0,0:0:0:0:
270,87,70684,2,0,L|230:142,3,37.5,0|0|0|0,1:0|0:0|0:0|0:0,0:0:0:0:
205,102,71013,2,0,L|188:160,3,37.5,0|0|0|0,1:0|0:0|0:0|0:0,0:0:0:0:
150,126,71343,2,0,L|145:187,3,37.5,0|0|8|8,1:0|1:0|0:3|0:3,0:0:0:0:
123,202,71673,5,4,1:0:0:0:
43,263,71838,2,0,L|110:298,1,75,0|8,1:0|0:0,0:0:0:0:
242,246,72167,2,0,B|303:240|303:240|326:252|326:252|398:244,1,150,4|0,1:0|1:0,0:0:0:0:
477,231,72662,1,8,0:0:0:0:
477,231,72991,6,0,L|494:120,2,112.500004291535,4|0|2,1:0|0:0|0:0,0:0:0:0:
280,308,73980,1,0,0:0:0:0:
360,266,74145,5,0,1:0:0:0:
360,266,74228,1,0,1:0:0:0:
360,266,74310,2,0,L|372:341,1,56.2500021457673,4|0,1:2|0:0,0:0:0:0:
477,229,74640,1,8,0:0:0:0:
388,132,74805,2,0,L|372:209,1,56.2500021457673,0|0,1:0|0:0,0:0:0:0:
360,266,75134,1,0,1:0:0:0:
477,229,75299,2,0,P|488:187|474:137,1,84.3750032186509,0|0,0:0|0:0,0:0:0:0:
456,108,75629,6,0,P|405:128|320:179,1,150,4|8,1:0|0:0,0:0:0:0:
224,55,76288,1,0,1:0:0:0:
224,55,76453,1,0,1:0:0:0:
305,11,76618,2,0,P|316:75|296:114,1,75,8|0,0:0|0:0,0:0:0:0:
248,145,76947,5,0,1:0:0:0:
248,145,77112,1,0,1:0:0:0:
169,189,77277,2,0,P|131:195|94:199,1,75,8|0,0:0|1:0,0:0:0:0:
250,232,77607,2,0,P|287:225|324:221,1,75,0|0,0:0|1:0,0:0:0:0:
398,272,77936,2,0,P|410:202|384:158,1,112.5,8|0,0:0|0:0,0:0:0:0:
361,133,78266,6,0,P|415:104|443:95,1,75,4|0,1:0|0:0,0:0:0:0:
335,41,78596,2,0,P|265:66|171:27,1,150,8|0,0:0|1:0,0:0:0:0:
116,0,79090,1,0,1:0:0:0:
38,46,79255,2,0,P|23:116|35:176,1,112.5,8|0,0:0|0:0,0:0:0:0:
47,196,79585,6,0,P|28:246|5:273,1,75,0|0,1:0|1:0,0:0:0:0:
135,219,79914,2,0,P|136:181|126:146,1,75,8|0,0:0|0:0,0:0:0:0:
160,66,80244,2,0,P|188:90|208:122,1,75,0|0,1:0|1:0,0:0:0:0:
241,211,80574,2,0,L|237:261,3,37.5,8|0|0|0,1:2|1:0|1:0|1:0,0:0:0:0:
236,293,80903,6,0,P|325:308|385:262,1,150,4|8,1:0|0:0,0:0:0:0:
512,160,81563,2,0,L|496:60,1,75,0|0,1:0|1:0,0:0:0:0:
447,216,81892,2,0,L|464:336,1,112.5,8|0,0:0|0:0,0:0:0:0:
442,368,82222,5,0,1:0:0:0:
442,368,82387,1,0,1:0:0:0:
374,308,82552,2,0,P|336:294|289:301,1,75,8|0,0:0|1:0,0:0:0:0:
215,321,82881,1,0,0:0:0:0:
280,382,83046,1,0,1:0:0:0:
302,296,83211,2,0,P|305:240|272:180,1,112.5,8|0,0:0|0:0,0:0:0:0:
246,160,83541,6,0,P|176:180|154:187,1,75,4|0,1:0|0:0,0:0:0:0:
108,113,83870,2,0,L|281:67,1,150,8|0,0:0|1:0,0:0:0:0:
340,52,84365,1,0,1:0:0:0:
414,108,84530,2,0,L|441:199,1,75,8|0,0:0|0:0,0:0:0:0:
401,319,84859,6,0,L|374:228,1,75,0|0,1:0|1:0,0:0:0:0:
294,219,85189,1,8,0:0:0:0:
379,247,85354,1,0,1:0:0:0:
435,179,85519,2,0,P|475:149|529:151,2,75,8|0|8,0:0|1:0|0:0,0:0:0:0:
506,238,86013,1,4,1:0:0:0:
256,192,86178,12,0,88815,0:0:0:0:
