osu file format v14

[General]
AudioFilename: clever -TV Mix-.mp3
AudioLeadIn: 0
PreviewTime: 51481
Countdown: 0
SampleSet: Soft
StackLeniency: 0.7
Mode: 0
LetterboxInBreaks: 0
WidescreenStoryboard: 1

[Editor]
DistanceSpacing: 0.9
BeatDivisor: 4
GridSize: 4
TimelineZoom: 2.000006

[Metadata]
Title:clever -TV MIX-
TitleUnicode:clever -TV MIX-
Artist:ClariS x GARNiDELiA
ArtistUnicode:ClariS×GARNiDELiA
Creator:Trust
Version:Easy
Source:クオリディア・コード
Tags:qualidea code ending captin1
BeatmapID:1270519
BeatmapSetID:578231

[Difficulty]
HPDrainRate:1
CircleSize:3.3
OverallDifficulty:2
ApproachRate:3
SliderMultiplier:0.899999999999999
SliderTickRate:1

[Events]
//Background and Video events
0,0,"clever.jpg",0,0
Video,240,"qc.avi"
//Break Periods
//Storyboard Layer 0 (Background)
//Storyboard Layer 1 (Fail)
//Storyboard Layer 2 (Pass)
//Storyboard Layer 3 (Foreground)
//Storyboard Sound Samples

[TimingPoints]
459,329.67032967033,4,2,1,40,1,0
36063,327.868852459016,4,2,1,60,1,0
37374,331.491712707182,4,2,1,60,1,0
40025,329.67032967033,4,2,1,70,1,0
51893,329.67032967033,4,2,1,70,1,1
51893,-100,4,2,1,70,0,1
75629,329.67032967033,4,2,1,70,1,0
75629,-100,4,2,1,70,0,0
86837,-100,4,2,1,60,0,0
87167,-100,4,2,1,50,0,0
87497,-100,4,2,1,40,0,0
87826,-100,4,2,1,30,0,0
88156,-100,4,2,1,20,0,0
88486,-100,4,2,1,10,0,0
88815,-100,4,2,1,5,0,0

[Colours]
Combo1 : 255,94,55
Combo2 : 173,255,95
Combo3 : 17,254,176
Combo4 : 255,88,100

[HitObjects]
254,57,459,5,4,1:0:0:0:
348,188,1118,2,0,P|407:212|516:148,2,180,2|0|2,0:0|0:0|0:0,0:0:0:0:
254,57,3096,6,0,P|195:33|86:97,1,180,2|0,0:0|0:0,0:0:0:0:
64,155,4085,2,0,B|44:242|44:242|104:223|146:260,1,180,2|0,0:0|0:0,0:0:0:0:
202,288,5074,2,0,P|285:316|372:260,1,180,2|0,0:0|0:0,0:0:0:0:
486,170,6393,6,0,L|517:351,2,180,2|0|2,0:0|0:0|0:0,0:0:0:0:
385,42,8371,2,0,P|313:38|256:128,1,180,2|0,0:0|0:0,0:0:0:0:
238,198,9360,2,0,P|194:272|108:275,1,180,2|0,0:0|0:0,0:0:0:0:
46,223,10349,2,0,L|53:124,1,89.9999999999999,2|0,0:0|1:0,0:0:0:0:
104,71,11008,6,0,P|160:64|212:56,1,89.9999999999999,4|8,1:0|0:0,0:0:0:0:
272,80,11667,2,0,P|352:84|412:44,2,135,0|0|8,1:0|1:0|0:0,0:0:0:0:
193,59,12986,2,0,P|189:135|185:167,1,89.9999999999999,0|8,1:0|0:0,0:0:0:0:
116,188,13645,6,0,P|128:288|128:292,1,89.9999999999999,0|8,1:0|0:0,0:0:0:0:
192,328,14305,2,0,P|272:340|316:308,2,135,0|0|8,1:0|1:0|0:0,0:0:0:0:
124,284,15623,2,0,P|120:224|112:184,1,89.9999999999999,0|8,1:0|0:0,0:0:0:0:
48,152,16283,6,0,P|100:116|140:120,1,89.9999999999999,0|8,1:0|0:0,0:0:0:0:
204,132,16942,2,0,P|197:27|176:4,2,135,0|0|8,1:0|1:0|0:0,0:0:0:0:
151,193,18261,2,0,P|155:237|179:281,1,89.9999999999999,0|8,1:0|0:0,0:0:0:0:
250,306,18920,6,0,P|369:290|393:295,2,135,4|0|8,1:0|0:0|0:0,0:0:0:0:
177,341,20239,1,0,0:0:0:0:
33,265,20898,1,8,0:0:0:0:
114,125,21557,6,0,B|217:175|290:90,2,180,4|0|0,1:0|0:0|0:0,0:0:0:0:
10,250,23535,2,0,P|22:330|26:350,1,89.9999999999999,0|12,0:0|0:0,0:0:0:0:
104,342,24195,6,0,P|176:290|272:310,1,180,4|0,1:0|1:0,0:0:0:0:
332,343,25184,1,8,0:0:0:0:
411,358,25513,2,0,P|464:273|450:184,1,180,0|0,0:0|1:0,0:0:0:0:
382,163,26502,1,8,0:0:0:0:
317,211,26832,6,0,P|242:225|142:165,1,180,4|0,1:0|1:0,0:0:0:0:
104,114,27821,1,8,0:0:0:0:
128,36,28151,2,0,P|203:21|228:24,1,89.9999999999999,0|8,0:0|0:0,0:0:0:0:
278,73,28810,2,0,P|322:72|365:59,1,89.9999999999999,0|8,1:0|0:0,0:0:0:0:
420,0,29469,6,0,P|446:68|411:126,2,135,4|0|0,1:0|1:0|0:0,0:0:0:0:
365,58,30788,2,0,B|277:89|277:25|173:69,1,180,0|8,1:0|0:0,0:0:0:0:
48,148,32107,6,0,P|16:224|0:276,2,135,4|0|0,1:0|0:0|1:0,0:0:0:0:
114,104,33426,1,0,1:0:0:0:
256,180,34085,2,0,P|321:208|358:208,1,89.9999999999999,8|0,0:3|1:0,0:0:0:0:
409,169,34744,6,0,P|441:93|457:41,2,135,4|0|0,1:0|0:0|1:0,0:0:0:0:
352,227,36063,2,0,P|286:233|179:293,1,180,8|8,0:3|0:3,0:0:0:0:
120,328,37046,1,8,0:0:0:0:
61,273,37374,6,0,P|49:185|29:121,2,135,4|0|0,1:0|0:0|1:0,0:0:0:0:
120,328,38699,2,0,P|179:323|215:298,1,89.9999999999999,0|0,1:0|1:0,0:0:0:0:
245,237,39362,2,0,P|228:173|232:143,1,89.9999999999999,0|0,1:0|1:0,0:0:0:0:
274,81,40025,6,0,P|357:87|370:86,2,89.9999999999999,4|8|0,1:0|0:0|1:0,0:0:0:0:
202,42,41014,1,8,0:0:0:0:
124,66,41343,2,0,P|41:60|28:61,2,89.9999999999999,0|8|0,1:0|0:0|1:0,0:0:0:0:
184,119,42332,1,8,0:0:0:0:
262,99,42662,6,0,P|340:118|443:73,2,180,0|0|0,1:0|1:0|1:0,0:0:0:0:
202,42,44310,1,8,0:0:0:0:
134,87,44640,2,0,P|126:137|130:178,1,89.9999999999999,0|8,1:0|0:0,0:0:0:0:
154,253,45299,5,0,1:0:0:0:
86,298,45629,2,0,P|50:318|-1:322,2,89.9999999999999,8|0|8,0:0|1:0|0:0,0:0:0:0:
79,217,46618,2,0,P|59:181|55:130,2,89.9999999999999,0|8|0,1:0|0:0|1:0,0:0:0:0:
154,253,47607,1,8,0:0:0:0:
220,208,47937,6,0,B|311:178|315:242|415:206,1,180,0|0,1:0|1:0,0:0:0:0:
464,168,48926,1,8,0:0:0:0:
424,96,49255,2,0,P|416:52|416:44,1,45,8|8,1:2|1:2,0:0:0:0:
300,20,49915,2,0,P|308:64|308:72,1,45,8|8,1:2|1:2,0:0:0:0:
136,120,51893,6,0,P|144:188|160:220,1,89.9999999999999,4|8,1:0|1:2,0:0:0:0:
184,284,52552,2,0,P|140:324|16:308,2,180,0|0|0,1:0|1:0|1:0,0:0:0:0:
236,220,54200,1,8,1:2:0:0:
304,176,54530,6,0,P|380:168|424:200,2,135,0|0|8,1:0|0:0|1:2,0:0:0:0:
236,220,55849,2,0,P|244:276|248:320,2,89.9999999999999,0|8|0,1:0|1:2|1:0,0:0:0:0:
184,160,56838,1,8,1:2:0:0:
116,116,57167,6,0,P|64:128|16:120,2,89.9999999999999,0|8|0,1:0|1:2|1:0,0:0:0:0:
188,80,58156,1,8,1:2:0:0:
252,32,58486,2,0,P|304:20|352:28,1,89.9999999999999,0|8,1:0|1:2,0:0:0:0:
352,104,59145,2,0,P|300:116|252:108,1,89.9999999999999,0|8,1:0|1:2,0:0:0:0:
188,80,59805,6,0,P|136:136|160:232,1,180,4|0,1:2|1:0,0:0:0:0:
216,288,60794,1,8,1:2:0:0:
296,292,61123,2,0,P|360:276|392:276,2,89.9999999999999,0|8|8,1:0|1:2|1:2,0:0:0:0:
252,360,62112,1,8,1:2:0:0:
176,336,62442,6,0,P|140:272|136:248,1,89.9999999999999,4|8,1:0|1:2,0:0:0:0:
60,240,63101,2,0,P|64:172|76:140,1,89.9999999999999,0|8,1:0|1:2,0:0:0:0:
108,80,63761,2,0,P|44:76|8:100,2,89.9999999999999,0|8|0,1:0|1:2|1:0,0:0:0:0:
180,120,64750,1,8,1:2:0:0:
224,188,65079,6,0,P|236:256|264:316,2,135,0|0|8,1:0|0:0|1:2,0:0:0:0:
264,116,66398,2,0,P|336:108|364:120,1,89.9999999999999,0|8,1:0|1:2,0:0:0:0:
400,48,67057,2,0,P|456:93|467:121,1,89.9999999999999,0|8,1:0|1:2,0:0:0:0:
496,180,67717,6,0,P|488:240|492:276,1,89.9999999999999,4|8,1:0|1:2,0:0:0:0:
440,332,68376,2,0,P|384:324|344:328,1,89.9999999999999,8|8,1:2|1:2,0:0:0:0:
284,284,69035,2,0,P|224:320|152:312,2,135,12|0|8,1:2|1:0|1:2,0:0:0:0:
336,220,70354,6,0,P|328:156|316:116,1,89.9999999999999,8|0,1:2|1:0,0:0:0:0:
292,56,71013,1,0,1:0:0:0:
216,24,71343,1,0,1:0:0:0:
148,68,71673,2,0,P|56:96|16:84,2,135,4|4|8,1:0|1:0|0:0,0:0:0:0:
216,24,72991,6,0,B|292:156|152:156|240:292,1,270,4|0,1:0|0:0,0:0:0:0:
308,308,74310,2,0,P|372:300|440:344,2,135,4|0|0,1:2|1:0|0:0,0:0:0:0:
236,348,75629,6,0,P|180:352|136:368,1,89.9999999999999,4|8,1:0|0:0,0:0:0:0:
68,352,76288,2,0,P|44:296|80:180,1,180,0|0,1:0|1:0,0:0:0:0:
144,140,77277,1,8,0:0:0:0:
220,164,77607,2,0,P|280:160|320:136,1,89.9999999999999,0|8,0:0|0:0,0:0:0:0:
360,208,78266,6,0,P|388:136|312:64,1,180,4|0,1:0|1:0,0:0:0:0:
247,87,79255,2,0,P|235:177|230:271,1,180,8|8,0:0|0:0,0:0:0:0:
167,317,80244,2,0,P|122:312|75:292,1,89.9999999999999,0|8,1:0|1:2,0:0:0:0:
29,232,80903,6,0,P|36:177|30:129,1,89.9999999999999,4|8,1:0|0:0,0:0:0:0:
67,69,81563,2,0,P|132:89|258:65,1,180,0|0,1:0|1:0,0:0:0:0:
311,32,82552,1,8,0:0:0:0:
384,66,82881,2,0,P|409:157|387:250,1,180,0|4,0:0|1:0,0:0:0:0:
332,294,83870,5,8,0:0:0:0:
262,252,84200,2,0,P|209:247|170:268,1,89.9999999999999,0|8,1:0|0:0,0:0:0:0:
145,337,84859,2,0,P|198:342|237:321,1,89.9999999999999,0|8,1:0|0:0,0:0:0:0:
304,360,85519,2,0,P|372:320|432:324,1,135,8|4,0:0|1:0,0:0:0:0:
256,192,86178,12,0,88815,0:0:0:0:
