osu file format v14

[General]
AudioFilename: audio.mp3
AudioLeadIn: 0
PreviewTime: 50586
Countdown: 0
SampleSet: Soft
StackLeniency: 0.7
Mode: 0
LetterboxInBreaks: 0
WidescreenStoryboard: 0

[Editor]
DistanceSpacing: 2.8
BeatDivisor: 4
GridSize: 8
TimelineZoom: 1.4

[Metadata]
Title:clever -TV MIX-
TitleUnicode:clever -TV MIX-
Artist:ClariS x GARNiDELiA
ArtistUnicode:ClariS × GARNiDELiA
Creator:Hokichi
Version:Insane
Source:クオリディア・コード
Tags:qualidea code 3 ending [-chocola-] chocola ohwow my angel kanan nextplay hoki renumi 0109- 0109 shiratoi kami-senpai kami senpai
BeatmapID:1398293
BeatmapSetID:660347

[Difficulty]
HPDrainRate:6
CircleSize:3.8
OverallDifficulty:6
ApproachRate:9
SliderMultiplier:1.6
SliderTickRate:1

[Events]
//Background and Video events
0,0,"bg.jpg",0,0
Video,778,"video.mp4"
//Break Periods
//Storyboard Layer 0 (Background)
//Storyboard Layer 1 (Fail)
//Storyboard Layer 2 (Pass)
//Storyboard Layer 3 (Foreground)
//Storyboard Sound Samples

[TimingPoints]
395,659.340659340659,4,2,1,50,1,0
395,-166.666666666667,4,2,1,50,0,0
10285,329.67032967033,4,2,2,30,1,0
10614,-100,4,2,2,30,0,0
10944,329.67032967033,4,2,2,50,1,0
16218,-100,4,2,2,35,0,0
16301,-100,4,2,2,50,0,0
18773,-100,4,2,2,5,0,0
18856,-100,4,2,2,50,0,0
21493,-200,4,2,2,50,0,0
24130,-100,4,2,2,50,0,0
29405,-125,4,2,2,50,0,0
39872,-125,4,2,2,5,0,0
39954,-100,4,2,2,50,0,0
50669,-125,4,2,2,50,0,0
51823,-100,4,2,2,60,0,1
51905,-100,4,2,3,60,0,1
61053,-100,4,2,3,60,0,0
62042,-100,4,2,2,60,0,0
62372,-100,4,2,2,60,0,1
62454,-100,4,2,3,60,0,1
64927,-100,4,2,3,5,0,1
65009,-100,4,2,3,60,0,1
70284,-100,4,2,2,40,0,1
70449,-100,4,2,2,30,0,1
70696,-100,4,2,2,5,0,1
70779,-100,4,2,2,30,0,1
71026,-100,4,2,2,5,0,1
71108,-100,4,2,2,30,0,1
71356,-100,4,2,2,5,0,1
71438,-100,4,2,2,40,0,1
72922,-142.857142857143,4,2,3,60,0,0
75559,-125,4,2,2,50,0,0
75641,-125,4,2,3,60,0,0
86191,-125,4,2,3,10,0,0

[Colours]
Combo1 : 147,147,147
Combo2 : 108,217,166
Combo3 : 171,129,182
Combo4 : 232,145,199
Combo5 : 55,70,132
Combo6 : 192,192,192

[HitObjects]
254,80,395,69,6,0:3:0:0:
264,200,1054,2,0,P|184:232|163:228,1,95.9999970703126,2|0,0:0|0:0,0:0:0:0:
128,109,2373,2,0,P|208:77|229:81,1,95.9999970703126,2|0,0:0|0:0,0:0:0:0:
264,200,3691,2,2,L|332:199,2,47.9999985351563,2|0|0,0:0|0:0|0:0,0:0:0:0:
198,154,4680,1,0,0:0:0:0:
99,205,5010,2,0,L|100:161,3,23.9999992675781,2|0|0|0,0:0|0:0|0:0|0:0,0:0:0:0:
77,148,5669,6,0,L|78:104,3,23.9999992675781
99,76,6329,2,0,P|133:60|203:69,1,95.9999970703126,2|0,0:0|0:0,0:0:0:0:
225,240,7647,2,0,P|191:256|121:247,1,95.9999970703126,2|0,0:0|0:0,0:0:0:0:
274,150,8966,2,0,P|331:134|339:135,2,47.9999985351563,2|0|0,0:0|0:0|0:0,0:0:0:0:
194,230,9954,1,0,0:0:0:0:
280,272,10284,1,0,0:0:0:0:
349,148,10614,6,0,P|296:115|230:137,1,119.999996337891,6|0,0:3|0:0,0:0:0:0:
280,272,10944,6,0,L|284:182,1,80,4|0,0:0|0:0,0:0:0:0:
209,76,11274,1,8,0:0:0:0:
209,76,11603,1,0,0:0:0:0:
197,218,11768,1,0,0:0:0:0:
263,143,11933,1,8,0:0:0:0:
273,284,12098,1,0,0:0:0:0:
329,207,12263,6,0,L|442:204,1,80
263,143,12592,2,0,L|150:140,1,80,8|0,0:0|0:0,0:0:0:0:
97,108,12922,1,0,0:0:0:0:
104,223,13087,1,0,0:0:0:0:
179,120,13252,1,8,0:0:0:0:
117,246,13417,1,0,0:0:0:0:
225,199,13581,6,0,L|316:200,1,80
403,200,13911,1,8,0:0:0:0:
362,120,14076,2,0,P|367:81|398:43,1,80
403,200,14406,2,0,P|366:214|318:206,1,80,0|8,0:0|0:0,0:0:0:0:
448,118,14735,38,0,P|478:142|472:268,1,160
352,319,15230,2,0,L|257:323,1,80,8|0,0:0|0:0,0:0:0:0:
169,248,15559,1,0,0:0:0:0:
346,208,15724,2,0,L|266:208,1,80,0|8,0:0|0:0,0:0:0:0:
170,333,16054,1,0,0:0:0:0:
64,246,16219,6,0,B|64:198|92:170|92:170|120:142|120:94,1,160,4|8,0:0|0:0,0:0:0:0:
25,105,16713,1,0,0:0:0:0:
200,163,16878,2,0,L|279:162,1,80
385,198,17208,1,8,0:0:0:0:
154,244,17373,6,0,P|117:200|139:94,1,160
179,25,17867,2,0,P|176:81|159:105,1,80,8|0,0:0|0:0,0:0:0:0:
99,250,18197,2,0,P|102:194|119:170,1,80
196,231,18527,2,0,B|240:226|240:226|279:236|279:236|322:229,1,120,8|0,0:0|0:0,0:0:0:0:
386,154,18856,5,4,0:0:0:0:
390,294,19021,1,0,0:0:0:0:
469,173,19185,1,8,0:0:0:0:
303,267,19351,1,0,0:0:0:0:
272,98,19516,1,0,0:0:0:0:
197,247,19680,1,0,0:0:0:0:
338,166,19845,1,8,0:0:0:0:
183,150,20010,1,0,0:0:0:0:
303,267,20175,5,0,0:0:0:0:
303,267,20257,1,0,0:0:0:0:
303,267,20340,2,0,L|368:266,1,40
241,345,20504,2,0,L|201:345,1,40,8|0,0:0|0:0,0:0:0:0:
112,325,20669,5,0,0:0:0:0:
99,301,20751,1,0,0:0:0:0:
92,275,20834,1,0,0:0:0:0:
89,249,20916,1,0,0:0:0:0:
91,222,20999,69,0,0:0:0:0:
99,197,21081,1,0,0:0:0:0:
111,173,21164,2,8,L|65:163,1,40
221,247,21329,2,8,L|267:237,1,40
244,154,21494,6,0,B|220:106|276:66|276:66|330:95|356:194|300:226|252:240|252:240|221:304|260:357|260:357,1,440,2|0,0:3|0:0,0:0:0:0:
347,346,23472,1,0,0:0:0:0:
381,230,23636,1,0,0:0:0:0:
430,317,23801,1,8,0:0:0:0:
298,275,23966,1,0,0:0:0:0:
310,144,24131,6,0,L|199:143,1,80,4|0,0:0|0:0,0:0:0:0:
119,145,24461,1,8,0:0:0:0:
218,215,24625,2,0,B|223:264|223:264|212:306,1,80
116,223,24955,2,0,B|111:174|111:174|122:132,1,80,0|8,0:0|0:0,0:0:0:0:
252,126,25285,6,0,P|297:160|303:262,1,160
257,345,25779,2,0,P|258:280|268:261,1,80,8|0,0:0|0:0,0:0:0:0:
360,177,26109,1,0,0:0:0:0:
416,311,26274,2,0,L|336:311,1,80,0|8,0:0|0:0,0:0:0:0:
213,339,26603,1,0,0:0:0:0:
114,205,26768,6,0,P|109:153|126:113,1,80,4|0,0:0|0:0,0:0:0:0:
200,47,27098,1,8,0:0:0:0:
237,174,27263,1,0,0:0:0:0:
325,105,27428,2,0,L|434:100,1,80
454,184,27757,1,8,0:0:0:0:
321,215,27922,6,0,P|286:252|175:239,1,160
201,106,28417,2,0,P|237:169|235:187,1,80,8|0,0:0|0:0,0:0:0:0:
109,94,28746,2,0,P|145:31|162:24,1,80
139,187,29076,2,0,L|141:240,1,40,8|0,0:0|0:0,0:0:0:0:
181,317,29241,1,0,0:0:0:0:
181,317,29323,1,0,0:0:0:0:
181,317,29406,38,0,L|270:313,1,64,4|0,0:0|0:0,0:0:0:0:
366,228,29735,2,0,L|277:224,1,64
164,331,30065,6,0,L|253:327,1,64,8|0,0:0|0:0,0:0:0:0:
347,239,30395,2,0,L|258:235,1,64
172,198,30724,5,0,0:0:0:0:
258,120,30889,2,0,L|403:111,1,128,8|0,0:0|3:0,0:0:0:0:
460,167,31300,1,0,3:0:0:0:
460,167,31384,2,0,P|473:211|460:268,2,85.3333333333333,8|0|0,3:2|3:2|3:2,3:2:0:0:
330,93,32043,6,0,P|271:91|210:155,1,128,6|0,0:0|0:0,0:0:0:0:
274,292,32538,2,0,P|333:294|394:230,1,128,2|0,0:0|0:0,0:0:0:0:
190,217,33032,2,0,L|117:220,1,64,2|0,0:0|0:0,0:0:0:0:
50,164,33361,37,0,0:0:0:0:
104,290,33526,2,0,P|110:341|102:362,1,64,0|0,3:0|0:0,0:0:0:0:
166,195,33856,1,0,0:0:0:0:
166,195,33938,1,0,0:0:0:0:
166,195,34020,2,0,L|235:192,1,64
346,283,34351,2,0,L|277:280,1,64
415,233,34680,6,0,P|430:289|392:355,1,128,6|0,0:0|0:0,0:0:0:0:
283,186,35174,2,0,P|268:130|306:64,1,128,2|0,0:0|0:0,0:0:0:0:
341,260,35669,2,0,P|292:279|256:276,1,64,2|0,0:0|0:0,0:0:0:0:
173,257,35998,5,0,0:0:0:0:
173,257,36081,1,0,0:0:0:0:
173,257,36163,1,0,0:0:0:0:
173,257,36246,1,0,0:0:0:0:
173,257,36328,2,0,L|171:208,3,32,0|0|0|0,0:0|0:0|0:0|0:0,0:0:0:0:
231,158,36658,2,0,L|233:109,3,32,0|0|0|0,0:0|0:0|0:0|0:0,0:0:0:0:
299,28,36987,2,8,L|304:80,1,32
356,141,37152,2,0,L|351:193,1,32
319,264,37317,6,0,P|273:267|232:255,1,64,4|0,0:0|0:0,0:0:0:0:
182,192,37647,1,0,3:0:0:0:
109,264,37812,2,0,L|103:346,1,64,0|0,0:0|3:0,0:0:0:0:
99,130,38141,1,0,0:0:0:0:
24,215,38306,2,0,L|18:297,1,64,0|0,3:0|0:0,0:0:0:0:
187,73,38636,38,0,P|218:64|261:69,1,64,0|0,3:0|0:0,0:0:0:0:
99,130,38965,2,0,P|68:139|25:134,1,64,0|0,3:0|0:0,0:0:0:0:
54,49,39295,1,0,3:0:0:0:
185,96,39460,1,0,0:0:0:0:
185,96,39542,1,0,0:0:0:0:
185,96,39625,2,0,P|233:86|303:98,1,96,4|0,3:0|0:0,0:0:0:0:
345,164,39954,5,4,0:0:0:0:
345,164,40119,1,0,0:0:0:0:
265,235,40284,2,0,P|215:239|178:224,1,80,8|0,0:0|0:0,0:0:0:0:
345,164,40614,2,0,P|373:205|378:244,1,80
242,115,40944,2,0,P|263:69|295:45,1,80,8|0,0:0|0:0,0:0:0:0:
272,206,41273,70,0,P|223:212|187:197,1,80
338,253,41603,2,0,P|298:282|259:287,1,80,8|0,0:0|0:0,0:0:0:0:
418,263,41933,2,0,P|398:308|367:332,1,80
237,362,42262,1,8,0:0:0:0:
199,217,42427,1,0,0:0:0:0:
310,272,42592,5,0,0:0:0:0:
298,153,42757,2,0,P|356:156|379:166,1,80,0|8,0:0|0:0,0:0:0:0:
423,62,43086,1,0,0:0:0:0:
271,59,43251,2,0,P|230:65|183:52,1,80
108,68,43498,2,0,L|155:68,1,40,0|8,0:0|0:0,0:0:0:0:
180,184,43746,1,0,0:0:0:0:
52,272,43911,6,0,P|50:216|64:189,1,80
200,206,44240,2,0,P|152:235|122:237,1,80,8|0,0:0|0:0,0:0:0:0:
175,100,44570,2,0,L|272:89,1,80
279,215,44900,2,0,L|182:204,1,80,8|0,0:0|0:0,0:0:0:0:
338,141,45229,5,4,0:0:0:0:
338,141,45394,1,0,0:0:0:0:
354,260,45559,2,0,L|355:348,1,80,8|0,0:0|0:0,0:0:0:0:
245,215,45889,2,0,L|246:303,1,80
142,166,46218,2,0,L|143:254,1,80,8|0,0:0|0:0,0:0:0:0:
92,81,46548,38,0,P|142:71|202:90,1,80
86,243,46878,2,0,P|52:204|38:143,1,80,8|0,0:0|0:0,0:0:0:0:
245,170,47207,2,0,P|228:218|182:260,1,80
197,97,47537,2,0,P|246:85|321:122,1,120,8|0,0:0|0:0,0:0:0:0:
245,170,47867,6,0,L|240:273,1,80
205,327,48114,1,0,0:0:0:0:
205,327,48196,1,8,0:0:0:0:
119,240,48361,2,0,L|115:191,2,40,0|0|8,0:0|0:0|0:0,0:0:0:0:
204,107,48691,1,0,0:0:0:0:
204,107,48773,1,0,0:0:0:0:
204,107,48856,2,0,L|252:102,1,40,8|0,0:0|0:0,0:0:0:0:
332,197,49020,2,0,L|284:192,1,40
199,200,49185,5,8,0:1:0:0:
32,222,49350,1,8,0:1:0:0:
21,252,49845,5,8,0:1:0:0:
188,230,50010,1,8,0:1:0:0:
180,254,50669,5,2,0:0:0:0:
272,256,50834,1,2,0:0:0:0:
368,256,50999,1,2,0:0:0:0:
264,240,51163,2,0,L|256:176,1,64,2|2,0:0|0:0,0:0:0:0:
344,112,51493,2,0,L|336:176,1,64
285,44,51823,22,0,P|366:29|434:93,1,160,2|8,0:3|0:0,0:0:0:0:
397,196,52317,1,0,0:0:0:0:
397,196,52400,1,0,0:0:0:0:
397,196,52482,2,0,L|398:277,1,80
316,348,52812,1,8,0:0:0:0:
286,213,52976,1,0,0:0:0:0:
415,312,53141,6,0,L|510:309,1,80
427,189,53471,1,8,0:0:0:0:
330,105,53636,1,0,0:0:0:0:
330,105,53718,1,0,0:0:0:0:
330,105,53801,2,0,L|322:18,1,80
202,99,54130,2,0,L|194:186,1,80,8|0,0:0|0:0,0:0:0:0:
217,309,54460,5,0,0:0:0:0:
276,193,54625,1,0,0:0:0:0:
144,259,54790,1,8,0:0:0:0:
317,282,54954,2,0,L|379:273,2,40
198,166,55284,2,0,L|127:157,2,40,0|0|8,0:0|0:0|0:0,0:0:0:0:
344,114,55614,2,0,P|394:111|406:118,1,40
454,155,55779,6,0,L|455:261,1,80
347,302,56108,2,0,P|296:306|262:289,1,80,8|0,0:0|0:0,0:0:0:0:
160,183,56438,2,0,P|211:179|245:196,1,80
337,196,56768,1,8,0:0:0:0:
337,166,56850,1,0,0:0:0:0:
337,136,56932,1,0,0:0:0:0:
337,106,57015,1,0,0:0:0:0:
337,76,57097,38,0,L|237:62,1,80
160,183,57427,2,0,L|288:160,1,120,8|0,0:0|0:0,0:0:0:0:
341,117,57757,2,0,P|338:172|356:203,1,80
228,121,58086,2,0,P|231:66|213:35,1,80,8|0,0:0|0:0,0:0:0:0:
56,129,58416,6,0,P|48:175|81:252,1,120
144,295,58746,2,0,P|184:280|251:293,1,80,8|0,0:0|0:0,0:0:0:0:
217,128,59075,2,0,P|209:170|165:221,1,80
329,269,59405,2,0,P|296:241|273:177,1,80,8|0,0:0|0:0,0:0:0:0:
287,71,59735,6,0,P|377:55|462:86,1,160,0|2,0:0|0:0,0:0:0:0:
357,163,60229,1,0,0:0:0:0:
441,73,60394,2,0,P|446:119|440:162,1,80
358,242,60724,2,0,P|353:196|359:153,1,80,2|0,0:0|0:0,0:0:0:0:
251,251,61053,6,0,P|203:259|159:251,1,80
140,235,61301,1,0,0:0:0:0:
115,208,61383,1,8,0:0:0:0:
230,114,61548,2,0,L|165:104,2,40
397,65,61878,1,0,0:0:0:0:
397,65,61960,1,0,0:0:0:0:
397,65,62042,2,8,L|402:113,1,40,8|8,0:1|0:1,0:1:0:0:
337,193,62207,2,0,L|332:241,1,40,0|0,0:1|0:1,0:1:0:0:
248,314,62372,38,0,B|192:329|192:329|57:304,1,160,2|8,0:3|0:0,0:0:0:0:
180,204,62867,1,0,0:0:0:0:
301,223,63031,2,0,P|339:260|355:317,1,80
248,314,63361,1,8,0:0:0:0:
408,233,63526,1,0,0:0:0:0:
359,142,63691,6,0,L|369:31,1,80
268,4,64020,1,8,0:0:0:0:
253,173,64185,2,0,L|263:62,1,80
162,35,64514,1,0,0:0:0:0:
88,128,64680,2,0,B|96:176|96:176|88:218|88:218|96:264,1,120,8|0,0:0|0:0,0:0:0:0:
92,246,65009,6,0,P|148:224|187:235,1,80
283,257,65339,1,8,0:0:0:0:
365,166,65504,2,0,L|372:102,2,40
283,257,65834,2,0,L|291:326,2,40,0|0|8,0:0|0:0|0:0,0:0:0:0:
161,154,66163,2,0,L|168:90,1,40
181,22,66328,6,0,L|197:137,1,80
296,171,66658,2,0,B|334:175|334:175|392:164,1,80,8|0,0:0|0:0,0:0:0:0:
243,293,66987,2,0,B|205:289|205:289|147:300,1,80
85,343,67235,1,0,0:0:0:0:
85,343,67317,2,0,L|81:291,1,40,8|0,0:0|0:0,0:0:0:0:
142,200,67482,2,0,L|146:148,1,40
185,41,67647,37,12,0:0:0:0:
237,188,67812,1,0,0:0:0:0:
283,71,67976,1,8,0:0:0:0:
366,177,68141,1,0,0:0:0:0:
367,61,68306,1,8,0:0:0:0:
298,249,68471,1,0,0:0:0:0:
171,98,68636,1,8,0:0:0:0:
161,255,68801,1,0,0:0:0:0:
255,168,68965,6,0,L|348:166,1,80,4|0,0:0|0:0,0:0:0:0:
414,235,69295,1,2,0:0:0:0:
161,255,69460,2,0,B|153:224|153:224|160:167,1,80,8|0,0:0|0:0,0:0:0:0:
252,89,69790,2,0,B|260:120|260:120|253:177,1,80,8|2,0:0|0:0,0:0:0:0:
138,95,70119,1,8,0:0:0:0:
222,10,70284,5,4,0:0:0:0:
344,105,70449,1,8,0:1:0:0:
344,105,70531,1,8,0:0:0:0:
344,105,70614,2,8,L|341:165,1,40,8|0,0:1|0:1,0:1:0:0:
267,216,70779,1,8,0:1:0:0:
267,216,70861,1,8,0:0:0:0:
267,216,70944,2,8,L|270:276,1,40,8|0,0:1|0:1,0:1:0:0:
384,313,71108,1,8,0:1:0:0:
384,313,71190,1,8,0:0:0:0:
384,313,71273,2,8,L|381:373,2,40,8|0|8,0:1|0:1|0:1,0:1:0:0:
396,198,71603,5,4,0:0:0:0:
299,309,71768,1,4,0:0:0:0:
284,292,72097,2,0,L|106:297,1,160,4|0,0:0|0:0,0:0:0:0:
218,207,72592,2,0,P|275:186|316:197,1,80,8|0,0:0|0:0,0:0:0:0:
450,202,72922,6,0,B|460:165|460:165|441:79,1,111.999996582031,4|0,0:3|0:0,0:0:0:0:
336,52,73416,1,0,0:0:0:0:
243,123,73581,2,0,P|193:134|126:112,1,111.999996582031,2|0,0:0|0:0,0:0:0:0:
45,59,74075,2,0,P|41:98|48:109,1,27.9999991455078,0|0,3:0|3:0,3:0:0:0:
75,187,74240,6,0,B|85:229|85:229|75:266|75:266|84:316,1,111.999996582031,2|0,0:0|0:0,0:0:0:0:
209,194,74735,2,0,L|280:194,1,55.9999982910157,4|2,0:0|0:0,0:0:0:0:
377,260,75064,2,0,P|395:197|381:146,1,111.999996582031,4|0,0:0|3:0,0:0:0:0:
297,87,75476,1,0,3:0:0:0:
276,78,75559,6,0,L|132:78,1,128,2|8,3:0|0:0,0:0:0:0:
44,33,76053,1,0,0:0:0:0:
51,151,76218,2,0,P|56:208|48:228,1,64
169,283,76548,2,0,P|164:226|172:206,1,64,8|0,0:0|0:0,0:0:0:0:
328,250,76878,6,0,L|244:254,2,64,0|0|8,0:0|0:0|0:0,0:0:0:0:
407,190,77372,1,0,0:0:0:0:
309,134,77537,2,0,P|293:104|292:65,1,64
407,190,77867,2,0,P|422:219|423:258,1,64,8|0,0:0|0:0,0:0:0:0:
380,81,78196,6,0,L|464:81,2,64,0|0|8,0:0|0:0|0:0,0:0:0:0:
246,86,78691,1,0,0:0:0:0:
125,130,78856,2,0,L|117:198,1,64
223,276,79185,2,0,L|215:212,1,64,8|0,0:0|0:0,0:0:0:0:
246,86,79515,6,0,P|297:68|333:79,1,64
342,189,79845,2,0,P|300:153|292:117,1,64,8|0,0:0|0:0,0:0:0:0:
388,57,80174,2,0,P|378:110|350:135,1,64
154,202,80504,1,8,3:2:0:0:
178,202,80586,1,0,3:2:0:0:
202,202,80668,1,0,3:2:0:0:
226,202,80751,1,0,3:2:0:0:
250,202,80834,38,0,L|249:289,1,64,4|0,0:0|0:0,0:0:0:0:
342,156,81163,2,0,L|341:69,1,64,8|0,0:0|0:0,0:0:0:0:
250,202,81493,2,0,P|288:238|319:247,1,64
457,288,81823,2,0,P|418:251|387:242,1,64,8|0,0:0|0:0,0:0:0:0:
319,325,82152,6,0,L|413:320,2,64,0|0|8,0:0|0:0|0:0,0:0:0:0:
214,311,82647,1,0,0:0:0:0:
172,212,82812,2,0,B|164:177|164:177|174:128,1,64
341,144,83141,2,0,B|349:179|349:179|339:228,1,64,8|0,0:0|0:0,0:0:0:0:
273,74,83471,6,0,P|315:49|349:47,2,64,0|0|8,0:0|0:0|0:0,0:0:0:0:
229,171,83965,1,0,0:0:0:0:
319,228,84130,2,0,L|326:296,1,64
229,171,84460,2,0,L|236:103,1,64,8|0,0:0|0:0,0:0:0:0:
173,240,84790,6,0,P|130:250|102:240,1,64
229,171,85119,2,0,P|259:203|264:232,1,64,8|0,0:0|0:0,0:0:0:0:
143,163,85449,2,0,P|155:120|178:101,1,64
261,66,85779,1,8,0:0:0:0:
184,280,85944,5,4,0:1:0:0:
256,192,86108,12,0,88746,0:0:0:0:
