osu file format v14

[General]
AudioFilename: audio.mp3
AudioLeadIn: 1996
PreviewTime: 51166
Countdown: 0
SampleSet: Soft
StackLeniency: 0.5
Mode: 0
LetterboxInBreaks: 1
WidescreenStoryboard: 1

[Editor]
Bookmarks: 1577,8741,15905,23069,30233,37397,44562,51726,58890,66054,73218,80382,87547
DistanceSpacing: 2.05
BeatDivisor: 8
GridSize: 8
TimelineZoom: 1.34

[Metadata]
Title:irony (TV Size)
TitleUnicode:irony (TV Size)
Artist:ClariS
ArtistUnicode:ClariS
Creator:Kencho
Version:Oreimo
Source:俺の妹がこんなに可愛いわけがない
Tags:oreimo anime Ore no Imouto ga konna ni Kawaii Wake ga Nai Clara Alice Japanese Pop opening -TV mix- -Claris- Yorita Yoshino
BeatmapID:2135207
BeatmapSetID:1020475

[Difficulty]
HPDrainRate:5.6
CircleSize:4.4
OverallDifficulty:7.9
ApproachRate:8.3
SliderMultiplier:1.6
SliderTickRate:1

[Events]
//Background and Video events
Video,-950,"video.mp4"
0,0,"Kirino.jpg",0,0
//Break Periods
//Storyboard Layer 0 (Background)
//Storyboard Layer 1 (Fail)
//Storyboard Layer 2 (Pass)
//Storyboard Layer 3 (Foreground)
//Storyboard Layer 4 (Overlay)
//Storyboard Sound Samples

[TimingPoints]
-214,447.761194029851,4,2,1,60,1,0
1129,-125,4,2,1,60,0,0
1577,447.761194029851,4,2,1,60,1,0
1577,-125,4,2,1,60,0,0
15905,-83.3333333333333,4,2,1,70,0,0
22174,-83.3333333333333,4,2,1,50,0,0
23069,-100,4,2,1,60,0,0
50830,-100,4,2,1,40,0,0
51278,-100,4,2,1,50,0,0
51726,-83.3333333333333,4,2,1,80,0,1
65942,-83.3333333333333,4,2,1,80,0,0
66054,-83.3333333333333,4,2,1,80,0,1
79487,-83.3333333333333,4,2,1,50,0,1
79935,-83.3333333333333,4,2,1,60,0,1
80382,-83.3333333333333,4,2,1,70,0,0
86651,-83.3333333333333,4,2,1,50,0,0
87547,-100,4,2,1,70,0,0
87659,-100,4,2,1,30,0,0
90233,-100,4,2,1,20,0,0

[Colours]
Combo1 : 96,64,64
Combo2 : 255,192,128
Combo3 : 255,128,192
Combo4 : 128,0,64
Combo5 : 64,64,128
Combo6 : 64,128,128

[HitObjects]
145,267,1129,6,0,P|137:237|138:205,1,64,0|0,0:0|0:0,0:0:0:0:
229,229,1577,6,0,P|237:259|236:291,1,64,0|0,3:2|0:0,0:0:0:0:
186,364,2024,1,2,3:3:0:0:
310,303,2248,2,0,P|278:304|246:311,1,64,0|0,0:0|3:2,0:0:0:0:
381,368,2696,2,0,P|412:366|444:359,1,64,0|2,0:0|3:3,0:0:0:0:
426,215,3144,6,0,P|409:244|406:291,1,64,0|0,0:0|3:2,0:0:0:0:
504,170,3591,1,0,0:0:0:0:
380,139,3815,2,0,L|313:150,1,64,2|0,3:3|0:0,0:0:0:0:
257,263,4263,2,0,P|262:232|256:200,1,64,0|0,3:2|0:0,0:0:0:0:
186,144,4711,1,2,3:3:0:0:
172,233,4935,1,0,0:0:0:0:
102,177,5159,6,0,P|96:142|101:114,1,64,0|0,3:2|0:0,0:0:0:0:
197,55,5606,1,2,3:3:0:0:
247,129,5830,2,0,P|218:142|186:144,1,64,0|0,0:0|3:2,0:0:0:0:
51,40,6278,2,0,P|80:27|112:25,1,64,0|2,0:0|3:3,0:0:0:0:
36,188,6726,6,0,L|25:112,1,64,0|0,0:0|3:2,0:0:0:0:
117,205,7174,1,0,0:0:0:0:
62,267,7397,2,0,L|51:343,1,64,2|0,3:3|0:0,0:0:0:0:
178,164,7845,2,0,L|189:240,1,64,0|0,3:2|0:0,0:0:0:0:
220,251,8181,1,0,0:0:0:0:
220,251,8293,2,0,L|216:283,3,32,2|0|0|0,3:3|3:2|3:2|3:2,0:0:0:0:
279,189,8741,6,0,P|311:184|345:190,1,64,0|0,3:2|0:0,0:0:0:0:
418,236,9188,1,2,3:3:0:0:
384,125,9412,2,0,L|397:44,1,64,0|0,0:0|3:2,0:0:0:0:
483,196,9860,2,0,L|470:115,1,64,0|2,0:0|3:3,0:0:0:0:
384,306,10308,6,0,P|382:339|396:377,1,64,0|0,0:0|3:2,0:0:0:0:
418,236,10756,1,0,0:0:0:0:
308,289,10979,1,2,3:3:0:0:
418,236,11203,2,0,P|420:203|406:165,1,64,0|0,0:0|3:2,0:0:0:0:
332,119,11651,1,0,0:0:0:0:
324,215,11875,1,2,3:3:0:0:
411,174,12099,1,0,0:0:0:0:
411,174,12323,6,0,B|422:135|422:135|405:49,1,128,0|2,3:2|3:3,0:0:0:0:
270,109,12994,2,0,P|300:120|331:119,1,64,0|0,0:0|0:0,0:0:0:0:
312,44,13442,1,0,0:0:0:0:
228,174,13666,1,2,3:3:0:0:
130,114,13890,6,0,P|162:107|193:105,1,64,0|2,0:0|3:2,0:0:0:0:
267,224,14338,2,0,P|244:199|227:173,1,64,0|2,0:0|3:3,0:0:0:0:
294,50,14785,1,0,0:0:0:0:
228,174,15009,5,2,3:2:0:0:
200,188,15121,1,8,0:0:0:0:
168,187,15233,1,8,0:0:0:0:
140,171,15345,1,2,0:0:0:0:
124,144,15457,2,0,L|118:111,1,32,2|8,3:3|0:0,0:0:0:0:
104,33,15681,2,0,L|137:39,1,32,2|2,0:0|0:0,0:0:0:0:
210,7,15905,6,0,P|230:51|223:111,1,95.9999970703126,6|0,0:0|3:2,0:0:0:0:
142,235,16353,2,0,P|122:191|129:131,1,95.9999970703126,8|0,0:0|3:2,0:0:0:0:
141,108,16688,1,2,0:3:0:0:
141,108,16800,1,2,0:0:0:0:
53,190,17024,1,0,3:2:0:0:
101,34,17248,1,8,0:0:0:0:
241,118,17472,6,0,P|288:119|331:96,1,95.9999970703126,0|2,3:2|0:0,0:0:0:0:
369,8,17920,1,0,3:2:0:0:
438,186,18144,1,8,0:0:0:0:
357,39,18368,2,0,P|350:67|350:88,1,47.9999985351563,0|2,3:2|0:3,0:0:0:0:
360,166,18591,1,2,0:0:0:0:
428,106,18815,1,0,3:2:0:0:
428,106,18927,1,2,0:0:0:0:
428,106,19039,1,8,0:0:0:0:
336,237,19263,6,0,P|308:220|291:195,1,63.9999980468751,0|0,3:2|0:0,0:0:0:0:
286,121,19487,6,0,B|263:164|263:164|219:180,1,95.9999970703126,2|0,0:0|3:2,0:0:0:0:
123,71,19935,2,0,B|171:69|171:69|207:99,1,95.9999970703126,8|0,0:0|3:2,0:0:0:0:
145,150,20271,1,2,0:3:0:0:
145,150,20382,1,2,0:0:0:0:
185,31,20606,1,0,3:2:0:0:
291,194,20830,1,8,0:0:0:0:
98,89,21054,6,0,P|71:129|72:175,1,95.9999970703126,0|2,3:2|0:0,0:0:0:0:
207,215,21502,2,0,P|186:171|146:150,1,95.9999970703126,0|8,3:2|0:0,0:0:0:0:
43,247,21950,2,0,P|92:250|131:226,1,95.9999970703126,0|2,3:2|0:0,0:0:0:0:
146,150,22285,1,2,0:0:0:0:
146,150,22397,6,0,P|168:158|186:173,1,47.9999985351563,8|2,3:2|0:0,0:0:0:0:
72,175,22621,2,0,P|68:151|72:128,1,47.9999985351563,8|2,0:0|0:0,0:0:0:0:
131,226,22845,2,0,P|112:241|90:249,1,47.9999985351563,2|0,3:2|0:0,0:0:0:0:
12,230,23069,5,6,0:0:0:0:
90,321,23293,1,0,3:2:0:0:
196,265,23517,2,0,P|216:267|235:274,2,40,8|2|0,0:0|0:0|3:2,0:0:0:0:
198,345,23965,1,2,0:0:0:0:
233,194,24188,2,0,P|233:153|221:116,1,80,0|8,3:2|0:0,0:0:0:0:
78,243,24636,6,0,P|78:284|90:321,1,80,0|2,3:2|0:0,0:0:0:0:
196,265,25084,1,0,3:2:0:0:
80,163,25308,2,0,P|60:165|41:172,1,40,8|2,0:0|0:0,0:0:0:0:
40,252,25532,2,0,P|60:250|79:243,1,40,0|2,3:2|0:3,0:0:0:0:
149,204,25756,5,2,0:0:0:0:
90,321,25979,1,0,3:2:0:0:
196,265,26203,5,8,0:0:0:0:
155,127,26427,1,0,3:2:0:0:
297,160,26651,6,0,P|261:180|222:182,1,80,2|0,0:0|3:2,0:0:0:0:
315,85,27099,1,8,0:0:0:0:
353,213,27323,1,0,3:2:0:0:
353,213,27435,1,2,0:3:0:0:
353,213,27547,1,2,0:0:0:0:
223,182,27771,1,0,3:2:0:0:
261,310,27994,1,8,0:0:0:0:
149,160,28218,6,0,P|113:140|74:138,1,80,0|2,3:2|0:0,0:0:0:0:
167,235,28666,1,0,3:2:0:0:
205,107,28890,1,8,0:0:0:0:
75,138,29114,1,0,3:2:0:0:
75,138,29226,1,2,0:3:0:0:
75,138,29338,1,2,0:0:0:0:
223,182,29562,5,0,3:2:0:0:
131,85,29785,1,8,0:0:0:0:
93,213,30009,2,0,L|82:251,1,40,0|0,3:2|0:0,0:0:0:0:
59,328,30233,5,2,0:0:0:0:
186,250,30457,1,0,3:2:0:0:
186,250,30569,1,2,0:3:0:0:
186,250,30681,2,0,P|206:286|208:325,1,80,8|0,0:0|3:2,0:0:0:0:
194,362,31017,1,2,0:3:0:0:
194,362,31129,1,2,0:0:0:0:
59,328,31353,2,0,P|95:308|134:306,1,80,0|8,3:2|0:0,0:0:0:0:
343,358,31800,6,0,P|307:378|268:380,1,80,0|2,3:2|0:0,0:0:0:0:
276,266,32248,2,0,L|287:304,1,40,0|2,3:2|0:3,0:0:0:0:
194,362,32472,2,0,L|183:324,1,40,8|2,0:0|0:0,0:0:0:0:
287,250,32696,2,0,L|298:288,1,40,0|2,3:2|0:3,0:0:0:0:
320,364,32920,5,2,0:0:0:0:
160,247,33144,1,0,3:2:0:0:
298,289,33368,5,8,0:0:0:0:
183,323,33591,1,0,3:2:0:0:
375,266,33815,6,0,L|452:243,1,80,2|0,0:0|3:2,0:0:0:0:
440,205,34151,1,2,0:3:0:0:
440,205,34263,2,0,L|429:167,1,40,8|2,0:0|0:0,0:0:0:0:
342,152,34487,2,0,L|353:190,1,40,0|2,3:2|0:3,0:0:0:0:
375,266,34711,1,2,0:0:0:0:
407,91,34935,1,0,3:2:0:0:
239,150,35159,1,8,0:0:0:0:
423,72,35382,6,0,P|444:39|452:0,1,80,0|2,3:2|0:0,0:0:0:0:
309,66,35830,2,0,P|301:84|296:105,1,40,0|2,3:2|0:3,0:0:0:0:
338,218,36054,2,0,P|333:198|325:180,1,40,8|2,0:0|0:0,0:0:0:0:
218,124,36278,2,0,P|210:142|205:163,1,40,0|2,3:2|0:3,0:0:0:0:
205,242,36502,1,2,0:0:0:0:
109,90,36726,5,0,3:2:0:0:
205,162,36950,1,8,0:0:0:0:
68,244,37174,1,2,3:2:0:0:
188,85,37397,6,0,P|228:85|261:106,1,80,6|0,0:0|3:2,0:0:0:0:
282,140,37733,1,2,0:3:0:0:
282,140,37845,1,8,0:0:0:0:
205,162,38069,1,0,3:2:0:0:
339,196,38293,2,0,P|379:196|412:175,1,80,2|0,0:0|3:2,0:0:0:0:
433,141,38629,1,2,0:3:0:0:
433,141,38741,1,8,0:0:0:0:
356,119,38965,1,0,3:2:0:0:
402,272,39188,6,0,L|425:348,1,80,2|0,0:0|3:2,0:0:0:0:
310,313,39636,2,0,L|298:272,2,40,8|2|0,0:0|0:0|3:2,0:0:0:0:
224,365,40084,2,0,P|184:368|148:353,1,80,2|0,0:0|3:2,0:0:0:0:
123,321,40420,1,2,0:3:0:0:
123,321,40532,2,0,L|49:352,1,80,8|0,0:0|3:2,0:0:0:0:
197,290,40979,6,0,P|173:257|138:242,1,80,2|0,0:0|3:2,0:0:0:0:
49,352,41427,2,0,L|54:313,1,40,8|2,0:0|0:0,0:0:0:0:
64,232,41651,1,0,3:2:0:0:
197,290,41875,2,0,P|237:293|273:278,1,80,2|0,0:0|3:2,0:0:0:0:
298,246,42211,1,2,0:3:0:0:
298,246,42323,1,8,0:0:0:0:
211,136,42547,6,0,L|224:216,1,80,0|2,3:2|0:0,0:0:0:0:
246,353,42994,1,0,3:2:0:0:
246,353,43106,1,2,0:3:0:0:
246,353,43218,1,8,0:0:0:0:
298,246,43442,1,0,3:2:0:0:
172,322,43666,1,2,0:0:0:0:
224,215,43890,2,0,P|223:195|218:176,1,40,0|2,3:2|0:3,0:0:0:0:
168,112,44114,5,8,0:0:0:0:
367,206,44338,1,0,3:2:0:0:
172,322,44562,6,0,P|132:322|95:309,1,80,2|0,0:0|3:2,0:0:0:0:
64,283,44897,1,2,0:3:0:0:
64,283,45009,2,0,L|71:244,1,40,8|2,0:0|0:0,0:0:0:0:
85,165,45233,1,0,3:2:0:0:
224,215,45457,2,0,P|264:215|301:202,1,80,2|0,0:0|3:2,0:0:0:0:
332,176,45793,1,2,0:3:0:0:
332,176,45905,1,8,0:0:0:0:
252,57,46129,6,0,L|238:135,1,80,0|2,3:2|0:0,0:0:0:0:
210,294,46577,1,0,3:2:0:0:
210,294,46688,1,2,0:3:0:0:
210,294,46800,1,8,0:0:0:0:
140,150,47024,1,0,3:2:0:0:
282,226,47248,1,2,0:0:0:0:
122,247,47472,2,0,P|103:242|86:232,1,40,0|2,3:2|0:3,0:0:0:0:
48,160,47696,5,8,0:0:0:0:
129,321,47920,1,0,3:2:0:0:
282,226,48144,6,0,P|322:226|359:239,1,80,2|0,0:0|3:2,0:0:0:0:
439,329,48591,1,8,0:0:0:0:
408,172,48815,2,0,P|408:132|421:95,1,80,0|2,3:2|0:0,0:0:0:0:
512,318,49263,2,0,P|512:337|507:358,2,40,0|2|8,3:2|0:3|0:0,0:0:0:0:
356,256,49711,6,0,P|388:211|481:228,1,160,0|0,3:2|3:2,0:0:0:0:
439,329,50382,1,8,0:0:0:0:
432,300,50494,1,2,0:0:0:0:
425,271,50606,1,0,3:2:0:0:
281,341,50830,2,0,L|328:347,1,40,2|2,0:0|0:0,0:0:0:0:
196,279,51054,2,0,L|151:286,1,40,2|2,3:2|0:0,0:0:0:0:
51,344,51278,5,8,0:0:0:0:
63,314,51390,1,8,0:0:0:0:
65,282,51502,1,2,3:2:0:0:
55,251,51614,1,2,0:0:0:0:
33,230,51726,6,0,P|20:194|32:133,1,95.9999970703126,6|0,0:0|3:2,0:0:0:0:
133,37,52174,1,8,0:0:0:0:
167,177,52397,1,2,3:3:0:0:
167,177,52509,1,2,0:3:0:0:
167,177,52621,1,2,0:0:0:0:
101,108,52845,1,2,3:3:0:0:
140,268,53069,1,8,0:0:0:0:
259,154,53293,6,0,P|306:152|347:176,1,95.9999970703126,2|2,3:3|0:0,0:0:0:0:
376,268,53741,1,2,3:3:0:0:
282,247,53965,1,8,0:0:0:0:
441,197,54188,2,0,P|456:215|467:236,1,47.9999985351563,0|2,3:2|0:3,0:0:0:0:
401,355,54412,2,0,P|375:314|376:268,1,95.9999970703126,2|2,0:0|3:3,0:0:0:0:
412,105,54860,5,8,0:0:0:0:
282,247,55084,1,2,3:3:0:0:
489,133,55308,6,0,P|491:85|467:45,1,95.9999970703126,2|0,0:0|3:2,0:0:0:0:
319,128,55756,1,8,0:0:0:0:
412,105,55979,1,2,3:3:0:0:
412,105,56091,1,2,0:3:0:0:
412,105,56203,1,2,0:0:0:0:
253,59,56427,1,2,3:3:0:0:
385,197,56651,1,8,0:0:0:0:
226,151,56875,6,0,P|213:152|133:174,1,95.9999970703126,2|2,3:3|0:0,0:0:0:0:
292,220,57323,1,2,3:3:0:0:
253,59,57547,1,8,0:0:0:0:
199,243,57771,2,0,L|186:289,1,47.9999985351563,2|2,3:3|0:3,0:0:0:0:
265,312,57994,2,0,P|278:311|358:289,1,95.9999970703126,2|2,0:0|3:3,0:0:0:0:
428,148,58442,5,8,0:0:0:0:
484,306,58666,1,2,3:3:0:0:
420,125,58890,6,0,P|413:78|431:34,1,95.9999970703126,2|0,0:0|3:2,0:0:0:0:
493,180,59338,1,8,0:0:0:0:
347,70,59562,1,2,3:3:0:0:
347,70,59674,1,2,0:3:0:0:
347,70,59785,1,2,0:0:0:0:
408,215,60009,1,2,3:3:0:0:
431,34,60233,1,8,0:0:0:0:
263,106,60457,6,0,P|216:104|179:75,1,95.9999970703126,2|2,3:3|0:0,0:0:0:0:
136,5,60905,1,2,3:3:0:0:
163,153,61129,1,8,0:0:0:0:
292,31,61353,2,0,P|268:25|245:27,1,47.9999985351563,0|2,3:2|0:3,0:0:0:0:
179,74,61577,1,2,0:0:0:0:
118,0,61800,5,2,3:3:0:0:
263,106,62024,1,8,0:0:0:0:
174,262,62248,1,2,3:3:0:0:
174,262,62472,6,0,P|152:219|151:172,1,95.9999970703126,2|0,0:0|3:2,0:0:0:0:
216,43,62920,1,8,0:0:0:0:
317,177,63144,6,0,L|270:189,1,47.9999985351563,2|2,3:3|0:3,0:0:0:0:
84,236,63368,1,2,0:0:0:0:
340,171,63591,5,2,3:3:0:0:
146,134,63815,1,8,0:0:0:0:
363,165,64039,5,2,3:3:0:0:
253,360,64263,1,2,0:0:0:0:
386,159,64487,5,2,3:3:0:0:
188,23,64711,1,8,0:0:0:0:
409,153,64935,5,2,3:3:0:0:
260,325,65159,1,2,0:0:0:0:
267,290,65271,1,2,0:0:0:0:
274,255,65382,1,2,3:3:0:0:
482,174,65606,5,8,0:0:0:0:
461,208,65718,1,2,0:0:0:0:
426,227,65830,1,2,3:2:0:0:
386,225,65942,1,2,0:0:0:0:
352,203,66054,6,0,P|333:160|345:112,1,95.9999970703126,6|0,0:0|3:2,0:0:0:0:
420,47,66502,1,8,0:0:0:0:
268,181,66726,1,2,3:3:0:0:
268,181,66838,1,2,0:3:0:0:
268,181,66950,1,2,0:0:0:0:
409,153,67174,1,2,3:3:0:0:
279,75,67397,1,8,0:0:0:0:
194,238,67621,6,0,P|191:288|207:331,1,95.9999970703126,2|2,3:3|0:0,0:0:0:0:
268,181,68069,1,2,3:3:0:0:
120,295,68293,1,8,0:0:0:0:
182,146,68517,2,0,P|182:122|175:99,1,47.9999985351563,0|2,3:2|0:3,0:0:0:0:
95,86,68741,2,0,P|92:136|108:179,1,95.9999970703126,2|2,0:0|3:3,0:0:0:0:
218,236,69188,5,8,0:0:0:0:
42,313,69412,1,2,3:3:0:0:
240,227,69636,6,0,P|286:240|316:276,1,95.9999970703126,2|0,0:0|3:2,0:0:0:0:
150,232,70084,1,8,0:0:0:0:
310,170,70308,1,2,3:3:0:0:
310,170,70420,1,2,0:3:0:0:
310,170,70532,1,2,0:0:0:0:
217,314,70756,1,2,3:3:0:0:
207,143,70979,1,8,0:0:0:0:
316,276,71203,6,0,P|323:323|308:369,1,95.9999970703126,2|2,3:3|0:0,0:0:0:0:
240,227,71651,1,2,3:3:0:0:
397,234,71875,1,8,0:0:0:0:
217,314,72099,2,0,P|194:305|176:290,1,47.9999985351563,2|2,3:3|0:3,0:0:0:0:
137,206,72323,2,0,P|166:243|176:290,1,95.9999970703126,2|2,0:0|3:3,0:0:0:0:
94,371,72771,5,8,0:0:0:0:
240,227,72994,1,2,3:3:0:0:
107,112,73218,6,0,P|87:67|89:20,1,95.9999970703126,2|0,0:0|3:2,0:0:0:0:
175,175,73666,1,8,0:0:0:0:
15,102,73890,1,2,3:3:0:0:
15,102,74002,1,2,0:3:0:0:
15,102,74114,1,2,0:0:0:0:
188,67,74338,1,2,3:3:0:0:
69,197,74562,1,8,0:0:0:0:
89,21,74785,6,0,P|109:66|107:113,1,95.9999970703126,2|2,3:3|0:0,0:0:0:0:
69,197,75233,1,2,3:3:0:0:
188,67,75457,1,8,0:0:0:0:
175,175,75681,2,0,P|177:199|185:221,1,47.9999985351563,0|2,3:2|0:3,0:0:0:0:
228,290,75905,1,2,0:0:0:0:
256,108,76129,5,2,3:3:0:0:
156,327,76353,1,8,0:0:0:0:
395,304,76577,1,2,3:3:0:0:
78,289,76800,6,0,P|70:336|87:380,1,95.9999970703126,2|0,0:0|3:2,0:0:0:0:
326,357,77248,1,8,0:0:0:0:
156,327,77472,1,2,3:3:0:0:
156,327,77920,5,2,3:3:0:0:
395,304,78144,1,8,0:0:0:0:
87,380,78368,6,0,P|70:336|78:289,1,95.9999970703126,4|2,3:2|0:0,0:0:0:0:
156,327,78815,1,2,3:3:0:0:
156,327,79263,2,0,P|164:280|147:236,1,95.9999970703126,2|2,3:3|0:0,0:0:0:0:
117,211,79599,5,8,0:0:0:0:
117,211,79711,2,0,B|70:221,1,47.9999985351563,10|8,3:2|0:0,0:0:0:0:
211,191,79935,2,0,B|243:227,1,47.9999985351563,2|10,3:2|0:0,0:0:0:0:
147,120,80159,2,0,B|162:74,1,47.9999985351563,8|2,3:2|0:0,0:0:0:0:
223,0,80382,6,0,P|251:37|257:85,1,95.9999970703126,6|0,0:0|3:2,0:0:0:0:
245,276,80830,2,0,P|217:239|211:191,1,95.9999970703126,8|0,0:0|3:2,0:0:0:0:
222,152,81166,1,2,0:3:0:0:
222,152,81278,1,2,0:0:0:0:
344,13,81502,1,0,3:2:0:0:
306,202,81726,1,8,0:0:0:0:
162,74,81950,6,0,P|115:79|77:108,1,95.9999970703126,0|2,3:2|0:0,0:0:0:0:
222,152,82397,1,0,3:2:0:0:
247,25,82621,1,8,0:0:0:0:
151,169,82845,2,0,P|161:191|177:209,1,47.9999985351563,0|2,3:2|0:3,0:0:0:0:
241,258,83069,1,2,0:0:0:0:
100,230,83293,1,0,3:2:0:0:
100,230,83405,1,2,0:0:0:0:
100,230,83517,1,8,0:0:0:0:
253,87,83741,6,0,P|278:107|292:135,1,63.9999980468751,0|0,3:2|0:0,0:0:0:0:
240,185,83965,6,0,L|336:192,1,95.9999970703126,2|0,0:0|3:2,0:0:0:0:
468,122,84412,2,0,L|372:129,1,95.9999970703126,8|0,0:0|3:2,0:0:0:0:
292,135,84748,1,2,0:3:0:0:
292,135,84860,1,2,0:0:0:0:
417,195,85084,1,0,3:2:0:0:
407,57,85308,1,8,0:0:0:0:
337,201,85532,6,0,P|350:240|392:272,1,95.9999970703126,0|2,3:2|0:0,0:0:0:0:
327,63,85979,2,0,P|287:55|238:75,1,95.9999970703126,0|8,3:2|0:0,0:0:0:0:
452,123,86427,2,0,P|479:92|486:39,1,95.9999970703126,0|2,3:2|0:0,0:0:0:0:
410,10,86763,1,2,0:0:0:0:
410,10,86875,6,0,P|405:33|407:57,1,47.9999985351563,8|2,3:2|0:0,0:0:0:0:
491,149,87099,2,0,P|473:133|452:123,1,47.9999985351563,8|2,0:0|0:0,0:0:0:0:
330,150,87323,2,0,P|353:142|372:129,1,47.9999985351563,2|0,3:2|0:0,0:0:0:0:
410,10,87547,5,6,0:0:0:0:
256,192,87659,12,0,90233,0:0:0:0:
