osu file format v14

[General]
AudioFilename: audio.mp3
AudioLeadIn: 1996
PreviewTime: 51166
Countdown: 0
SampleSet: Soft
StackLeniency: 0.6
Mode: 0
LetterboxInBreaks: 1
WidescreenStoryboard: 1

[Editor]
Bookmarks: 1577,8741,15905,23069,30233,37397,44562,51726,58890,66054,73218,80382,87547
DistanceSpacing: 1.3
BeatDivisor: 8
GridSize: 8
TimelineZoom: 1.34

[Metadata]
Title:irony (TV Size)
TitleUnicode:irony (TV Size)
Artist:ClariS
ArtistUnicode:ClariS
Creator:Kencho
Version:Normal
Source:俺の妹がこんなに可愛いわけがない
Tags:oreimo anime Ore no Imouto ga konna ni Kawaii Wake ga Nai Clara Alice Japanese Pop opening -TV mix- -Claris- Yorita Yoshino
BeatmapID:2150683
BeatmapSetID:1020475

[Difficulty]
HPDrainRate:3.3
CircleSize:3.3
OverallDifficulty:4.3
ApproachRate:5.3
SliderMultiplier:1.6
SliderTickRate:1

[Events]
//Background and Video events
0,0,"BG.jpg",0,0
Video,-950,"video.mp4"
//Break Periods
//Storyboard Layer 0 (Background)
//Storyboard Layer 1 (Fail)
//Storyboard Layer 2 (Pass)
//Storyboard Layer 3 (Foreground)
//Storyboard Layer 4 (Overlay)
//Storyboard Sound Samples

[TimingPoints]
-214,447.761194029851,4,2,1,60,1,0
1129,-142.857142857143,4,2,1,60,0,0
1577,447.761194029851,4,2,1,60,1,0
1577,-142.857142857143,4,2,1,60,0,0
15905,-125,4,2,1,70,0,0
22174,-125,4,2,1,50,0,0
23069,-125,4,2,1,60,0,0
50830,-125,4,2,1,40,0,0
51278,-125,4,2,1,50,0,0
51726,-125,4,2,1,80,0,1
65942,-125,4,2,1,80,0,0
66054,-125,4,2,1,80,0,1
79487,-125,4,2,1,50,0,1
79935,-125,4,2,1,60,0,1
80382,-125,4,2,1,70,0,0
86651,-125,4,2,1,50,0,0
87547,-125,4,2,1,70,0,0
87659,-125,4,2,1,30,0,0
90233,-125,4,2,1,20,0,0

[Colours]
Combo1 : 96,64,64
Combo2 : 255,192,128
Combo3 : 255,128,192
Combo4 : 128,0,64
Combo5 : 64,64,128
Combo6 : 64,128,128

[HitObjects]
468,225,1577,6,0,P|425:225|356:240,1,111.999996582031,0|2,3:2|3:3,0:0:0:0:
314,275,2248,2,0,P|260:289|204:290,1,111.999996582031,0|0,0:0|0:0,0:0:0:0:
103,241,3144,2,0,L|93:124,1,111.999996582031,0|0,0:0|0:0,0:0:0:0:
46,100,3815,2,0,L|51:42,2,55.9999982910157,2|0|0,3:3|0:0|3:2,0:0:0:0:
150,58,4711,2,0,P|177:57|211:67,1,55.9999982910157,2|0,3:3|0:0,0:0:0:0:
256,88,5159,6,0,B|311:96|311:96|361:71,1,111.999996582031,0|2,3:2|3:3,0:0:0:0:
396,27,5830,2,0,B|446:2|446:2|501:10,1,111.999996582031,0|0,0:0|0:0,0:0:0:0:
464,116,6726,2,0,P|459:165|479:225,1,111.999996582031,0|0,0:0|0:0,0:0:0:0:
510,270,7397,2,0,P|510:305|505:330,2,55.9999982910157,2|0|0,3:3|0:0|3:2,0:0:0:0:
400,290,8293,2,0,L|342:301,1,55.9999982910157,2|0,3:3|3:2,0:0:0:0:
296,273,8741,6,0,L|186:294,1,111.999996582031,0|2,3:2|3:3,0:0:0:0:
151,338,9412,2,0,L|41:359,1,111.999996582031,0|0,0:0|0:0,0:0:0:0:
3,253,10308,2,0,P|1:221|28:137,1,111.999996582031,0|0,0:0|0:0,0:0:0:0:
68,111,10979,1,2,3:3:0:0:
68,111,11203,2,0,L|178:132,1,111.999996582031,0|0,0:0|0:0,0:0:0:0:
224,100,11875,2,0,L|282:111,1,55.9999982910157,2|0,3:3|0:0,0:0:0:0:
326,79,12323,6,0,P|321:121|351:206,1,111.999996582031,0|2,3:2|3:3,0:0:0:0:
378,228,12994,1,0,0:0:0:0:
476,173,13442,2,0,L|466:106,1,55.9999982910157,0|2,0:0|3:3,0:0:0:0:
483,64,13890,2,0,P|444:76|405:18,1,111.999996582031,0|0,0:0|0:0,0:0:0:0:
297,62,14785,2,0,P|309:101|251:140,2,111.999996582031,0|8|2,0:0|0:0|0:0,0:0:0:0:
222,25,15905,6,0,L|95:37,1,128,6|8,0:0|0:0,0:0:0:0:
15,185,16800,2,0,P|12:216|20:250,1,64,2|0,0:0|3:2,0:0:0:0:
69,316,17248,1,8,0:0:0:0:
69,316,17472,2,0,B|183:340|145:287|258:312,1,192,0|8,3:2|0:0,0:0:0:0:
331,354,18368,2,0,P|374:360|466:327,1,128,0|0,3:2|3:2,0:0:0:0:
493,262,19039,2,0,P|491:223|478:186,1,64,8|0,0:0|3:2,0:0:0:0:
428,136,19487,6,0,B|368:157|368:157|306:143,1,128,2|8,0:0|0:0,0:0:0:0:
170,42,20382,2,0,B|141:35|141:35|108:46,1,64,2|0,0:0|3:2,0:0:0:0:
22,190,21054,2,0,P|21:247|40:318,1,128,0|0,3:2|3:2,0:0:0:0:
206,295,21950,2,0,P|208:239|189:168,1,128,0|8,3:2|3:2,0:0:0:0:
117,128,22621,2,0,P|108:95|107:60,1,64,8|2,0:0|3:2,0:0:0:0:
165,5,23069,5,6,0:0:0:0:
292,114,23517,2,0,B|324:121|324:121|422:98,1,128,8|2,0:0|0:0,0:0:0:0:
485,51,24188,2,0,P|498:81|499:112,1,64,0|8,3:2|0:0,0:0:0:0:
449,180,24636,2,0,B|426:290|484:262|464:367,1,192,0|8,3:2|0:0,0:0:0:0:
382,348,25532,1,0,3:2:0:0:
382,348,25756,2,0,L|318:360,1,64,2|0,0:0|3:2,0:0:0:0:
244,322,26203,2,0,L|180:334,1,64,8|0,0:0|3:2,0:0:0:0:
102,363,26651,6,0,B|125:336|125:336|105:244,1,128,2|8,0:0|0:0,0:0:0:0:
56,177,27323,2,0,P|117:206|181:208,2,128,0|0|0,3:2|3:2|3:2,0:0:0:0:
156,42,28666,1,0,3:2:0:0:
310,108,29114,2,0,P|339:169|341:233,1,128,0|0,3:2|3:2,0:0:0:0:
293,298,29785,2,0,P|322:311|364:310,1,64,8|0,0:0|3:2,0:0:0:0:
436,294,30233,5,2,0:0:0:0:
504,141,30681,2,0,L|488:11,1,128,8|2,0:0|0:0,0:0:0:0:
411,46,31353,2,0,B|381:58|381:58|347:51,1,64,0|8,3:2|0:0,0:0:0:0:
275,12,31800,2,0,B|214:6|214:6|153:32|153:32|80:23,1,192,0|8,3:2|0:0,0:0:0:0:
13,60,32696,1,0,3:2:0:0:
13,60,32920,2,0,P|6:98|7:126,1,64,2|0,0:0|3:2,0:0:0:0:
58,190,33368,2,0,P|59:222|52:254,1,64,8|0,0:0|3:2,0:0:0:0:
14,328,33815,6,0,L|140:351,1,128,2|8,0:0|0:0,0:0:0:0:
220,325,34487,2,0,L|346:348,2,128,0|0|0,3:2|3:2|3:2,0:0:0:0:
84,226,35830,1,0,3:2:0:0:
219,126,36278,2,0,P|248:187|250:251,1,128,0|0,3:2|3:2,0:0:0:0:
328,280,36950,2,0,P|332:249|340:218,1,64,8|2,0:0|3:2,0:0:0:0:
400,159,37397,6,0,L|207:179,1,192,6|0,0:0|3:2,0:0:0:0:
125,187,38293,2,0,P|174:168|177:41,1,192,2|0,0:0|3:2,0:0:0:0:
120,103,39188,1,2,0:0:0:0:
130,271,39636,1,8,0:0:0:0:
298,261,40084,1,2,0:0:0:0:
288,93,40532,1,8,0:0:0:0:
120,103,40979,6,0,P|87:166|130:271,1,192,2|0,0:0|3:2,0:0:0:0:
198,222,41875,2,0,P|259:204|314:233,1,128,2|8,0:0|0:0,0:0:0:0:
362,301,42547,2,0,P|423:319|478:290,1,128,0|0,3:2|3:2,0:0:0:0:
414,236,43218,1,8,0:0:0:0:
414,236,43442,2,0,P|406:207|409:174,1,64,0|2,3:2|0:0,0:0:0:0:
357,14,44114,2,0,P|365:43|362:76,1,64,8|0,0:0|3:2,0:0:0:0:
281,52,44562,6,0,B|218:47|218:47|161:78|161:78|98:73,1,192,2|0,0:0|3:2,0:0:0:0:
27,28,45457,2,0,P|46:51|52:155,1,128,2|8,0:0|0:0,0:0:0:0:
5,212,46129,2,0,P|1:275|33:329,1,128,0|0,3:2|3:2,0:0:0:0:
108,366,46800,1,8,0:0:0:0:
108,366,47024,2,0,L|172:351,1,64,0|2,3:2|0:0,0:0:0:0:
333,313,47696,2,0,L|397:328,1,64,8|0,0:0|3:2,0:0:0:0:
463,376,48144,6,0,B|435:353|435:353|441:250,1,128,2|8,0:0|0:0,0:0:0:0:
490,194,48815,2,0,L|494:130,1,64,0|2,3:2|0:0,0:0:0:0:
412,110,49263,2,0,L|407:173,1,64,0|8,3:2|0:0,0:0:0:0:
358,242,49711,1,0,3:2:0:0:
285,92,50159,1,0,3:2:0:0:
212,132,50382,2,0,B|154:159|154:159|93:143,1,128,8|2,0:0|0:0,0:0:0:0:
0,282,51278,2,0,L|9:345,1,64,8|2,0:0|3:2,0:0:0:0:
91,327,51726,6,0,B|163:316|142:355|215:344,1,128,6|8,0:0|0:0,0:0:0:0:
285,298,52397,1,2,3:3:0:0:
438,369,52845,1,2,3:3:0:0:
423,202,53293,2,0,L|412:75,1,128,2|2,3:3|3:3,0:0:0:0:
330,95,53965,2,0,B|299:96|299:96|268:85,1,64,8|0,0:0|3:2,0:0:0:0:
198,39,54412,1,2,0:0:0:0:
247,199,54860,2,0,P|217:208|185:207,1,64,8|2,0:0|3:3,0:0:0:0:
107,174,55308,6,0,P|131:193|149:284,1,128,2|8,0:0|0:0,0:0:0:0:
88,342,55979,1,2,3:3:0:0:
18,190,56427,1,2,3:3:0:0:
185,207,56875,2,0,P|249:205|308:182,1,128,2|2,3:3|3:3,0:0:0:0:
358,114,57547,2,0,P|387:102|419:101,1,64,8|2,0:0|3:3,0:0:0:0:
489,149,57994,1,2,0:0:0:0:
406,295,58442,2,0,P|397:324|395:357,1,64,8|2,0:0|3:3,0:0:0:0:
315,384,58890,6,0,P|305:317|271:269,1,128,2|8,0:0|0:0,0:0:0:0:
203,219,59562,1,2,3:3:0:0:
370,234,60009,1,2,3:3:0:0:
231,139,60457,2,0,P|170:141|125:187,1,128,2|2,3:3|3:3,0:0:0:0:
136,270,61129,1,8,0:0:0:0:
136,270,61353,2,0,P|92:315|30:317,1,128,0|2,3:2|3:3,0:0:0:0:
58,238,62024,1,8,0:0:0:0:
23,161,62248,1,2,3:3:0:0:
23,161,62472,6,0,B|64:151|64:151|104:166|104:166|146:156,1,128,2|8,0:0|0:0,0:0:0:0:
111,79,63144,1,2,3:3:0:0:
275,114,63591,1,2,3:3:0:0:
163,238,64039,1,2,3:3:0:0:
327,272,64487,2,0,P|385:247|422:196,1,128,2|2,3:3|3:3,0:0:0:0:
434,112,65159,2,0,P|421:83|396:64,1,64,2|2,0:0|3:3,0:0:0:0:
312,52,65606,2,0,P|283:64|264:90,1,64,8|2,0:0|3:2,0:0:0:0:
253,174,66054,6,0,P|237:173|130:144,1,128,6|8,0:0|0:0,0:0:0:0:
57,101,66726,1,2,3:3:0:0:
109,260,67174,1,2,3:3:0:0:
253,174,67621,2,0,P|269:175|376:204,1,128,2|2,3:3|3:3,0:0:0:0:
431,268,68293,2,0,P|439:268|492:253,1,64,8|0,0:0|3:2,0:0:0:0:
512,171,68741,1,2,0:0:0:0:
354,116,69188,2,0,P|337:91|325:60,1,64,8|2,0:0|3:3,0:0:0:0:
384,0,69636,6,0,L|256:11,1,128,2|8,0:0|0:0,0:0:0:0:
173,18,70308,1,2,3:3:0:0:
270,155,70756,1,2,3:3:0:0:
123,235,71203,2,0,P|98:295|104:358,1,128,2|2,3:3|3:3,0:0:0:0:
185,335,71875,2,0,B|217:328|217:328|246:339,1,64,8|2,0:0|3:3,0:0:0:0:
319,381,72323,1,2,0:0:0:0:
479,330,72771,2,0,P|488:300|488:268,1,64,8|2,0:0|3:3,0:0:0:0:
436,202,73218,6,0,P|435:139|453:78,1,128,2|8,0:0|0:0,0:0:0:0:
509,13,73890,1,2,3:3:0:0:
364,98,74338,1,2,3:3:0:0:
220,13,74785,2,0,P|158:7|100:35,1,128,2|2,3:3|3:3,0:0:0:0:
43,96,75457,1,8,0:0:0:0:
43,96,75681,2,0,L|32:224,1,128,0|2,3:2|3:3,0:0:0:0:
25,308,76353,1,8,0:0:0:0:
107,292,76577,1,2,3:3:0:0:
157,358,76800,6,0,B|229:363|207:326|280:333,1,128,2|8,0:0|0:0,0:0:0:0:
358,364,77472,1,2,3:3:0:0:
372,197,77920,2,0,L|377:134,1,64,2|8,3:3|0:0,0:0:0:0:
326,66,78368,1,4,3:2:0:0:
481,5,78815,1,2,3:3:0:0:
326,66,79263,2,0,P|267:68|242:13,2,128,2|10|8,3:3|3:2|3:2,0:0:0:0:
377,133,80382,6,0,P|376:197|365:260,1,128,6|8,0:0|0:0,0:0:0:0:
228,357,81278,2,0,P|228:326|233:294,1,64,2|0,0:0|3:2,0:0:0:0:
287,229,81726,1,8,0:0:0:0:
287,229,81950,2,0,B|173:253|211:200|98:225,1,192,0|8,3:2|0:0,0:0:0:0:
27,269,82845,2,0,B|51:241|51:241|59:147,1,128,0|0,3:2|3:2,0:0:0:0:
35,69,83517,2,0,P|67:66|98:75,1,64,8|0,0:0|3:2,0:0:0:0:
166,124,83965,6,0,B|293:105,1,128,2|8,0:0|0:0,0:0:0:0:
438,34,84860,2,0,B|428:98,1,64,2|0,0:0|3:2,0:0:0:0:
455,246,85532,2,0,P|451:189|392:191,1,128,0|0,3:2|3:2,0:0:0:0:
282,317,86427,2,0,P|339:313|337:254,1,128,0|8,3:2|3:2,0:0:0:0:
274,199,87099,2,0,P|241:202|212:211,1,64,8|2,0:0|3:2,0:0:0:0:
137,249,87547,5,6,0:0:0:0:
256,192,87659,12,0,90233,0:0:0:0:
