osu file format v14

[General]
AudioFilename: audio.mp3
AudioLeadIn: 1996
PreviewTime: 51166
Countdown: 0
SampleSet: Soft
StackLeniency: 0.5
Mode: 0
LetterboxInBreaks: 1
WidescreenStoryboard: 1

[Editor]
Bookmarks: 1577,8741,15905,23069,30233,37397,44562,51726,58890,66054,73218,80382,87547
DistanceSpacing: 1.5
BeatDivisor: 4
GridSize: 8
TimelineZoom: 1.34

[Metadata]
Title:irony (TV Size)
TitleUnicode:irony (TV Size)
Artist:ClariS
ArtistUnicode:ClariS
Creator:Kencho
Version:Insane
Source:俺の妹がこんなに可愛いわけがない
Tags:oreimo anime Ore no Imouto ga konna ni Kawaii Wake ga Nai Clara Alice Japanese Pop opening -TV mix- -Claris- Yorita Yoshino
BeatmapID:2135206
BeatmapSetID:1020475

[Difficulty]
HPDrainRate:5.3
CircleSize:4.1
OverallDifficulty:7.3
ApproachRate:8.1
SliderMultiplier:1.6
SliderTickRate:1

[Events]
//Background and Video events
Video,-950,"video.mp4"
0,0,"Kuroneko.jpg",0,0
//Break Periods
//Storyboard Layer 0 (Background)
//Storyboard Layer 1 (Fail)
//Storyboard Layer 2 (Pass)
//Storyboard Layer 3 (Foreground)
//Storyboard Layer 4 (Overlay)
//Storyboard Sound Samples

[TimingPoints]
-214,447.761194029851,4,2,1,60,1,0
1129,-125,4,2,1,60,0,0
1577,447.761194029851,4,2,1,60,1,0
1577,-125,4,2,1,60,0,0
15905,-83.3333333333333,4,2,1,70,0,0
22174,-83.3333333333333,4,2,1,50,0,0
23069,-100,4,2,1,60,0,0
50830,-100,4,2,1,40,0,0
51278,-100,4,2,1,50,0,0
51726,-83.3333333333333,4,2,1,80,0,1
65942,-83.3333333333333,4,2,1,80,0,0
66054,-83.3333333333333,4,2,1,80,0,1
79487,-83.3333333333333,4,2,1,50,0,1
79935,-83.3333333333333,4,2,1,60,0,1
80382,-83.3333333333333,4,2,1,70,0,0
86651,-83.3333333333333,4,2,1,50,0,0
87547,-100,4,2,1,70,0,0
87659,-100,4,2,1,30,0,0
90233,-100,4,2,1,20,0,0

[Colours]
Combo1 : 96,64,64
Combo2 : 255,192,128
Combo3 : 255,128,192
Combo4 : 128,0,64
Combo5 : 64,64,128
Combo6 : 64,128,128

[HitObjects]
145,285,1129,6,0,P|137:255|138:223,1,64,0|0,0:0|0:0,0:0:0:0:
232,244,1577,6,0,P|269:246|379:228,1,128,0|2,3:2|3:3,0:0:0:0:
472,146,2248,2,0,P|440:148|408:155,1,64,0|0,0:0|3:2,0:0:0:0:
326,105,2696,2,0,P|312:76|311:25,1,64,0|2,0:0|3:3,0:0:0:0:
198,10,3144,6,0,P|199:49|181:156,1,128,0|0,0:0|0:0,0:0:0:0:
97,171,3815,2,0,L|30:160,1,64,2|0,3:3|0:0,0:0:0:0:
172,232,4263,2,0,P|176:276|164:319,1,64,0|0,3:2|0:0,0:0:0:0:
83,329,4711,2,0,L|2:316,1,64,2|0,3:3|0:0,0:0:0:0:
173,295,5159,6,0,L|302:315,1,128,0|2,3:2|3:3,0:0:0:0:
419,360,5830,2,0,P|405:323|406:292,1,64,0|0,0:0|3:2,0:0:0:0:
497,223,6278,2,0,P|511:260|510:291,1,64,0|2,0:0|3:3,0:0:0:0:
405,188,6726,6,0,P|446:138|506:125,1,128,0|0,0:0|0:0,0:0:0:0:
425,41,7397,2,0,P|396:54|371:74,1,64,2|0,3:3|0:0,0:0:0:0:
282,167,7845,2,0,L|272:104,1,64,0|0,3:2|0:0,0:0:0:0:
243,65,8181,1,0,0:0:0:0:
243,65,8293,2,0,L|247:33,3,32,2|0|0|0,3:3|3:2|3:2|3:2,0:0:0:0:
147,93,8741,6,0,L|168:219,1,128,0|2,3:2|3:3,0:0:0:0:
81,320,9412,2,0,L|94:239,1,64,0|0,0:0|3:2,0:0:0:0:
33,120,9860,2,0,L|46:201,1,64,0|2,0:0|3:3,0:0:0:0:
245,181,10308,6,0,P|199:139|137:139,1,128,0|0,0:0|0:0,0:0:0:0:
168,219,10979,1,2,3:3:0:0:
322,143,11203,2,0,B|365:140|365:140|403:158|403:158|446:155,1,128,0|0,0:0|0:0,0:0:0:0:
418,76,11875,1,2,3:3:0:0:
350,222,12099,1,0,0:0:0:0:
350,222,12323,6,0,B|311:233|311:233|226:217,1,128,0|2,3:2|3:3,0:0:0:0:
230,92,12994,2,0,B|241:131|241:131|225:216,1,128,0|0,0:0|0:0,0:0:0:0:
172,298,13666,1,2,3:3:0:0:
66,222,13890,6,0,P|97:213|128:211,1,64,0|2,0:0|3:2,0:0:0:0:
213,347,14338,2,0,P|189:324|172:298,1,64,0|2,0:0|3:3,0:0:0:0:
182,130,14785,1,0,0:0:0:0:
225,217,15009,5,2,3:2:0:0:
193,227,15121,1,8,0:0:0:0:
160,224,15233,1,8,0:0:0:0:
129,211,15345,1,2,0:0:0:0:
104,188,15457,2,0,L|99:157,1,32,2|8,3:3|0:0,0:0:0:0:
187,98,15681,2,0,L|182:129,1,32,2|2,0:0|0:0,0:0:0:0:
128,22,15905,6,0,P|173:2|218:7,1,95.9999970703126,6|0,0:0|3:2,0:0:0:0:
369,111,16353,2,0,P|324:131|279:126,1,95.9999970703126,8|0,0:0|3:2,0:0:0:0:
187,98,16800,1,2,0:0:0:0:
248,217,17024,1,0,3:2:0:0:
310,35,17248,1,8,0:0:0:0:
227,235,17472,6,0,P|182:255|137:250,1,95.9999970703126,0|2,3:2|0:0,0:0:0:0:
15,100,17920,2,0,L|30:194,1,95.9999970703126,0|8,3:2|0:0,0:0:0:0:
152,345,18368,2,0,L|137:251,1,95.9999970703126,0|2,3:2|0:0,0:0:0:0:
114,108,18815,1,0,3:2:0:0:
216,210,19039,1,8,0:0:0:0:
74,188,19263,1,0,3:2:0:0:
295,170,19487,6,0,P|341:163|378:133,1,95.9999970703126,2|0,0:0|3:2,0:0:0:0:
498,268,19935,2,0,P|452:261|415:231,1,95.9999970703126,8|0,0:0|3:2,0:0:0:0:
398,102,20382,1,2,0:0:0:0:
486,183,20606,1,0,3:2:0:0:
512,66,20830,1,8,0:0:0:0:
343,168,21054,6,0,P|322:210|323:258,1,95.9999970703126,0|2,3:2|0:0,0:0:0:0:
482,293,21502,2,0,P|456:253|414:230,1,95.9999970703126,0|8,3:2|0:0,0:0:0:0:
305,351,21950,2,0,P|351:348|392:323,1,95.9999970703126,0|2,3:2|0:0,0:0:0:0:
393,323,22285,1,2,0:0:0:0:
393,323,22397,6,0,L|403:370,1,47.9999985351563,8|2,3:2|0:0,0:0:0:0:
492,246,22621,2,0,L|482:293,1,47.9999985351563,8|2,0:0|0:0,0:0:0:0:
393,169,22845,2,0,L|403:216,1,47.9999985351563,2|0,3:2|0:0,0:0:0:0:
492,106,23069,5,6,0:0:0:0:
492,106,23517,2,0,P|490:66|482:27,1,80,8|0,0:0|3:2,0:0:0:0:
378,102,23965,1,2,0:0:0:0:
433,171,24188,2,0,B|468:191|468:191|507:192,1,80,0|8,3:2|0:0,0:0:0:0:
346,184,24636,6,0,P|331:225|332:260,1,80,0|2,3:2|0:0,0:0:0:0:
479,314,25084,2,0,P|438:299|403:300,1,80,0|8,3:2|0:0,0:0:0:0:
293,331,25532,1,0,3:2:0:0:
332,261,25756,5,2,0:0:0:0:
363,370,25979,1,0,3:2:0:0:
433,191,26203,5,8,0:0:0:0:
402,300,26427,1,0,3:2:0:0:
262,222,26651,6,0,P|223:222|185:234,1,80,2|0,0:0|3:2,0:0:0:0:
94,289,27099,1,8,0:0:0:0:
153,134,27323,2,0,P|153:95|141:57,1,80,0|2,3:2|0:0,0:0:0:0:
82,211,27771,2,0,P|82:250|94:288,1,80,0|8,3:2|0:0,0:0:0:0:
153,134,28218,6,0,P|119:114|80:105,1,80,0|2,3:2|0:0,0:0:0:0:
184,234,28666,2,0,P|217:214|244:185,1,80,0|8,3:2|0:0,0:0:0:0:
82,211,29114,2,0,P|82:250|94:288,1,80,0|2,3:2|0:0,0:0:0:0:
245,184,29562,5,0,3:2:0:0:
80,106,29785,1,8,0:0:0:0:
94,289,30009,1,0,3:2:0:0:
140,193,30233,5,2,0:0:0:0:
245,184,30457,1,0,3:2:0:0:
245,184,30569,1,2,0:3:0:0:
245,184,30681,2,0,P|284:186|320:204,1,80,8|0,0:0|3:2,0:0:0:0:
331,216,31017,1,2,0:3:0:0:
331,216,31129,1,2,0:0:0:0:
363,373,31353,2,0,L|347:294,1,80,0|8,3:2|0:0,0:0:0:0:
423,163,31800,6,0,L|407:242,1,80,0|2,3:2|0:0,0:0:0:0:
263,308,32248,2,0,L|271:269,1,40,0|2,3:2|0:3,0:0:0:0:
339,177,32472,2,0,L|331:216,1,40,8|2,0:0|0:0,0:0:0:0:
187,282,32696,2,0,L|195:243,1,40,0|2,3:2|0:3,0:0:0:0:
255,191,32920,5,2,0:0:0:0:
347,294,33144,1,0,3:2:0:0:
315,138,33368,5,8,0:0:0:0:
271,269,33591,1,0,3:2:0:0:
407,241,33815,6,0,P|425:277|424:316,1,80,2|0,0:0|3:2,0:0:0:0:
387,380,34151,1,2,0:3:0:0:
387,380,34263,2,0,L|348:372,1,40,8|2,0:0|0:0,0:0:0:0:
269,310,34487,2,0,L|348:294,1,80,0|2,3:2|0:0,0:0:0:0:
181,365,34935,2,0,P|142:356|110:334,1,80,0|8,3:2|0:0,0:0:0:0:
62,201,35382,6,0,P|65:166|74:123,1,80,0|2,3:2|0:0,0:0:0:0:
219,54,35830,2,0,L|225:93,2,40,0|2|8,3:2|0:3|0:0,0:0:0:0:
242,223,36278,2,0,L|248:184,2,40,0|2|2,3:2|0:3|0:0,0:0:0:0:
305,67,36726,5,0,3:2:0:0:
165,149,36950,1,8,0:0:0:0:
316,247,37174,1,2,3:2:0:0:
178,68,37397,6,0,P|119:81|87:176,1,160,6|8,0:0|0:0,0:0:0:0:
133,294,38069,1,0,3:2:0:0:
228,142,38293,2,0,P|287:155|319:250,1,160,2|8,0:0|0:0,0:0:0:0:
273,368,38965,1,0,3:2:0:0:
166,246,39188,6,0,P|202:229|241:223,1,80,2|0,0:0|3:2,0:0:0:0:
424,304,39636,2,0,P|384:296|349:278,1,80,8|0,0:0|3:2,0:0:0:0:
249,105,40084,2,0,P|276:133|294:169,1,80,2|0,0:0|3:2,0:0:0:0:
273,368,40532,2,0,P|267:328|274:289,1,80,8|0,0:0|3:2,0:0:0:0:
457,79,40979,6,0,P|419:148|362:205,1,160,2|8,0:0|0:0,0:0:0:0:
268,100,41651,1,0,3:2:0:0:
291,238,41875,2,0,P|329:228|362:204,1,80,2|0,0:0|3:2,0:0:0:0:
349,49,42323,1,8,0:0:0:0:
452,231,42547,6,0,P|455:192|442:154,1,80,0|2,3:2|0:0,0:0:0:0:
268,100,42994,1,0,3:2:0:0:
442,154,43218,1,8,0:0:0:0:
349,49,43442,2,0,B|362:101|362:101|349:152|349:152|361:204,1,160,0|0,3:2|3:2,0:0:0:0:
268,100,44114,5,8,0:0:0:0:
442,154,44338,1,0,3:2:0:0:
251,95,44562,6,0,P|214:100|93:125,1,160,2|8,0:0|0:0,0:0:0:0:
189,198,45233,1,0,3:2:0:0:
316,44,45457,2,0,P|332:80|330:119,1,80,2|0,0:0|3:2,0:0:0:0:
215,7,45905,1,8,0:0:0:0:
406,31,46129,6,0,P|369:45|329:48,1,80,0|2,3:2|0:0,0:0:0:0:
219,22,46577,1,0,3:2:0:0:
341,153,46800,1,8,0:0:0:0:
158,109,47024,2,0,P|118:111|80:125,1,80,0|2,3:2|0:0,0:0:0:0:
143,223,47472,1,0,3:2:0:0:
96,12,47696,5,8,0:0:0:0:
242,160,47920,1,0,3:2:0:0:
398,22,48144,6,0,P|451:18|509:105,1,160,2|8,0:0|0:0,0:0:0:0:
374,215,48815,2,0,P|366:182|359:126,1,80,0|2,3:2|0:0,0:0:0:0:
499,292,49263,2,0,P|493:332|484:371,1,80,0|8,3:2|0:0,0:0:0:0:
260,384,49711,6,0,P|295:315|371:309,1,160,0|0,3:2|3:2,0:0:0:0:
501,214,50382,1,8,0:0:0:0:
472,207,50494,1,2,0:0:0:0:
443,200,50606,1,0,3:2:0:0:
352,68,50830,2,0,L|358:115,1,40,2|2,0:0|0:0,0:0:0:0:
283,230,51054,2,0,L|290:185,1,40,2|2,3:2|0:0,0:0:0:0:
192,98,51278,5,8,0:0:0:0:
160,93,51390,1,8,0:0:0:0:
129,101,51502,1,2,3:2:0:0:
105,122,51614,1,2,0:0:0:0:
94,152,51726,6,0,L|105:248,1,95.9999970703126,6|0,0:0|3:2,0:0:0:0:
120,375,52174,1,8,0:0:0:0:
215,209,52397,2,0,B|263:203|263:203|308:217,1,95.9999970703126,2|2,3:3|0:0,0:0:0:0:
350,362,52845,2,0,B|302:368|302:368|257:354,1,95.9999970703126,2|8,3:3|0:0,0:0:0:0:
414,151,53293,6,0,P|430:196|430:243,1,95.9999970703126,2|2,3:3|0:0,0:0:0:0:
350,362,53741,1,2,3:3:0:0:
309,217,53965,1,8,0:0:0:0:
367,366,54188,1,0,3:2:0:0:
465,229,54412,2,0,P|465:182|449:137,1,95.9999970703126,2|2,0:0|3:3,0:0:0:0:
292,213,54860,5,8,0:0:0:0:
384,370,55084,1,2,3:3:0:0:
180,307,55308,6,0,P|133:314|98:345,1,95.9999970703126,2|0,0:0|3:2,0:0:0:0:
284,350,55756,1,8,0:0:0:0:
316,200,55979,2,0,P|267:201|218:211,1,95.9999970703126,2|2,3:3|0:0,0:0:0:0:
24,135,56427,2,0,P|73:136|122:146,1,95.9999970703126,2|8,3:3|0:0,0:0:0:0:
147,323,56875,6,0,P|137:276|136:229,1,95.9999970703126,2|2,3:3|0:0,0:0:0:0:
196,88,57323,1,2,3:3:0:0:
221,210,57547,1,8,0:0:0:0:
273,31,57771,1,2,3:3:0:0:
119,145,57994,2,0,P|71:145|24:135,1,95.9999970703126,2|2,0:0|3:3,0:0:0:0:
132,30,58442,5,8,0:0:0:0:
221,210,58666,1,2,3:3:0:0:
24,135,58890,6,0,P|10:179|14:232,1,95.9999970703126,2|0,0:0|3:2,0:0:0:0:
137,320,59338,1,8,0:0:0:0:
236,187,59562,2,0,L|137:197,1,95.9999970703126,2|2,3:3|0:0,0:0:0:0:
284,384,60009,2,0,P|298:340|294:287,1,95.9999970703126,2|8,3:3|0:0,0:0:0:0:
141,197,60457,6,0,L|42:207,1,95.9999970703126,2|2,3:3|0:0,0:0:0:0:
184,115,60905,1,2,3:3:0:0:
98,279,61129,1,8,0:0:0:0:
283,139,61353,2,0,P|283:91|258:44,1,95.9999970703126,0|2,3:2|0:0,0:0:0:0:
141,197,61800,5,2,3:3:0:0:
357,185,62024,1,8,0:0:0:0:
172,32,62248,1,2,3:3:0:0:
172,32,62472,6,0,L|155:126,1,95.9999970703126,2|0,0:0|3:2,0:0:0:0:
129,269,62920,1,8,0:0:0:0:
255,118,63144,5,2,3:3:0:0:
304,253,63368,1,2,0:0:0:0:
244,92,63591,5,2,3:3:0:0:
213,332,63815,1,8,0:0:0:0:
334,57,64039,5,2,3:3:0:0:
155,127,64263,1,2,0:0:0:0:
293,222,64487,5,2,3:3:0:0:
218,19,64711,1,8,0:0:0:0:
129,269,64935,5,2,3:3:0:0:
383,196,65159,1,2,0:0:0:0:
418,202,65271,1,2,0:0:0:0:
453,208,65382,1,2,3:3:0:0:
226,227,65606,5,8,0:0:0:0:
197,223,65718,1,2,0:0:0:0:
169,229,65830,1,2,3:2:0:0:
146,246,65942,1,2,0:0:0:0:
129,269,66054,6,0,P|110:315|109:368,1,95.9999970703126,6|0,0:0|3:2,0:0:0:0:
226,227,66502,1,8,0:0:0:0:
142,164,66726,2,0,P|130:165|44:179,1,95.9999970703126,2|2,3:3|0:0,0:0:0:0:
310,290,67174,2,0,P|322:289|408:275,1,95.9999970703126,2|8,3:3|0:0,0:0:0:0:
240,132,67621,6,0,P|231:180|226:226,1,95.9999970703126,2|2,3:3|0:0,0:0:0:0:
310,290,68069,1,2,3:3:0:0:
323,185,68293,1,8,0:0:0:0:
213,332,68517,1,0,3:2:0:0:
142,164,68741,2,0,P|133:116|128:70,1,95.9999970703126,2|2,0:0|3:3,0:0:0:0:
226,227,69188,5,8,0:0:0:0:
47,178,69412,1,2,3:3:0:0:
245,229,69636,6,0,P|257:228|343:214,1,95.9999970703126,2|0,0:0|3:2,0:0:0:0:
462,138,70084,1,8,0:0:0:0:
367,305,70308,2,0,P|347:262|340:215,1,95.9999970703126,2|2,3:3|0:0,0:0:0:0:
256,41,70756,2,0,L|256:137,1,95.9999970703126,2|8,3:3|0:0,0:0:0:0:
145,305,71203,6,0,P|165:262|172:215,1,95.9999970703126,2|2,3:3|0:0,0:0:0:0:
108,106,71651,1,2,3:3:0:0:
256,164,71875,1,8,0:0:0:0:
94,0,72099,1,2,3:3:0:0:
338,95,72323,2,0,B|386:92|386:92|427:66,1,95.9999970703126,2|2,0:0|3:3,0:0:0:0:
356,1,72771,5,8,0:0:0:0:
256,164,72994,1,2,3:3:0:0:
455,248,73218,6,0,P|476:292|478:339,1,95.9999970703126,2|0,0:0|3:2,0:0:0:0:
361,185,73666,1,8,0:0:0:0:
283,306,73890,2,0,B|235:303|235:303|194:277,1,95.9999970703126,2|2,3:3|0:0,0:0:0:0:
338,95,74338,2,0,P|359:139|361:186,1,95.9999970703126,2|8,3:3|0:0,0:0:0:0:
106,190,74785,6,0,L|118:95,1,95.9999970703126,2|2,3:3|0:0,0:0:0:0:
94,285,75233,1,2,3:3:0:0:
195,153,75457,1,8,0:0:0:0:
17,227,75681,2,0,P|9:180|26:136,1,95.9999970703126,0|2,3:2|0:0,0:0:0:0:
207,58,76129,5,2,3:3:0:0:
106,190,76353,1,8,0:0:0:0:
130,0,76577,1,2,3:3:0:0:
272,211,76800,6,0,P|320:211|363:190,1,95.9999970703126,2|0,0:0|3:2,0:0:0:0:
207,58,77248,1,8,0:0:0:0:
171,343,77472,1,2,3:3:0:0:
171,343,77920,5,2,3:3:0:0:
207,58,78144,1,8,0:0:0:0:
438,232,78368,5,4,3:2:0:0:
429,240,78815,1,2,3:3:0:0:
420,248,79263,2,0,P|375:264|328:257,1,95.9999970703126,2|2,3:3|0:0,0:0:0:0:
294,247,79599,5,8,0:0:0:0:
294,247,79711,2,0,L|301:294,1,47.9999985351563,10|8,3:2|0:0,0:0:0:0:
225,354,79935,2,0,L|218:307,1,47.9999985351563,2|10,3:2|0:0,0:0:0:0:
128,271,80159,2,0,L|135:318,1,47.9999985351563,8|2,3:2|0:0,0:0:0:0:
59,378,80382,6,0,L|45:284,1,95.9999970703126,6|0,0:0|3:2,0:0:0:0:
204,212,80830,2,0,L|218:306,1,95.9999970703126,8|0,0:0|3:2,0:0:0:0:
114,176,81278,1,2,0:0:0:0:
294,247,81502,1,0,3:2:0:0:
142,366,81726,1,8,0:0:0:0:
312,233,81950,6,0,P|318:183|302:142,1,95.9999970703126,0|2,3:2|0:0,0:0:0:0:
127,183,82397,2,0,P|174:192|222:197,1,95.9999970703126,0|8,3:2|0:0,0:0:0:0:
335,41,82845,2,0,P|321:42|241:55,1,95.9999970703126,0|2,3:2|0:0,0:0:0:0:
127,183,83293,1,0,3:2:0:0:
302,142,83517,1,8,0:0:0:0:
145,78,83741,1,0,3:2:0:0:
287,237,83965,6,0,P|334:233|373:206,1,95.9999970703126,2|0,0:0|3:2,0:0:0:0:
401,16,84412,2,0,P|354:20|315:47,1,95.9999970703126,8|0,0:0|3:2,0:0:0:0:
446,260,84860,1,2,0:0:0:0:
386,111,85084,1,0,3:2:0:0:
287,237,85308,1,8,0:0:0:0:
450,180,85532,6,0,P|475:143|479:92,1,95.9999970703126,0|2,3:2|0:0,0:0:0:0:
297,131,85979,2,0,P|316:171|358:200,1,95.9999970703126,0|8,3:2|0:0,0:0:0:0:
417,22,86427,2,0,P|372:18|326:40,1,95.9999970703126,0|2,3:2|0:0,0:0:0:0:
304,61,86763,1,2,0:0:0:0:
304,61,86875,6,0,L|291:5,1,47.9999985351563,8|2,3:2|0:0,0:0:0:0:
212,141,87099,2,0,L|223:81,1,47.9999985351563,8|2,0:0|0:0,0:0:0:0:
322,235,87323,2,0,L|310:177,1,47.9999985351563,2|0,3:2|0:0,0:0:0:0:
227,319,87547,5,6,0:0:0:0:
256,192,87659,12,0,90233,0:0:0:0:
