osu file format v14

[General]
AudioFilename: audio.mp3
AudioLeadIn: 1996
PreviewTime: 51166
Countdown: 0
SampleSet: Soft
StackLeniency: 0.5
Mode: 0
LetterboxInBreaks: 1
WidescreenStoryboard: 1

[Editor]
Bookmarks: 1577,8741,15905,23069,30233,37397,44562,51726,58890,66054,73218,80382,87547
DistanceSpacing: 1.3
BeatDivisor: 4
GridSize: 8
TimelineZoom: 1.34

[Metadata]
Title:irony (TV Size)
TitleUnicode:irony (TV Size)
Artist:ClariS
ArtistUnicode:ClariS
Creator:Kencho
Version:ClariS' Insane
Source:俺の妹がこんなに可愛いわけがない
Tags:oreimo anime Ore no Imouto ga konna ni Kawaii Wake ga Nai Clara Alice Japanese Pop opening -TV mix- -Claris- Yorita Yoshino
BeatmapID:2173432
BeatmapSetID:1020475

[Difficulty]
HPDrainRate:5.1
CircleSize:4.3
OverallDifficulty:6.9
ApproachRate:7.7
SliderMultiplier:1.8
SliderTickRate:1

[Events]
//Background and Video events
Video,-950,"video.mp4"
0,0,"ClariS.jpg",0,0
//Break Periods
//Storyboard Layer 0 (Background)
//Storyboard Layer 1 (Fail)
//Storyboard Layer 2 (Pass)
//Storyboard Layer 3 (Foreground)
//Storyboard Layer 4 (Overlay)
//Storyboard Sound Samples

[TimingPoints]
-214,447.761194029851,4,2,1,60,1,0
1129,-133.333333333333,4,2,1,60,0,0
1577,447.761194029851,4,2,1,60,1,0
1577,-133.333333333333,4,2,1,60,0,0
15905,-100,4,2,1,70,0,0
22174,-100,4,2,1,50,0,0
23069,-100,4,2,1,60,0,0
50830,-100,4,2,1,40,0,0
51278,-100,4,2,1,50,0,0
51726,-83.3333333333333,4,2,1,80,0,1
79487,-83.3333333333333,4,2,1,50,0,1
79935,-83.3333333333333,4,2,1,60,0,1
80382,-100,4,2,1,70,0,0
84412,-66.6666666666667,4,2,1,70,0,0
85308,-100,4,2,1,70,0,0
86651,-100,4,2,1,50,0,0
87547,-100,4,2,1,70,0,0
87659,-100,4,2,1,30,0,0
90233,-100,4,2,1,20,0,0

[Colours]
Combo1 : 96,64,64
Combo2 : 255,192,128
Combo3 : 255,128,192
Combo4 : 128,0,64
Combo5 : 64,64,128
Combo6 : 64,128,128

[HitObjects]
62,194,1129,6,0,L|48:275,1,67.5000025749208,0|0,0:0|0:0,0:0:0:0:
106,321,1577,6,0,P|177:312|217:239,1,135.000005149842,0|2,3:2|3:3,0:0:0:0:
168,79,2248,2,0,B|140:160|140:160|165:202,1,135.000005149842,0|0,0:0|0:0,0:0:0:0:
244,191,2920,1,2,3:3:0:0:
278,363,3144,6,0,P|343:311|407:334,1,135.000005149842,0|0,0:0|0:0,0:0:0:0:
475,335,3815,2,0,P|462:285|475:255,1,67.5000025749208,2|0,3:3|0:0,0:0:0:0:
505,192,4263,1,0,3:2:0:0:
438,134,4487,1,0,0:0:0:0:
368,187,4711,2,0,P|329:199|289:190,1,67.5000025749208,2|0,3:3|0:0,0:0:0:0:
157,19,5159,6,0,P|194:32|229:27,2,67.5000025749208,0|0|2,3:2|0:0|3:3,0:0:0:0:
77,36,5830,2,0,P|41:105|72:173,1,135.000005149842,0|0,0:0|0:0,0:0:0:0:
142,191,6502,1,2,3:3:0:0:
16,357,6726,6,0,B|54:357|54:357|107:318|107:318|156:328,1,135.000005149842,0|0,0:0|0:0,0:0:0:0:
202,377,7397,1,2,3:3:0:0:
202,377,7621,1,0,0:0:0:0:
288,383,7845,2,0,P|290:354|271:317,1,67.5000025749208,0|0,3:2|0:0,0:0:0:0:
293,332,8181,1,0,0:0:0:0:
309,338,8293,1,2,3:3:0:0:
326,338,8405,1,0,3:2:0:0:
342,335,8517,1,0,3:2:0:0:
512,200,8741,6,0,P|454:231|390:214,1,135.000005149842,0|2,3:2|3:3,0:0:0:0:
352,44,9412,2,0,B|313:22|313:22|328:125,1,135.000005149842,0|0,0:0|0:0,0:0:0:0:
406,132,10084,1,2,3:3:0:0:
237,92,10308,6,0,L|95:117,1,135.000005149842,0|0,0:0|0:0,0:0:0:0:
39,181,10979,1,2,3:3:0:0:
139,353,11203,6,0,P|162:290|121:229,1,135.000005149842,0|0,0:0|0:0,0:0:0:0:
17,306,11875,2,0,P|59:306|89:293,1,67.5000025749208,2|0,3:3|0:0,0:0:0:0:
263,269,12323,5,0,3:2:0:0:
343,274,12547,1,0,0:0:0:0:
337,355,12771,1,2,3:3:0:0:
257,349,12994,1,0,0:0:0:0:
257,349,13442,5,0,0:0:0:0:
343,274,13666,2,0,P|364:217|346:158,1,101.250003862381,2|0,3:3|0:0,0:0:0:0:
345,147,14114,1,2,3:2:0:0:
256,192,14226,12,2,15681,0:0:0:0:
80,240,15905,6,0,P|141:228|180:241,1,90,6|0,0:0|3:2,0:0:0:0:
274,328,16353,2,0,P|318:335|360:322,1,90,8|0,0:0|3:2,0:0:0:0:
267,227,16800,1,2,0:0:0:0:
173,335,17024,1,0,3:2:0:0:
166,234,17248,1,8,0:0:0:0:
274,328,17472,6,0,P|318:335|360:322,1,90,0|2,3:2|0:0,0:0:0:0:
400,153,17920,2,0,P|371:187|362:230,1,90,0|8,3:2|0:0,0:0:0:0:
444,350,18368,1,0,3:2:0:0:
362,231,18591,1,2,0:0:0:0:
360,321,18815,1,0,3:2:0:0:
498,280,19039,1,8,0:0:0:0:
444,350,19263,1,0,3:2:0:0:
446,205,19487,6,0,B|438:134|470:83|470:83|455:32,1,180,2|8,0:0|0:0,0:0:0:0:
379,77,20159,1,0,3:2:0:0:
280,0,20382,1,2,0:0:0:0:
224,63,20606,2,0,P|221:94|255:158,1,90,0|8,3:2|0:0,0:0:0:0:
333,200,21054,6,0,P|382:198|415:251,1,90,0|2,3:2|0:0,0:0:0:0:
294,284,21502,2,0,P|292:234|345:201,1,90,0|8,3:2|0:0,0:0:0:0:
375,319,21950,2,0,P|325:320|292:267,1,90,0|2,3:2|0:0,0:0:0:0:
453,282,22397,1,8,3:2:0:0:
457,292,22509,1,2,0:0:0:0:
462,300,22621,2,0,P|465:320|461:344,3,45,8|2|2|0,0:0|0:0|3:2|0:0,0:0:0:0:
375,319,23069,5,6,0:0:0:0:
375,319,23517,6,0,P|334:336|290:330,1,90,8|0,0:0|3:2,0:0:0:0:
171,263,23965,1,2,0:0:0:0:
171,263,24188,2,0,P|92:270|69:295,1,90,0|8,3:2|0:0,0:0:0:0:
257,251,24636,6,0,B|269:227|269:227|241:140,1,90,0|2,3:2|0:0,0:0:0:0:
132,84,25084,2,0,B|144:108|144:108|116:195,1,90,0|8,3:2|0:0,0:0:0:0:
26,120,25532,1,0,3:2:0:0:
75,21,25756,1,2,0:0:0:0:
174,70,25979,1,0,3:2:0:0:
125,169,26203,1,8,0:0:0:0:
26,120,26427,1,0,3:2:0:0:
174,70,26651,6,0,P|223:66|276:115,1,90,2|0,0:0|3:2,0:0:0:0:
337,34,27099,1,8,0:0:0:0:
337,34,27323,2,0,P|386:38|439:-11,1,90,0|2,3:2|0:0,0:0:0:0:
335,128,27771,2,0,P|356:172|424:193,1,90,0|8,3:2|0:0,0:0:0:0:
504,227,28218,1,0,3:2:0:0:
504,227,28330,1,2,0:3:0:0:
504,227,28442,5,2,0:0:0:0:
357,358,28666,2,0,P|297:345|278:282,1,90,0|8,3:2|0:0,0:0:0:0:
330,230,29114,2,0,P|390:243|409:306,1,90,0|2,3:2|0:0,0:0:0:0:
281,324,29562,1,0,3:2:0:0:
281,324,29785,1,8,0:0:0:0:
217,199,30009,1,0,3:2:0:0:
211,377,30233,5,2,0:0:0:0:
79,317,30457,1,0,3:2:0:0:
68,310,30569,1,2,0:3:0:0:
59,304,30681,2,0,L|66:260,3,45,8|2|0|2,0:0|0:0|3:2|0:3,0:0:0:0:
95,234,31129,2,0,P|97:163|61:115,1,90,2|0,0:0|3:2,0:0:0:0:
23,34,31577,1,8,0:0:0:0:
160,85,31800,6,0,P|220:88|258:75,1,90,0|2,3:2|0:0,0:0:0:0:
424,139,32248,2,0,P|379:134|336:145,1,90,0|8,3:2|0:0,0:0:0:0:
322,256,32696,1,0,3:2:0:0:
322,256,32808,1,2,0:3:0:0:
322,256,32920,2,0,B|306:273|306:273|331:361,1,90,2|0,0:0|3:2,0:0:0:0:
499,301,33368,2,0,P|461:277|418:284,1,90,8|0,0:0|3:2,0:0:0:0:
440,364,33815,5,2,0:0:0:0:
393,210,34039,1,0,3:2:0:0:
389,191,34151,1,2,0:3:0:0:
384,174,34263,2,0,P|406:166|428:168,1,45,8|2,0:0|0:0,0:0:0:0:
352,110,34487,2,0,P|330:102|308:104,1,45,0|2,3:2|0:3,0:0:0:0:
405,55,34711,2,0,L|498:67,2,90,2|0|8,0:0|3:2|0:0,0:0:0:0:
313,17,35382,6,0,L|223:28,1,90,0|2,3:2|0:0,0:0:0:0:
126,113,35830,1,0,3:2:0:0:
138,81,35942,1,2,0:3:0:0:
135,48,36054,1,8,0:0:0:0:
117,20,36166,1,2,0:0:0:0:
89,2,36278,6,0,P|61:29|26:31,2,45,0|2|2,3:2|0:3|0:0,0:0:0:0:
64,163,36726,1,0,3:2:0:0:
238,154,36950,1,8,0:0:0:0:
138,81,37174,1,2,3:2:0:0:
309,71,37397,6,0,L|410:62,1,90,6|0,0:0|3:2,0:0:0:0:
337,145,37845,2,0,L|438:136,1,90,8|0,0:0|3:2,0:0:0:0:
478,72,38293,1,2,0:0:0:0:
478,72,38405,1,2,0:3:0:0:
478,72,38517,1,0,3:2:0:0:
456,214,38741,2,0,L|366:221,1,90,8|0,0:0|3:2,0:0:0:0:
287,299,39188,6,0,L|206:293,2,45,2|0|0,0:0|0:0|3:2,0:0:0:0:
149,340,39636,2,0,L|68:334,2,45,8|2|0,0:0|0:0|3:2,0:0:0:0:
47,226,40084,2,0,L|91:229,2,45,2|0|0,0:0|0:0|3:2,0:0:0:0:
185,185,40532,2,0,L|229:188,2,45,8|0|0,0:0|0:0|3:2,0:0:0:0:
123,72,40979,6,0,B|124:51|117:21|117:21|34:19|20:122,1,180,2|8,0:0|0:0,0:0:0:0:
109,172,41651,1,0,3:2:0:0:
40,310,41875,2,0,P|21:269|24:217,2,90,2|0|8,0:0|3:2|0:0,0:0:0:0:
140,365,42547,1,0,3:2:0:0:
140,365,42771,6,0,L|249:343,1,90,2|0,0:0|3:2,0:0:0:0:
339,319,43218,1,8,0:0:0:0:
470,365,43442,1,0,3:2:0:0:
470,365,43554,1,2,0:3:0:0:
470,365,43666,2,0,P|455:315|460:276,1,90,2|0,0:0|3:2,0:0:0:0:
501,165,44114,2,0,L|456:169,3,45,8|0|0|2,0:0|0:0|3:2|0:3,0:0:0:0:
429,171,44562,5,2,0:0:0:0:
429,171,44785,2,0,L|440:53,1,90,0|8,3:2|0:0,0:0:0:0:
365,0,45233,1,0,3:2:0:0:
301,153,45457,1,2,0:0:0:0:
301,153,45569,1,2,0:3:0:0:
301,153,45681,2,0,P|248:165|195:129,1,90,0|8,3:2|0:0,0:0:0:0:
83,287,46129,6,0,P|136:275|189:311,1,90,0|2,3:2|0:0,0:0:0:0:
126,364,46577,1,0,3:2:0:0:
10,236,46800,2,0,B|10:200|10:201|32:119,1,90,8|0,0:0|3:2,0:0:0:0:
111,0,47248,2,0,B|111:36|111:35|133:117,1,90,2|0,0:0|3:2,0:0:0:0:
207,185,47696,1,8,0:0:0:0:
334,15,47920,1,0,3:2:0:0:
256,192,48144,12,0,49263,3:2:0:0:
445,150,49487,5,8,0:0:0:0:
424,302,49711,1,0,3:2:0:0:
33,140,50159,5,0,3:2:0:0:
119,76,50382,2,0,L|178:85,3,45,8|2|0|0,0:0|0:0|3:2|0:0,0:0:0:0:
245,156,50830,1,2,0:0:0:0:
267,152,50942,1,2,0:0:0:0:
289,148,51054,1,2,3:2:0:0:
311,145,51166,1,2,0:0:0:0:
333,141,51278,2,0,P|343:88|330:37,1,90,8|2,0:0|3:2,0:0:0:0:
400,221,51726,6,0,L|530:211,1,107.999996704102,6|0,0:0|3:2,0:0:0:0:
436,129,52174,1,8,0:0:0:0:
320,257,52397,2,0,P|316:320|345:367,1,107.999996704102,2|2,3:3|0:0,0:0:0:0:
307,160,52845,2,0,P|250:187|223:235,1,107.999996704102,2|8,3:3|0:0,0:0:0:0:
335,77,53293,1,2,3:3:0:0:
335,77,53517,6,0,L|218:74,1,107.999996704102,2|2,0:0|3:3,0:0:0:0:
56,74,53965,1,8,0:0:0:0:
195,176,54188,1,0,3:2:0:0:
142,12,54412,1,2,0:0:0:0:
88,175,54636,1,2,3:3:0:0:
227,74,54860,2,0,P|274:102|298:149,1,107.999996704102,8|2,0:0|3:3,0:0:0:0:
209,284,55308,6,0,L|195:177,1,107.999996704102,2|0,0:0|3:2,0:0:0:0:
127,90,55756,1,8,0:0:0:0:
93,195,55979,2,0,P|147:199|195:176,1,107.999996704102,2|2,3:3|0:0,0:0:0:0:
0,212,56427,2,0,P|22:260|67:290,1,107.999996704102,2|8,3:3|0:0,0:0:0:0:
193,277,56875,1,2,3:3:0:0:
193,277,57099,6,0,L|179:384,1,107.999996704102,2|2,0:0|3:3,0:0:0:0:
289,311,57547,1,8,0:0:0:0:
293,148,57771,1,2,3:3:0:0:
193,277,57994,1,2,0:0:0:0:
350,230,58218,1,2,3:3:0:0:
195,176,58442,2,0,P|140:133|136:92,1,107.999996704102,8|2,0:0|3:3,0:0:0:0:
304,40,58890,6,0,L|293:148,1,107.999996704102,2|0,0:0|3:2,0:0:0:0:
207,38,59338,1,8,0:0:0:0:
385,125,59562,2,0,B|424:119|424:119|447:93|447:93|487:88,1,107.999996704102,2|2,3:3|0:0,0:0:0:0:
492,194,60009,2,0,B|453:200|453:200|430:226|430:226|390:231,1,107.999996704102,2|8,3:3|0:0,0:0:0:0:
293,148,60457,6,0,P|311:204|293:256,1,107.999996704102,2|2,3:3|0:0,0:0:0:0:
91,289,60905,1,2,3:3:0:0:
174,310,61129,1,8,0:0:0:0:
8,268,61353,2,0,P|8:212|47:165,1,107.999996704102,0|2,3:2|0:0,0:0:0:0:
278,200,61800,1,2,3:3:0:0:
195,221,62024,1,8,0:0:0:0:
361,179,62248,1,2,3:3:0:0:
361,179,62472,6,0,P|361:123|322:76,1,107.999996704102,2|0,0:0|3:2,0:0:0:0:
278,200,62920,1,8,0:0:0:0:
404,254,63144,2,0,L|516:245,1,107.999996704102,2|2,3:3|0:0,0:0:0:0:
343,380,63591,2,0,L|231:371,1,107.999996704102,2|8,3:3|0:0,0:0:0:0:
170,208,64039,6,0,L|282:199,1,107.999996704102,2|2,3:3|0:0,0:0:0:0:
109,334,64487,2,0,L|-3:325,1,107.999996704102,2|8,3:3|0:0,0:0:0:0:
235,371,64935,1,2,3:3:0:0:
235,371,65047,1,2,0:3:0:0:
235,371,65159,2,0,L|247:300,3,53.9999983520508,2|2|2|0,0:0|0:0|3:3|0:0,0:0:0:0:
170,208,65606,1,8,0:0:0:0:
166,181,65718,1,2,0:0:0:0:
162,154,65830,1,2,3:2:0:0:
158,127,65942,1,2,0:0:0:0:
154,101,66054,6,0,P|102:119|50:110,1,107.999996704102,6|0,0:0|3:2,0:0:0:0:
94,13,66502,1,8,0:0:0:0:
257,144,66726,2,0,L|246:26,1,107.999996704102,2|2,3:3|0:0,0:0:0:0:
357,103,67174,2,0,L|346:221,1,107.999996704102,2|8,3:3|0:0,0:0:0:0:
445,73,67621,1,2,3:3:0:0:
445,73,67845,6,0,P|385:17|333:15,1,107.999996704102,2|2,0:0|3:3,0:0:0:0:
233,163,68293,1,8,0:0:0:0:
357,103,68517,1,0,3:2:0:0:
246,36,68741,1,2,0:0:0:0:
348,236,68965,1,2,3:3:0:0:
233,163,69188,2,0,P|163:158|100:200,1,107.999996704102,8|2,0:0|3:3,0:0:0:0:
40,350,69636,6,0,P|79:291|74:216,1,107.999996704102,2|0,0:0|3:2,0:0:0:0:
32,181,70084,1,8,0:0:0:0:
142,341,70308,2,0,L|273:338,1,107.999996704102,2|2,3:3|0:0,0:0:0:0:
344,247,70756,2,0,L|213:244,1,107.999996704102,2|8,3:3|0:0,0:0:0:0:
350,346,71203,1,2,3:3:0:0:
350,346,71427,6,0,P|415:316|440:272,1,107.999996704102,2|2,0:0|3:3,0:0:0:0:
335,114,71875,1,8,0:0:0:0:
459,174,72099,1,2,3:3:0:0:
446,47,72323,1,2,0:0:0:0:
344,247,72547,1,2,3:3:0:0:
335,114,72771,2,0,P|258:102|203:124,1,107.999996704102,8|2,0:0|3:3,0:0:0:0:
109,244,73218,6,0,P|56:252|4:239,1,107.999996704102,2|0,0:0|3:2,0:0:0:0:
133,139,73666,1,8,0:0:0:0:
203,330,73890,2,0,L|197:216,1,107.999996704102,2|2,3:3|0:0,0:0:0:0:
311,158,74338,2,0,L|305:272,1,107.999996704102,2|8,3:3|0:0,0:0:0:0:
241,97,74785,1,2,3:3:0:0:
241,97,75009,6,0,P|285:68|339:69,1,107.999996704102,2|2,0:0|3:3,0:0:0:0:
437,192,75457,1,8,0:0:0:0:
415,344,75681,2,0,P|371:373|317:372,1,107.999996704102,0|2,3:2|0:0,0:0:0:0:
311,158,76129,1,2,3:3:0:0:
345,283,76353,1,8,0:0:0:0:
219,249,76577,1,2,3:3:0:0:
219,249,76688,1,2,0:3:0:0:
219,249,76800,5,2,0:0:0:0:
437,192,77024,1,0,3:2:0:0:
253,374,77248,1,8,0:0:0:0:
185,124,77472,1,2,3:3:0:0:
185,124,77920,5,2,3:3:0:0:
253,374,78144,1,8,0:0:0:0:
437,192,78368,1,4,3:2:0:0:
256,192,78479,12,2,80159,3:2:0:0:
442,106,80382,6,0,L|332:111,1,90,6|0,0:0|3:2,0:0:0:0:
212,49,80830,2,0,L|84:58,1,90,8|0,0:0|3:2,0:0:0:0:
251,150,81278,1,2,0:0:0:0:
312,10,81502,1,0,3:2:0:0:
352,110,81726,1,8,0:0:0:0:
212,49,81950,6,0,L|84:58,1,90,0|2,3:2|0:0,0:0:0:0:
0,164,82397,2,0,L|128:173,1,90,0|8,3:2|0:0,0:0:0:0:
252,184,82845,1,0,3:2:0:0:
122,55,83069,1,2,0:0:0:0:
150,283,83293,1,0,3:2:0:0:
209,92,83517,1,8,0:0:0:0:
63,246,83741,1,0,3:2:0:0:
63,246,83853,1,2,0:3:0:0:
63,246,83965,6,0,P|58:289|72:336,1,90,2|0,0:0|3:2,0:0:0:0:
280,297,84412,6,0,B|212:272|212:272|141:285,1,135.000005149842,8|0,0:0|3:2,0:0:0:0:
200,369,84860,1,2,0:0:0:0:
353,234,85084,1,0,3:2:0:0:
228,105,85308,1,8,0:0:0:0:
228,105,85532,6,0,P|227:165|249:209,1,90,0|2,3:2|0:0,0:0:0:0:
327,136,85979,1,0,3:2:0:0:
327,136,86203,1,8,0:0:0:0:
447,260,86427,2,0,P|335:267|277:310,1,180,0|8,3:2|3:2,0:0:0:0:
69,209,87099,6,0,P|86:229|104:228,1,45,8|2,0:0|0:0,0:0:0:0:
169,263,87323,2,0,P|195:264|207:251,1,45,2|0,3:2|0:0,0:0:0:0:
256,192,87547,1,6,0:0:0:0:
256,192,87659,12,0,90233,0:0:0:0:
