osu file format v14

[General]
AudioFilename: OreImo - OP Single - ClariS - irony.mp3
AudioLeadIn: 0
PreviewTime: 57916
Countdown: 1
SampleSet: Normal
StackLeniency: 0.7
Mode: 0
LetterboxInBreaks: 0
WidescreenStoryboard: 0

[Editor]
DistanceSpacing: 0.8
BeatDivisor: 4
GridSize: 4
TimelineZoom: 1

[Metadata]
Title:irony
TitleUnicode:irony
Artist:ClariS
ArtistUnicode:ClariS
Creator:HakuNoKaemi
Version:Normal
Source:Ore no Imouto ga konna ni Kawaii Wake ga Nai
Tags:oreimo imouto kiririn shi kirino kousaka kyosuke kuroneko op single Alice Clara Kz livetune Light Novel ASCII Media Works Dengeki Bunko AIC Build Hiroyuki Kanbe Tsukasa Fushimi Hiro Kanzaki -kevincela- mint_ong89 cherry830525 Kuroneko-sherald sherald
BeatmapID:152699
BeatmapSetID:44626

[Difficulty]
HPDrainRate:3
CircleSize:3
OverallDifficulty:3
ApproachRate:5
SliderMultiplier:1.4
SliderTickRate:2

[Events]
//Background and Video events
Video,-685,"irony video.mp4"
0,0,"BG.jpg",0,0
//Break Periods
2,15827,28731
2,87444,99477
2,159086,170224
2,209236,220373
//Storyboard Layer 0 (Background)
//Storyboard Layer 1 (Fail)
//Storyboard Layer 2 (Pass)
//Storyboard Layer 3 (Foreground)
//Storyboard Sound Samples

[TimingPoints]
1275,447.761194029851,4,2,1,60,1,0
1275,-100,4,2,1,100,0,0
6088,-100,4,2,2,100,0,0
6312,-100,4,2,1,100,0,0
11461,-100,4,2,2,100,0,0
11685,-100,4,2,1,100,0,0
12357,-100,4,2,2,100,0,0
12580,-100,4,2,1,100,0,0
14148,-100,4,2,2,100,0,0
14372,-100,4,2,1,100,0,0
15603,-100,4,2,1,100,0,1
15827,-100,4,2,1,100,0,0
29931,-100,4,2,1,100,0,1
30155,-100,4,2,1,100,0,0
41909,-100,4,2,2,100,0,0
42133,-100,4,2,1,100,0,0
58588,-100,4,1,1,70,0,1
63401,-100,4,1,2,70,0,1
63625,-100,4,1,1,70,0,1
72469,-100,4,1,1,70,0,0
72916,-100,4,1,1,70,0,1
74148,-100,4,1,2,70,0,1
74372,-100,4,1,1,70,0,1
77730,-100,4,1,2,70,0,1
77954,-100,4,1,1,70,0,1
84894,-100,4,1,2,70,0,1
85118,-100,4,1,1,70,0,1
87245,-100,4,2,1,100,0,0
101573,-100,4,2,1,100,0,1
101797,-100,4,2,1,100,0,0
102804,-100,4,2,2,100,0,0
103028,-100,4,2,1,100,0,0
106386,-100,4,2,2,100,0,0
106610,-100,4,2,1,100,0,0
113551,-100,4,2,2,100,0,0
113775,-100,4,2,1,100,0,0
115006,-100,4,2,1,5,0,0
115230,-100,4,2,0,60,0,0
115677,-100,4,2,1,100,0,0
125192,-100,4,2,2,100,0,0
125416,-100,4,2,1,100,0,0
127879,-100,4,2,2,100,0,0
128103,-100,4,2,1,100,0,0
129782,-100,4,1,1,70,0,1
131461,-100,4,1,2,70,0,1
131685,-100,4,1,1,70,0,1
139521,-100,4,1,2,70,0,1
139745,-100,4,1,1,70,0,1
141312,-100,4,1,2,70,0,1
141536,-100,4,1,1,70,0,1
142207,-100,4,1,2,70,0,1
142431,-100,4,1,1,70,0,1
143103,-100,4,1,2,70,0,1
143327,-100,4,1,1,70,0,1
144110,-100,4,1,1,70,0,0
144558,-100,4,1,1,70,0,1
145789,-100,4,1,2,70,0,1
146013,-100,4,1,1,70,0,1
149372,-100,4,1,2,70,0,1
149595,-100,4,1,1,70,0,1
152954,-100,4,1,2,70,0,1
153177,-100,4,1,1,70,0,1
155752,-100,4,1,1,70,0,1
158886,-100,4,2,1,100,0,0
178252,-100,4,2,2,100,0,0
178476,-100,4,2,1,100,0,0
180043,-100,4,2,1,100,0,0
180267,-100,4,2,1,100,0,0
223364,-100,4,1,1,70,0,1
224595,-100,4,1,1,70,0,1
224819,-100,4,1,1,70,0,1
231760,-100,4,1,1,70,0,1
231983,-100,4,1,1,70,0,1
237468,-100,4,1,1,70,0,0
237692,-100,4,1,1,70,0,1
237916,-100,4,1,1,60,0,0
251797,-100,4,2,1,60,0,0

[Colours]
Combo1 : 255,180,66
Combo2 : 114,243,117
Combo3 : 91,147,249
Combo4 : 252,73,73

[HitObjects]
148,280,827,5,0,0:0:0:0:
92,252,1051,1,0,0:0:0:0:
148,220,1275,2,0,B|212:172|288:216,1,140,2|8,0:0|0:0,0:0:0:0:
316,264,1946,2,0,B|340:196|416:172,1,140,0|2,0:0|0:0,0:0:0:0:
472,196,2618,1,8,0:0:0:0:
464,132,2842,1,0,0:0:0:0:
356,68,3289,1,2,0:0:0:0:
356,68,3513,2,0,B|296:120|224:84|224:84,1,140,8|0,0:0|0:0,0:0:0:0:
268,204,4409,6,0,B|200:164|132:208,2,140,8|0|8,0:0|0:0|0:0,0:0:0:0:
268,204,5528,1,2,0:0:0:0:
380,260,5976,2,0,B|408:188|368:124,2,140,0|2|0,0:0|0:0|0:0,0:0:0:0:
332,304,7095,2,0,B|308:280|264:272,1,70,10|0,0:0|0:0,0:0:0:0:
208,292,7543,2,0,B|216:256|204:224,1,70,2|0,0:0|0:0,0:0:0:0:
140,224,7991,6,0,B|128:260|140:296,2,70,8|0|2,0:0|0:0|0:0,0:0:0:0:
100,104,8886,2,0,B|168:72|240:100,1,140,8|0,0:0|0:0,0:0:0:0:
236,98,9558,1,2,0:0:0:0:
236,98,9782,1,8,0:0:0:0:
276,52,10006,6,0,B|352:76|364:152,1,140,0|2,0:0|0:0,0:0:0:0:
312,188,10677,1,8,0:0:0:0:
257,157,10901,2,0,B|201:209|209:297,2,140,2|0|0,0:0|0:0|0:0,0:0:0:0:
236,98,12021,2,0,B|188:106|136:136|136:136|124:84|92:40,1,210,2|0,0:0|0:0,0:0:0:0:
52,160,13140,6,0,B|32:188|28:228,2,70,2|8|0,0:0|0:0|0:0,0:0:0:0:
156,232,14036,2,0,B|220:272|292:240,2,140,0|0|2,0:0|0:0|0:0,0:0:0:0:
228,128,15379,1,8,0:0:0:0:
228,128,15603,1,12,0:0:0:0:
132,192,29931,5,4,0:0:0:0:
100,312,30379,2,0,B|176:328|228:272,1,140,8|0,0:0|0:0,0:0:0:0:
256,216,31051,1,0,0:0:0:0:
320,108,31498,2,0,B|379:43|468:71|490:144,1,210,2|8,0:0|0:0,0:0:0:0:
436,172,32394,6,0,B|416:204|424:244,1,70,0|2,0:0|0:0,0:0:0:0:
364,264,32842,2,0,B|332:284|284:272,1,70,0|8,0:0|0:0,0:0:0:0:
244,312,33289,1,2,0:0:0:0:
244,312,33513,2,0,B|216:312|176:296|176:296|176:260|192:224,1,140,0|8,0:0|0:0,0:0:0:0:
140,188,34185,5,2,0:0:0:0:
180,68,34633,1,0,0:0:0:0:
224,184,35080,1,0,0:0:0:0:
120,116,35528,1,0,0:0:0:0:
244,112,35976,2,0,B|320:84|392:120,1,140,2|0,0:0|0:0,0:0:0:0:
344,168,36648,2,0,B|328:208|352:248,1,70,8|2,0:0|0:0,0:0:0:0:
380,288,37095,1,0,0:0:0:0:
464,196,37543,6,0,B|472:164|488:132|488:132|464:108|448:72,1,140,8|0,0:0|0:0,0:0:0:0:
384,60,38215,1,0,0:0:0:0:
256,64,38663,1,2,0:0:0:0:
256,64,38886,1,0,0:0:0:0:
128,60,39334,1,8,0:0:0:0:
80,100,39558,6,0,B|92:136|80:168,1,70,0|2,0:0|0:0,0:0:0:0:
60,228,40006,2,0,B|24:236|0:264,2,70,0|8|0,0:0|0:0|0:0,0:0:0:0:
120,208,40677,2,0,B|188:236|256:212,1,140,2|8,0:0|0:0,0:0:0:0:
280,272,41349,2,0,B|344:232|420:264,2,140,2|0|2,0:0|0:0|0:0,0:0:0:0:
184,188,42692,6,0,B|196:156|184:120,1,70,0|8,0:0|0:0,0:0:0:0:
224,72,43140,2,0,B|256:104|284:116|312:104|344:72,1,140,2|0,0:0|0:0,0:0:0:0:
380,124,43812,2,0,B|368:160|384:196,1,70,8|8,0:0|0:0,0:0:0:0:
436,224,44260,2,0,B|472:288|448:360,1,140,4|8,0:0|0:0,0:0:0:0:
408,312,44931,1,0,0:0:0:0:
404,308,45155,2,0,B|340:272|264:308,1,140,2|8,0:0|0:0,0:0:0:0:
212,332,45827,5,0,0:0:0:0:
148,336,46051,1,0,0:0:0:0:
192,220,46498,1,10,0:0:0:0:
124,116,46946,2,0,B|196:76|264:120,2,140,2|8|2,0:0|0:0|0:0,0:0:0:0:
192,220,48289,1,8,0:0:0:0:
252,244,48513,6,0,B|292:248|324:224,1,70,0|2,0:0|0:0,0:0:0:0:
260,116,49185,1,8,0:0:0:0:
260,116,49409,2,0,B|316:68|396:96,1,140
436,140,50080,1,8,0:0:0:0:
424,200,50304,2,0,B|412:236|432:272,1,70,2|0,0:0|0:0,0:0:0:0:
380,368,50976,5,8,0:0:0:0:
336,336,51200,1,0,0:0:0:0:
314,298,51424,2,0,B|280:232|308:160,1,140,0|8,0:0|0:0,0:0:0:0:
256,188,52095,6,0,B|220:196|184:180,1,70,0|2,0:0|0:0,0:0:0:0:
232,76,52767,1,8,0:0:0:0:
176,48,52991,2,0,B|108:12|44:60,1,140,2|0,0:0|0:0,0:0:0:0:
92,104,53663,2,0,B|108:140|92:176,1,70,8|0,0:0|0:0,0:0:0:0:
308,272,54558,6,0,B|296:308|308:340,2,70,8|2|0,0:0|0:0|0:0,0:0:0:0:
432,248,55454,2,0,B|424:204|392:176,1,70,8|0,0:0|0:0,0:0:0:0:
308,272,56125,2,0,B|252:216|280:144,1,140,2|0,0:0|0:0,0:0:0:0:
256,192,56685,12,4,58588,0:0:0:0:
68,196,59036,5,8,0:0:0:0:
68,196,59260,2,0,B|140:160|204:196,1,140,0|2,0:0|0:0,0:0:0:0:
264,208,59931,1,8,0:0:0:0:
264,208,60155,2,0,B|260:168|280:140,1,70,2|0,0:0|0:0,0:0:0:0:
340,156,60603,2,0,B|380:152|416:120,1,70,2|8,0:0|0:0,0:0:0:0:
428,72,61051,1,0,0:0:0:0:
408,12,61275,1,2,0:0:0:0:
284,40,61722,5,8,0:0:0:0:
264,100,61946,1,0,0:0:0:0:
224,52,62170,2,0,B|144:60|108:120,1,140,2|8,0:0|0:0,0:0:0:0:
100,184,62842,2,0,B|164:232|160:324,2,140,2|2|0,0:0|0:0|0:0,0:0:0:0:
224,212,64185,1,0,0:0:0:0:
224,212,64409,2,0,B|240:244|240:280,1,70,8|0,0:0|0:0,0:0:0:0:
240,344,64857,2,0,B|276:332|316:340,1,70,2|0,0:0|0:0,0:0:0:0:
372,348,65304,6,0,B|444:320|460:236,1,140,8|2,0:0|0:0,0:0:0:0:
332,228,66200,1,8,0:0:0:0:
332,228,66424,2,0,B|276:100,1,140,0|0,0:0|0:0,0:0:0:0:
156,64,67319,6,0,B|216:204,1,140,2|0,0:0|0:0,0:0:0:0:
240,248,67991,1,8,0:0:0:0:
240,248,68215,2,0,B|160:248|136:324,1,140,2|0,0:0|0:0,0:0:0:0:
88,364,68886,6,0,B|92:324|64:280,2,70,8|2|0,0:0|0:0|0:0,0:0:0:0:
4,352,69782,1,8,0:0:0:0:
4,352,70006,1,0,0:0:0:0:
80,252,70454,1,0,0:0:0:0:
152,148,70901,1,0,0:0:0:0:
32,192,71349,1,0,0:0:0:0:
152,228,71797,1,2,0:0:0:0:
152,228,72021,2,0,B|232:216|268:292,1,140,0|12,0:0|0:0,0:0:0:0:
276,352,72692,1,0,0:0:0:0:
324,312,72916,6,0,B|384:268|456:312,1,140,4|0,0:0|0:0,0:0:0:0:
454,311,73588,1,2,0:0:0:0:
416,192,74036,2,0,B|352:240|288:192,2,140,2|0|2,0:0|0:0|0:0,0:0:0:0:
380,140,75155,1,8,0:0:0:0:
444,136,75379,2,0,B|432:100|452:68,1,70,0|2,0:0|0:0,0:0:0:0:
416,192,76051,6,0,B|400:228|408:260|408:260|372:260|340:288,1,140,0|2,0:0|0:0,0:0:0:0:
244,364,76946,1,8,0:0:0:0:
244,364,77170,2,0,B|208:328|204:264|228:228,2,140,2|2|0,0:0|0:0|0:0,0:0:0:0:
132,304,78513,2,0,B|128:272|136:232,1,70,0|8,0:0|0:0,0:0:0:0:
148,172,78961,2,0,B|152:140|144:100,1,70,0|2,0:0|0:0,0:0:0:0:
56,192,79633,6,0,B|76:161|72:97|36:61,2,140,8|0|8,0:0|0:0|0:0,0:0:0:0:
88,244,80752,1,0,0:0:0:0:
216,244,81200,1,0,0:0:0:0:
292,144,81648,1,2,0:0:0:0:
360,248,82095,2,0,B|388:228|408:196,2,70,2|8|0,0:0|0:0|0:0,0:0:0:0:
292,144,82991,5,0,0:0:0:0:
292,144,83215,1,8,0:0:0:0:
292,144,83439,2,0,B|268:116|232:104|232:104|200:120|204:120|180:88|180:88|144:80|108:88,1,210,2|8,0:0|0:0,0:0:0:0:
128,148,84334,2,0,B|140:184|112:224,1,70
56,208,84782,2,0,B|132:236|144:308,2,140,2|0|2,0:0|0:0|0:0,0:0:0:0:
176,248,86125,2,0,B|248:280|312:232,1,140,0|2,0:0|0:0,0:0:0:0:
264,188,86797,2,0,B|220:128|236:52,1,140,8|4,0:0|0:0,0:0:0:0:
256,192,100677,12,4,101573,0:0:0:0:
300,300,102021,5,8,0:0:0:0:
420,332,102469,1,0,0:0:0:0:
396,272,102692,2,0,B|380:192|448:148,1,140,2|0,0:0|0:0,0:0:0:0:
500,116,103364,2,0,B|420:116|372:52,1,140,0|8,0:0|0:0,0:0:0:0:
316,76,104036,6,0,B|328:116|312:144|312:148,1,70,0|2,0:0|0:0,0:0:0:0:
280,196,104483,1,0,0:0:0:0:
240,244,104707,2,0,B|224:276|232:316,1,70,8|0,0:0|0:0,0:0:0:0:
276,356,105155,6,0,B|344:320|412:352,1,140,2|8,0:0|0:0,0:0:0:0:
372,304,105827,2,0,B|440:272|448:192,2,140,0|2|0,0:0|0:0|0:0,0:0:0:0:
320,188,107170,1,2,0:0:0:0:
276,308,107618,2,0,B|220:260|144:296,1,140
168,236,108289,2,0,B|176:200|164:160,2,70,8|0|0,0:0|0:0|0:0,0:0:0:0:
48,200,109185,6,0,B|80:136|64:64,1,140,8|0,0:0|0:0,0:0:0:0:
120,96,109857,1,2,0:0:0:0:
236,48,110304,2,0,B|304:24|376:52,1,140,2|0,0:0|0:0,0:0:0:0:
420,96,110976,1,8,0:0:0:0:
400,156,111200,6,0,B|404:192|384:228,2,70,0|2|0,0:0|0:0|0:0,0:0:0:0:
336,152,111872,1,8,0:0:0:0:
324,92,112095,2,0,B|292:104|256:104,1,70,0|2,0:0|0:0,0:0:0:0:
144,40,112767,6,0,B|108:100|36:128,1,140,0|0,0:0|0:0,0:0:0:0:
100,128,113439,2,0,B|76:192|104:264,1,140,2|0,0:0|0:0,0:0:0:0:
128,208,114110,2,0,B|164:200|196:212,1,70,0|8,0:0|0:0,0:0:0:0:
228,268,114558,1,8,0:0:0:0:
292,260,114782,2,0,B|324:188|400:176,1,140,8|0,0:0|0:0,0:0:0:0:
344,144,115454,2,0,B|368:116|364:80,1,70,10|8,0:0|0:0,0:0:0:0:
324,28,115901,6,0,B|276:8|220:36|216:88,1,140,4|8,0:0|0:0,0:0:0:0:
228,144,116573,2,0,B|256:172|288:176,1,70,0|2,0:0|0:0,0:0:0:0:
344,144,117021,1,0,0:0:0:0:
400,176,117245,1,8,0:0:0:0:
376,232,117469,5,0,0:0:0:0:
312,236,117692,1,2,0:0:0:0:
212,312,118140,1,8,0:0:0:0:
248,192,118588,1,2,0:0:0:0:
288,312,119036,1,8,0:0:0:0:
188,236,119483,2,0,B|128:200|56:232,1,70,2|0,0:0|0:0,0:0:0:0:
64,244,119931,1,8,0:0:0:0:
56,180,120155,6,0,B|44:152|48:112,1,70,0|2,0:0|0:0,0:0:0:0:
172,132,120827,1,8,0:0:0:0:
228,104,121051,2,0,B|268:112|296:132,1,70,2|0,0:0|0:0,0:0:0:0:
320,188,121498,2,0,B|332:148|360:128,2,70,0|8|2,0:0|0:0|0:0,0:0:0:0:
348,244,122170,1,0,0:0:0:0:
228,280,122618,6,0,B|188:276|160:292,2,70,8|0|2,0:0|0:0|0:0,0:0:0:0:
112,328,123513,1,8,0:0:0:0:
116,264,123737,1,0,0:0:0:0:
84,208,123961,2,0,B|12:176|12:96,1,140,0|8,0:0|0:0,0:0:0:0:
52,48,124633,1,2,0:0:0:0:
152,124,125080,2,0,B|216:176|192:248,1,140,2|0,0:0|0:0,0:0:0:0:
196,252,125752,1,0,0:0:0:0:
304,320,126200,5,8,0:0:0:0:
292,260,126424,1,0,0:0:0:0:
352,284,126648,2,0,B|384:268|396:232|396:232|408:196|440:180,1,140,2|8,0:0|0:0,0:0:0:0:
376,172,127319,2,0,B|328:112|240:112,2,140,2|2|0,0:0|0:0|0:0,0:0:0:0:
256,192,128327,12,0,129782,0:0:0:0:
432,100,130230,5,4,0:0:0:0:
420,224,130677,1,8,0:0:0:0:
420,224,130901,1,2,0:0:0:0:
320,144,131349,2,0,B|276:208|304:276,1,140,2|0,0:0|0:0,0:0:0:0:
320,144,132245,2,0,B|284:152|248:136,1,70,2|8,0:0|0:0,0:0:0:0:
208,92,132692,2,0,B|212:136|196:160,1,70,2|0,0:0|0:0,0:0:0:0:
136,48,133364,6,0,B|84:116|116:184,2,140,8|0|8,0:0|0:0|0:0,0:0:0:0:
136,48,134483,1,2,0:0:0:0:
260,28,134931,1,0,0:0:0:0:
320,140,135379,1,0,0:0:0:0:
196,160,135827,1,0,0:0:0:0:
196,160,136051,2,0,B|212:200|200:244,2,70,8|0|2,0:0|0:0|0:0,0:0:0:0:
80,208,136946,6,0,B|78:167|44:142,1,70,8|0,0:0|0:0,0:0:0:0:
104,112,137394,2,0,B|81:84|83:42|83:42|117:26|147:32,1,140,2|8,0:0|0:0,0:0:0:0:
148,32,138066,1,2,0:0:0:0:
268,72,138513,1,0,0:0:0:0:
312,192,138961,6,0,B|352:176|372:144|372:144|396:116|432:112,2,140,2|0|0,0:0|0:0|0:0,0:0:0:0:
196,244,140304,2,0,B|176:220|128:208,1,70,0|8,0:0|0:0,0:0:0:0:
72,216,140752,2,0,B|152:192|172:128|172:128|200:48|288:48,1,280,2|0,0:0|0:0,0:0:0:0:
288,172,142095,6,0,B|368:184|380:264,1,140,0|2,0:0|0:0,0:0:0:0:
252,268,142991,2,0,B|220:256|200:224|200:224|168:248|132:252,1,140,2|0,0:0|0:0,0:0:0:0:
72,240,143663,1,0,0:0:0:0:
116,136,144110,6,0,B|124:104|160:84|160:84|204:96|240:72,1,140,4|4,0:0|0:0,0:0:0:0:
352,96,145006,1,8,0:0:0:0:
352,96,145230,1,0,0:0:0:0:
284,200,145677,2,0,B|364:192|396:280,2,140,2|0|0,0:0|0:0|0:0,0:0:0:0:
236,240,146797,1,8,0:0:0:0:
228,176,147021,2,0,B|224:136|184:112,1,70,2|0,0:0|0:0,0:0:0:0:
68,120,147692,6,0,B|108:124|136:104,1,70,8|0,0:0|0:0,0:0:0:0:
176,60,148140,2,0,B|240:16|320:48,1,140,0|8,0:0|0:0,0:0:0:0:
364,76,148812,2,0,B|400:96|404:140|404:140|448:164|480:140|444:100|404:140|404:140|380:180|396:220,1,280,2|0,0:0|0:0,0:0:0:0:
504,260,150155,2,0,B|472:240|428:264,1,70,0|8,0:0|0:0,0:0:0:0:
380,284,150603,2,0,B|364:320|320:340,1,70,2|0,0:0|0:0,0:0:0:0:
224,264,151275,6,0,B|252:192|324:164,1,140,8|0,0:0|0:0,0:0:0:0:
192,160,152170,2,0,B|208:132|248:112,2,70,8|2|0,0:0|0:0|0:0,0:0:0:0:
152,208,152842,2,0,B|100:272|12:272,1,140,0|2,0:0|0:0,0:0:0:0:
92,160,153737,2,0,B|68:188|28:192,2,70,0|8|2,0:0|0:0|0:0,0:0:0:0:
200,92,154633,5,0,0:0:0:0:
260,104,154857,1,8,0:0:0:0:
292,160,155080,2,0,B|304:248|232:308|144:272,1,210,0|8,0:0|0:0,0:0:0:0:
108,252,155976,1,2,0:0:0:0:
120,128,156424,5,10,0:0:0:0:
184,140,156648,1,2,0:0:0:0:
232,184,156872,2,0,B|256:224|260:276|232:324,1,140,8|0,0:0|0:0,0:0:0:0:
332,236,157767,2,0,B|352:192|396:172|460:200,2,140
332,236,158886,1,4,0:0:0:0:
256,192,171424,12,4,173215,0:0:0:0:
320,148,173663,6,0,B|336:188|320:224,1,70
284,268,174110,1,8,0:0:0:0:
184,192,174558,1,0,0:0:0:0:
220,312,175006,1,8,0:0:0:0:
264,192,175454,1,0,0:0:0:0:
160,264,175901,6,0,B|84:240|40:312,2,140
264,192,177245,2,0,B|340:216|384:144,1,140,0|10,0:0|0:0,0:0:0:0:
264,192,178140,2,0,B|240:268|312:312,2,140,0|8|0,0:0|0:0|0:0,0:0:0:0:
288,132,179260,1,0,0:0:0:0:
228,144,179483,1,8,0:0:0:0:
120,208,179931,2,0,B|76:140|120:76,1,140,2|8,0:0|0:0,0:0:0:0:
120,208,180827,6,0,B|112:244|84:272,2,70,0|0|8,0:0|0:0|0:0,0:0:0:0:
244,192,181722,2,0,B|244:160|220:128,2,70,0|8|8,0:0|0:0|0:0,0:0:0:0:
332,284,182618,2,0,B|312:316|268:320,2,70,0|0|10,0:0|0:0|0:0,0:0:0:0:
388,172,183513,5,0,0:0:0:0:
276,228,183961,1,8,0:0:0:0:
400,248,184409,1,2,0:0:0:0:
312,160,184857,1,8,0:0:0:0:
332,284,185304,1,0,0:0:0:0:
280,320,185528,1,8,0:0:0:0:
220,308,185752,2,0,B|144:292|96:352,1,140,8|0,0:0|0:0,0:0:0:0:
220,308,186648,2,0,B|232:232|176:180,1,140,8|0,0:0|0:0,0:0:0:0:
96,280,187543,5,4,0:0:0:0:
56,160,187991,2,0,B|72:84|152:60,2,140,0|8|0,0:0|0:0|0:0,0:0:0:0:
116,180,189110,2,8,B|156:192|176:220,1,70
300,208,189782,2,0,B|317:233|357:245,2,70,0|8|8,0:0|0:0|0:0,0:0:0:0:
348,324,190677,6,0,B|272:308|232:252,2,140,0|8|0,0:0|0:0|0:0,0:0:0:0:
468,284,192021,1,8,0:0:0:0:
380,192,192469,1,0,0:0:0:0:
328,160,192692,2,0,B|296:148|252:164,1,70,8|8,0:0|0:0,0:0:0:0:
180,260,193364,2,0,B|208:188|172:124,2,140,0|8|0,0:0|0:0|0:0,0:0:0:0:
228,300,194483,2,0,B|256:312|296:308,1,70,0|8,0:0|0:0,0:0:0:0:
276,184,195155,6,0,B|304:172|328:136|328:136|316:92|292:80,2,140,0|8|0,0:0|0:0|0:0,0:0:0:0:
180,264,196498,1,8,0:0:0:0:
212,144,196946,1,0,0:0:0:0:
256,260,197394,1,8,0:0:0:0:
148,192,197842,1,2,0:0:0:0:
40,124,198289,6,0,B|4:196|44:260,1,140,8|0,0:0|0:0,0:0:0:0:
148,192,199185,2,0,B|184:120|144:56,2,140,8|8|8,0:0|0:0|0:0,0:0:0:0:
281,189,200528,2,0,B|220:228|148:192,1,140,0|8,0:0|0:0,0:0:0:0:
80,296,201424,1,0,0:0:0:0:
80,296,201872,2,0,B|203:372|347:300,4,280,4|0|2|0|2,0:0|0:0|0:0|0:0|0:0,0:0:0:0:
256,192,205566,12,4,209036,0:0:0:0:
256,192,221573,12,4,223364,0:0:0:0:
104,128,223812,6,0,B|80:152|76:204,2,70,8|0|0,0:0|0:0|0:0,0:0:0:0:
168,128,224483,2,0,B|236:168|300:128,1,140,2|0,0:0|0:0,0:0:0:0:
220,228,225379,2,0,B|260:232|300:216,1,70,0|8,0:0|0:0,0:0:0:0:
348,196,225827,2,0,B|380:180|416:180,1,70,2|0,0:0|0:0,0:0:0:0:
368,296,226498,6,0,B|404:312|440:304,2,70,0|0|2,0:0|0:0|0:0,0:0:0:0:
256,240,227394,1,8,0:0:0:0:
220,188,227618,2,0,B|172:128|84:140,1,140,2|0,0:0|0:0,0:0:0:0:
220,188,228513,2,0,B|280:140|268:52,1,140,0|2,0:0|0:0,0:0:0:0:
312,112,229185,2,0,B|332:84|376:80,2,70,8|0|2,0:0|0:0|0:0,0:0:0:0:
400,204,230080,5,8,0:0:0:0:
344,240,230304,1,0,0:0:0:0:
280,240,230528,2,0,B|196:224|140:284,1,140,0|8,0:0|0:0,0:0:0:0:
184,220,231200,2,0,B|204:184|188:144,1,70
140,116,231648,2,0,B|64:97|18:172,2,140,2|0|0,0:0|0:0|0:0,0:0:0:0:
172,60,232767,2,0,B|208:48|224:12,2,70,8|2|0,0:0|0:0|0:0,0:0:0:0:
224,96,233439,6,0,B|248:124|292:128,1,70,0|8,0:0|0:0,0:0:0:0:
344,108,233886,2,0,B|320:144|332:224|384:256|440:248,1,210,2|8,0:0|0:0,0:0:0:0:
440,247,234782,1,4,0:0:0:0:
324,300,235230,2,0,B|356:320|392:328,2,70,2|8|4,0:0|0:0|0:0,0:0:0:0:
256,192,236125,1,0,0:0:0:0:
188,300,236573,1,2,0:0:0:0:
124,300,236797,2,0,B|81:290|36:223|52:164|98:132,1,210
156,100,237692,1,4,0:0:0:0:
280,84,238140,6,0,B|300:52|348:44,2,70,8|0|0,0:0|0:0|0:0,0:0:0:0:
324,132,238812,1,2,0:0:0:0:
332,196,239036,1,8,0:0:0:0:
288,240,239260,2,0,B|220:208|136:252|132:328,1,210,2|8,0:0|0:0,0:0:0:0:
104,272,240155,6,0,B|36:236|28:160,1,140,2|0,0:0|0:0,0:0:0:0:
52,104,240827,1,8,0:0:0:0:
112,84,241051,1,0,0:0:0:0:
160,124,241275,1,2,0:0:0:0:
240,220,241722,2,0,B|292:168|280:92,1,140,8|2,0:0|0:0,0:0:0:0:
248,40,242394,1,0,0:0:0:0:
364,92,242842,6,0,B|372:176|332:232,1,140,2|0,0:0|0:0,0:0:0:0:
300,280,243513,1,8,0:0:0:0:
240,264,243737,2,0,B|156:224|116:292,1,140,2|0,0:0|0:0,0:0:0:0:
116,228,244409,2,0,B|112:192|76:164,1,70,8|0,0:0|0:0,0:0:0:0:
24,148,244857,6,0,B|100:136|128:60,1,140,4|8,0:0|0:0,0:0:0:0:
172,108,245528,2,0,B|192:76|224:64,1,70
288,68,245976,2,0,B|296:112|336:132,1,70,2|8,0:0|0:0,0:0:0:0:
372,168,246424,2,0,B|424:244|364:296,1,140,2|0,0:0|0:0,0:0:0:0:
312,328,247095,1,8,0:0:0:0:
252,304,247319,6,0,B|176:284|108:332,1,140,2|0,0:0|0:0,0:0:0:0:
152,272,247991,2,0,B|172:240|160:196,1,70,8|0,0:0|0:0,0:0:0:0:
136,148,248439,2,0,B|204:176|276:136,2,140,2|8|0,0:0|0:0|0:0,0:0:0:0:
136,148,249558,1,2,0:0:0:0:
200,40,250006,1,0,0:0:0:0:
320,76,250454,1,2,0:0:0:0:
332,200,250901,1,0,0:0:0:0:
216,248,251349,1,2,0:0:0:0:
216,248,251573,2,0,B|192:228|152:224,1,70,8|2,0:0|0:0,0:0:0:0:
92,248,252021,1,4,0:0:0:0:
256,192,252133,12,0,254707,0:0:0:0:
