osu file format v14

[General]
AudioFilename: OreImo - OP Single - ClariS - irony.mp3
AudioLeadIn: 0
PreviewTime: 57916
Countdown: 1
SampleSet: Normal
StackLeniency: 0.2
Mode: 0
LetterboxInBreaks: 0
WidescreenStoryboard: 0

[Editor]
DistanceSpacing: 0.9
BeatDivisor: 8
GridSize: 4
TimelineZoom: 3.799998

[Metadata]
Title:irony
TitleUnicode:irony
Artist:ClariS
ArtistUnicode:ClariS
Creator:HakuNoKaemi
Version:Insane
Source:Ore no Imouto ga konna ni Kawaii Wake ga Nai
Tags:oreimo imouto kiririn shi kirino kousaka kyosuke kuroneko op single Alice Clara Kz livetune Light Novel ASCII Media Works Dengeki Bunko AIC Build Hiroyuki Kanbe Tsukasa Fushimi Hiro Kanzaki -kevincela-
BeatmapID:168270
BeatmapSetID:44626

[Difficulty]
HPDrainRate:7
CircleSize:4
OverallDifficulty:8
ApproachRate:8
SliderMultiplier:1.8
SliderTickRate:2

[Events]
//Background and Video events
Video,-685,"irony video.mp4"
0,0,"BG.jpg",0,0
//Break Periods
2,89683,99927
2,209236,220823
//Storyboard Layer 0 (Background)
//Storyboard Layer 1 (Fail)
//Storyboard Layer 2 (Pass)
//Storyboard Layer 3 (Foreground)
//Storyboard Sound Samples

[TimingPoints]
1275,447.761194029851,4,2,1,5,1,0
1275,-100,4,2,1,100,0,0
13812,-100,4,1,1,40,0,0
14036,-100,4,2,0,40,0,0
14707,-100,4,3,0,80,0,0
15603,-100,4,2,0,100,0,1
15827,-100,4,1,1,40,0,0
17170,-200,4,1,1,40,0,0
17618,-100,4,1,1,40,0,0
18066,-200,4,1,1,40,0,0
18513,-100,4,1,1,40,0,0
19633,-200,4,1,1,40,0,0
20080,-100,4,1,1,40,0,0
20752,-200,4,1,1,40,0,0
21200,-100,4,1,1,40,0,0
21648,-200,4,1,1,40,0,0
22095,-100,4,1,1,40,0,0
24334,-200,4,1,1,40,0,0
24782,-100,4,1,1,40,0,0
25230,-200,4,1,1,40,0,0
25677,-100,4,1,1,40,0,0
26349,-117.647058823529,4,1,1,40,0,0
27245,-100,4,1,1,40,0,0
27916,-117.647058823529,4,1,1,40,0,0
28588,-100,4,1,2,40,0,0
28812,-100,4,1,1,40,0,0
29931,-100,4,2,1,100,0,1
30155,-100,4,2,1,100,0,0
34745,-100,4,2,2,100,0,0
34969,-100,4,2,1,100,0,0
44260,-200,4,2,1,100,0,0
44595,-200,4,2,2,100,0,0
44819,-200,4,2,1,100,0,0
45155,-100,4,2,1,100,0,0
46051,-200,4,2,1,100,0,0
46498,-100,4,2,1,100,0,0
46946,-200,4,2,1,100,0,0
47394,-100,4,2,1,100,0,0
50304,-133.333333333333,4,2,1,100,0,0
50752,-100,4,2,1,100,0,0
55006,-200,4,2,1,100,0,0
55454,-100,4,2,1,100,0,0
56125,-200,4,2,1,100,0,0
56573,-100,4,2,0,100,0,0
58588,-100,4,2,1,50,0,1
59036,-100,4,1,1,50,0,1
60155,-200,4,1,1,50,0,1
60603,-100,4,1,1,50,0,1
62842,-133.333333333333,4,1,1,50,0,1
63289,-100,4,1,1,50,0,1
72469,-100,4,2,1,100,0,0
72916,-100,4,1,1,50,0,1
74483,-200,4,1,1,50,0,1
74931,-100,4,1,1,50,0,1
77730,-100,4,1,2,50,0,1
77954,-100,4,1,1,50,0,1
80080,-133.333333333333,4,1,1,50,0,1
80528,-100,4,1,1,50,0,1
81200,-133.333333333333,4,1,2,50,0,1
81648,-100,4,1,1,50,0,1
83439,-153.846153846153,4,1,1,50,0,1
83998,-153.846153846153,4,1,2,50,0,1
84222,-153.846153846153,4,1,1,50,0,1
84334,-100,4,1,1,50,0,1
86685,-100,4,1,2,50,0,1
86909,-100,4,1,1,50,0,1
87245,-100,4,2,1,100,0,0
101573,-100,4,1,1,50,0,1
101797,-100,4,2,1,100,0,0
106386,-100,4,2,2,100,0,0
106610,-100,4,2,1,100,0,0
115006,-100,4,2,1,5,0,0
115230,-100,4,2,0,60,0,0
115677,-100,4,2,1,100,0,0
115901,-100,4,2,1,100,0,0
118140,-200,4,2,1,100,0,0
119707,-100,4,2,1,100,0,0
123066,-200,4,2,1,100,0,0
123513,-100,4,2,1,100,0,0
127319,-200,4,2,1,100,0,0
127767,-100,4,2,1,100,0,0
129782,-100,4,2,0,100,0,0
129894,-100,4,1,1,50,0,0
130230,-100,4,1,1,50,0,1
134483,-133.333333333333,4,1,1,50,0,1
134931,-100,4,1,1,50,0,1
135043,-100,4,1,2,50,0,1
135267,-100,4,1,1,50,0,1
140752,-200,4,1,1,50,0,1
141312,-200,4,1,2,50,0,1
141536,-200,4,1,1,50,0,1
141648,-100,4,1,1,50,0,1
144110,-100,4,2,1,100,0,0
144558,-100,4,1,1,50,0,1
149260,-200,4,1,1,50,0,1
149372,-200,4,1,2,50,0,1
149707,-100,4,1,1,50,0,1
155080,-200,4,1,1,50,0,1
155752,-100,4,1,1,50,0,1
158886,-100,4,2,1,100,0,0
161125,-100,4,2,1,5,0,0
161349,-100,4,2,1,100,0,0
172319,-200,4,2,1,100,0,0
173215,-133.333333333333,4,2,1,100,0,0
174110,-133.333333333333,4,2,2,100,0,0
174222,-133.333333333333,4,2,1,100,0,0
174670,-133.333333333333,4,2,2,100,0,0
174894,-133.333333333333,4,2,1,100,0,0
175677,-133.333333333333,4,2,1,100,0,0
175901,-133.333333333333,4,2,2,100,0,0
176349,-133.333333333333,4,2,1,100,0,0
177692,-133.333333333333,4,2,1,100,0,0
178364,-133.333333333333,4,2,1,100,0,0
179483,-133.333333333333,4,2,2,100,0,0
179539,-133.333333333333,4,2,1,100,0,0
181275,-133.333333333333,4,2,2,100,0,0
181330,-133.333333333333,4,2,1,100,0,0
183066,-133.333333333333,4,2,2,100,0,0
183177,-133.333333333333,4,2,1,100,0,0
184857,-133.333333333333,4,2,2,100,0,0
184969,-133.333333333333,4,2,1,100,0,0
186648,-133.333333333333,4,2,2,100,0,0
186760,-133.333333333333,4,2,1,100,0,0
188439,-133.333333333333,4,2,2,100,0,0
188551,-133.333333333333,4,2,1,100,0,0
190230,-133.333333333333,4,2,2,100,0,0
190342,-133.333333333333,4,2,1,100,0,0
192021,-133.333333333333,4,2,2,100,0,0
192133,-133.333333333333,4,2,1,100,0,0
193812,-133.333333333333,4,2,2,100,0,0
193924,-133.333333333333,4,2,1,100,0,0
195603,-133.333333333333,4,2,2,100,0,0
195715,-133.333333333333,4,2,1,100,0,0
197394,-133.333333333333,4,2,2,100,0,0
197506,-133.333333333333,4,2,1,100,0,0
199185,-133.333333333333,4,2,2,100,0,0
199297,-133.333333333333,4,2,1,100,0,0
200976,-133.333333333333,4,2,2,100,0,0
201088,-133.333333333333,4,2,1,100,0,0
208588,-133.333333333333,4,2,0,60,0,0
208700,-133.333333333333,4,2,1,100,0,0
223364,-100,4,1,1,60,0,1
231760,-100,4,1,2,60,0,1
231983,-100,4,1,1,60,0,1
236125,-100,4,2,1,100,0,1
237133,-100,4,1,1,60,0,1
237245,-100,4,1,1,65,0,1
237357,-100,4,1,1,70,0,1
237468,-100,4,1,1,75,0,0
237692,-100,4,1,1,80,0,1
237916,-100,4,1,1,60,0,0
251797,-100,4,2,1,100,0,0

[Colours]
Combo1 : 255,180,66
Combo2 : 114,243,117
Combo3 : 91,147,249
Combo4 : 252,73,73

[HitObjects]
184,48,827,6,0,B|212:88|196:136,1,90
256,192,1275,2,0,B|312:116|424:144,1,180,2|8,0:0|0:0,0:0:0:0:
456,212,1946,2,0,B|463:259|423:291,1,90,0|2,0:0|0:0,0:0:0:0:
300,268,2394,2,0,B|256:292|212:268,1,90,0|8,0:0|0:0,0:0:0:0:
89,291,2842,2,0,B|49:259|57:203,1,90,0|2,0:0|0:0,0:0:0:0:
140,224,3289,5,0,0:0:0:0:
372,224,3513,1,8,0:0:0:0:
300,112,3737,2,0,B|256:88|212:112,2,90,0|2|0,0:0|0:0|0:0,0:0:0:0:
348,44,4409,5,8,0:0:0:0:
164,44,4633,1,0,0:0:0:0:
340,196,4857,2,0,B|256:252|172:196,1,180,0|8,0:0|0:0,0:0:0:0:
144,120,5528,2,0,B|76:152|80:236|136:268,1,180
176,332,6200,1,8,0:0:0:0:
368,272,6424,2,0,B|436:240|432:156|376:124,1,180
336,60,7095,1,8,0:0:0:0:
256,172,7319,1,0,0:0:0:0:
176,60,7543,1,2,0:0:0:0:
100,32,7767,5,0,0:0:0:0:
96,72,7879,1,0,0:0:0:0:
112,108,7991,1,8,0:0:0:0:
144,136,8103,1,0,0:0:0:0:
184,148,8215,1,0,0:0:0:0:
208,180,8327,1,0,0:0:0:0:
212,220,8439,2,0,P|268:260|364:216,1,180,4|8,0:0|0:0,0:0:0:0:
140,208,9110,1,0,0:0:0:0:
128,220,9558,1,2,0:0:0:0:
96,296,9782,1,8,0:0:0:0:
48,232,10006,6,0,B|44:180|88:148,1,90,0|2,0:0|0:0,0:0:0:0:
228,80,10454,1,0,0:0:0:0:
296,228,10677,1,8,0:0:0:0:
392,100,10901,2,0,B|440:88|460:40,1,90,2|0,0:0|0:0,0:0:0:0:
476,124,11349,6,0,B|424:132|408:184,1,90,0|8,0:0|0:0,0:0:0:0:
484,208,11797,1,0,0:0:0:0:
472,288,12021,2,0,B|424:272|388:300|388:300|340:332|296:312,1,180,2|8,0:0|0:0,0:0:0:0:
248,256,12692,2,0,B|272:212|248:168,1,90
180,212,13140,6,0,B|133:207|102:170,1,90,2|8,0:0|0:0,0:0:0:0:
196,100,13588,2,0,B|184:52|224:12,1,90,0|2,0:0|0:0,0:0:0:0:
304,92,14036,2,0,B|336:53|383:57,1,90,0|8,0:0|0:0,0:0:0:0:
464,148,14483,1,0,0:0:0:0:
468,228,14707,1,8,0:0:0:0:
440,256,14819,1,0,0:0:0:0:
400,268,14931,1,0,0:0:0:0:
360,256,15043,1,2,0:0:0:0:
332,228,15155,1,0,0:0:0:0:
324,188,15267,1,0,0:0:0:0:
336,148,15379,2,0,B|332:96|280:68|272:72,1,90,4|4,0:0|0:0,0:0:0:0:
256,152,15827,6,0,B|240:196|192:208,1,90,0|8,0:0|0:0,0:0:0:0:
180,128,16275,1,0,0:0:0:0:
116,176,16498,1,0,0:0:0:0:
72,244,16722,2,0,B|32:212|36:164,1,90,0|8,0:0|0:0,0:0:0:0:
148,248,17170,2,0,B|188:280|184:328,1,90
104,320,17842,1,8,0:0:0:0:
148,248,18066,6,0,B|180:208|228:212,1,90
268,280,18737,2,0,B|308:252|308:196,1,90,8|0,0:0|0:0,0:0:0:0:
300,64,19185,1,0,0:0:0:0:
300,64,19633,2,0,B|264:92|264:144,1,90,8|0,0:0|0:0,0:0:0:0:
348,132,20304,1,0,0:0:0:0:
380,56,20528,1,8,0:0:0:0:
428,120,20752,6,0,B|448:164|500:168,1,90
500,88,21424,1,8,0:0:0:0:
428,120,21648,2,0,B|384:140|380:192,1,90
460,196,22319,2,0,B|456:248|404:268,1,90,8|0,0:0|0:0,0:0:0:0:
332,244,22767,6,0,B|288:200|208:208|168:264,1,180,0|8,0:0|0:0,0:0:0:0:
228,196,23439,2,0,B|256:160|248:112,1,90
172,132,23886,2,0,B|152:88|100:88,1,90,0|8,0:0|0:0,0:0:0:0:
104,168,24334,2,0,B|60:188|60:240,1,90
140,240,25006,1,8,0:0:0:0:
212,204,25230,6,0,B|240:168|292:176,1,90
368,208,25901,2,0,B|420:208|448:156,1,90,8|0,0:0|0:0,0:0:0:0:
372,128,26349,2,0,B|452:260,2,153.000002918243,0|8|0,0:0|0:0|0:0,0:0:0:0:
372,128,27469,1,0,0:0:0:0:
140,128,27916,6,0,B|60:260,2,153.000002918243
176,200,29036,1,0,0:0:0:0:
192,215,29147,1,0,0:0:0:0:
212,225,29259,1,0,0:0:0:0:
233,232,29371,1,0,0:0:0:0:
256,233,29483,1,0,0:0:0:0:
280,232,29595,1,0,0:0:0:0:
300,225,29707,1,0,0:0:0:0:
319,215,29819,1,0,0:0:0:0:
336,199,29931,1,4,0:0:0:0:
332,120,30155,1,0,0:0:0:0:
256,92,30379,6,0,B|200:108|128:80|112:8,1,180,10|0,0:0|0:0,0:0:0:0:
128,96,31051,2,0,B|136:144|96:180,1,90,0|8,0:0|0:0,0:0:0:0:
24,204,31498,1,2,0:0:0:0:
24,204,31722,2,0,B|72:156|156:200|144:268,1,180,0|8,0:0|0:0,0:0:0:0:
224,240,32394,6,0,B|232:292|200:332,1,90,2|0,0:0|0:0,0:0:0:0:
288,144,32842,2,0,B|280:92|312:52,1,90,2|8,0:0|0:0,0:0:0:0:
364,116,33289,1,0,0:0:0:0:
364,116,33513,2,0,B|348:184|440:224|488:180,1,180,2|8,0:0|0:0,0:0:0:0:
308,200,34185,6,0,B|356:280|464:272,2,180,2|2|2,0:0|0:0|0:0,0:0:0:0:
256,140,35304,1,0,0:0:0:0:
196,88,35528,2,0,B|164:128|184:172,1,90,0|8,0:0|0:0,0:0:0:0:
224,244,35976,2,0,B|244:288|212:328,1,90,2|0,0:0|0:0,0:0:0:0:
152,276,36424,1,0,0:0:0:0:
260,152,36648,1,8,0:0:0:0:
372,244,36872,1,2,0:0:0:0:
372,244,37095,1,0,0:0:0:0:
448,276,37319,5,0,0:0:0:0:
456,236,37431,1,0,0:0:0:0:
444,196,37543,1,8,0:0:0:0:
412,168,37655,1,0,0:0:0:0:
372,156,37767,1,0,0:0:0:0:
332,164,37879,1,0,0:0:0:0:
304,192,37991,1,2,0:0:0:0:
288,276,38215,2,0,B|240:268|224:216,1,90,0|8,0:0|0:0,0:0:0:0:
248,132,38663,2,0,B|232:84|180:76,1,90,2|0,0:0|0:0,0:0:0:0:
168,156,39110,6,0,B|148:176|148:204,1,45
148,236,39334,2,0,B|132:220|112:212,1,45,8|0,0:0|0:0,0:0:0:0:
96,252,39558,2,0,B|88:272|68:288,1,45,2|0,0:0|0:0,0:0:0:0:
40,260,39782,2,0,B|56:212|24:176,1,90
88,128,40230,2,0,B|64:84|92:44,1,90,10|0,0:0|0:0,0:0:0:0:
160,92,40677,1,0,0:0:0:0:
248,72,40901,5,0,0:0:0:0:
288,72,41013,1,0,0:0:0:0:
312,40,41125,2,0,B|328:28|364:24,1,45,8|0,0:0|0:0,0:0:0:0:
388,48,41349,2,0,B|388:72|400:92,1,45
432,116,41573,2,0,B|452:164|448:244|368:272,1,180,0|8,0:0|0:0,0:0:0:0:
308,312,42245,2,0,P|268:316|228:356,1,90,2|0,0:0|0:0,0:0:0:0:
210,268,42692,5,2,0:0:0:0:
184,248,42804,1,0,0:0:0:0:
164,224,42916,1,10,0:0:0:0:
152,196,43028,1,0,0:0:0:0:
148,164,43140,1,0,0:0:0:0:
152,132,43252,1,0,0:0:0:0:
164,104,43364,1,0,0:0:0:0:
212,36,43588,1,0,0:0:0:0:
280,84,43812,2,0,B|324:64|368:84,1,90,8|0,0:0|0:0,0:0:0:0:
344,4,44260,6,0,B|372:96|464:132,1,180,4|0,0:0|0:0,0:0:0:0:
384,148,45379,2,0,B|428:184|420:232,1,90,0|8,0:0|0:0,0:0:0:0:
340,216,45827,1,2,0:0:0:0:
340,216,46051,2,0,B|328:260|276:280,1,90,0|8,0:0|0:0,0:0:0:0:
172,168,46722,1,0,0:0:0:0:
172,168,46946,2,0,B|184:124|236:104,1,90,2|8,0:0|0:0,0:0:0:0:
256,192,47618,1,0,0:0:0:0:
312,136,47842,2,0,B|300:208|372:256|432:224,1,180,2|8,0:0|0:0,0:0:0:0:
392,152,48513,5,0,0:0:0:0:
392,152,48737,2,0,B|348:176|316:256|400:304,1,180,2|8,0:0|0:0,0:0:0:0:
316,332,49409,2,0,B|268:284|260:216|288:160,1,180,2|0,0:0|0:0,0:0:0:0:
248,236,50080,1,8,0:0:0:0:
248,236,50304,2,0,B|220:200|168:192|120:232,1,135.000005149842,2|0,0:0|0:0,0:0:0:0:
184,288,50976,6,0,B|164:332|176:376,1,90,8|0,0:0|0:0,0:0:0:0:
184,288,51424,2,0,B|236:212|220:116,1,180,0|8,0:0|0:0,0:0:0:0:
236,36,52095,5,0,0:0:0:0:
304,84,52319,2,0,B|340:56|436:68|448:144,1,180,2|8,0:0|0:0,0:0:0:0:
408,248,52991,2,0,B|372:276|276:264|264:188,1,180,2|0,0:0|0:0,0:0:0:0:
356,164,53663,1,8,0:0:0:0:
224,116,53886,1,0,0:0:0:0:
224,116,54110,1,0,0:0:0:0:
232,276,54558,6,0,B|192:304|140:304,1,90,10|2,0:0|0:0,0:0:0:0:
276,196,55006,2,0,B|316:168|368:168,1,90,0|8,0:0|0:0,0:0:0:0:
312,268,55677,2,0,B|340:308|340:360,1,90
200,204,56125,2,0,B|172:164|172:112,1,90,2|2,0:0|0:0,0:0:0:0:
256,192,56685,12,0,57692,0:0:0:0:
148,144,58140,6,0,B|100:72|176:8|228:32,1,180,8|4,0:0|0:0,0:0:0:0:
92,196,59036,5,8,0:0:0:0:
108,276,59260,2,0,B|160:264|172:216,1,90,2|0,0:0|0:0,0:0:0:0:
291,218,59707,2,0,B|239:230|228:276,1,90,0|8,0:0|0:0,0:0:0:0:
308,300,60155,2,0,B|344:336|396:328,1,90,2|0,0:0|0:0,0:0:0:0:
456,284,60827,2,0,B|424:244|372:248,1,90,10|0,0:0|0:0,0:0:0:0:
212,188,61275,2,0,B|240:224|292:220,1,90
276,140,61722,5,8,0:0:0:0:
252,64,61946,1,0,0:0:0:0:
184,108,62170,2,0,B|149:139|99:134|99:134|135:169|128:216,1,180,2|8,0:0|0:0,0:0:0:0:
45,198,62842,2,0,B|-3:220|-28:286|-16:322,1,135.000005149842,2|2,0:0|0:0,0:0:0:0:
108,308,63513,1,8,0:0:0:0:
108,308,63737,6,0,B|148:328|148:328|156:324|156:324|228:352|272:288,1,180,0|0,0:0|0:0,0:0:0:0:
196,252,64409,1,8,0:0:0:0:
196,172,64633,2,0,B|176:120|130:116,1,90,0|2,0:0|0:0,0:0:0:0:
116,196,65080,1,0,0:0:0:0:
36,218,65304,6,0,B|48:264|100:276,1,90,8|0,0:0|0:0,0:0:0:0:
180,248,65752,2,0,B|224:204|308:228|316:300,1,180,6|8,0:0|0:0,0:0:0:0:
236,308,66424,2,0,B|224:264|256:224|256:224|296:188|288:136,1,180,2|0,0:0|0:0,0:0:0:0:
208,156,67095,1,8,0:0:0:0:
236,80,67319,6,0,B|192:64|152:96|152:96|108:128|68:116,1,180,2|2,0:0|0:0,0:0:0:0:
88,36,67991,1,8,0:0:0:0:
236,80,68215,2,0,B|279:96|290:146|290:146|303:199|341:215,1,180,2|0,0:0|0:0,0:0:0:0:
372,140,68886,5,8,0:0:0:0:
208,156,69110,2,0,B|140:180|144:256|144:256|148:320|104:352|48:328,1,270,2|8,0:0|0:0,0:0:0:0:
228,240,70006,2,0,B|236:288|216:328,1,90,2|0,0:0|0:0,0:0:0:0:
284,124,70454,2,0,B|276:76|296:36,1,90,0|8,0:0|0:0,0:0:0:0:
208,156,70901,2,0,B|160:164|120:144,1,90,2|0,0:0|0:0,0:0:0:0:
324,212,71349,2,0,B|372:204|412:224,2,90,2|8|0,0:0|0:0|0:0,0:0:0:0:
328,292,72021,1,0,0:0:0:0:
316,291,72132,1,0,0:0:0:0:
305,289,72244,1,0,0:0:0:0:
294,286,72356,1,0,0:0:0:0:
284,282,72469,5,12,0:0:0:0:
275,275,72580,1,0,0:0:0:0:
267,268,72692,1,8,0:0:0:0:
260,259,72804,1,0,0:0:0:0:
254,249,72916,2,0,B|240:184|144:168|112:232,1,180,0|8,0:0|0:0,0:0:0:0:
180,276,73588,2,0,P|166:318|176:368,1,90
366,215,74036,6,0,P|410:206|444:178,1,90,0|8,0:0|0:0,0:0:0:0:
220,85,74483,2,0,P|191:51|149:36,1,90,2|0,0:0|0:0,0:0:0:0:
180,148,75155,2,0,B|160:192|180:236,1,90,8|2,0:0|0:0,0:0:0:0:
332,236,75603,2,0,B|352:192|332:148,1,90,0|2,0:0|0:0,0:0:0:0:
268,104,76051,6,0,B|260:72|288:52|280:16,2,90,8|0|2,0:0|0:0|0:0,0:0:0:0:
244,280,76946,1,8,0:0:0:0:
244,280,77170,2,0,B|252:312|224:332|232:368,1,90,2|0,0:0|0:0,0:0:0:0:
316,264,77618,2,0,B|303:210|257:195|206:194|177:249,1,180,0|2,0:0|0:0,0:0:0:0:
244,280,78289,1,0,0:0:0:0:
388,232,78513,2,0,B|368:188|328:156,1,90,0|8,0:0|0:0,0:0:0:0:
116,208,78961,2,0,B|142:167|187:142,1,90,0|2,0:0|0:0,0:0:0:0:
260,128,79409,1,0,0:0:0:0:
312,64,79633,6,0,B|360:80|400:60,1,90,8|0,0:0|0:0,0:0:0:0:
468,16,80080,2,0,B|416:60|416:144,1,135,0|8,0:0|0:0,0:0:0:0:
416,136,80752,1,0,0:0:0:0:
95,247,81200,2,0,B|96:324|44:368,1,135
44,367,81872,1,0,0:0:0:0:
152,192,82095,1,0,0:0:0:0:
308,284,82319,1,8,0:0:0:0:
312,104,82543,1,0,0:0:0:0:
316,24,82991,6,0,B|368:32|388:80,1,90,0|8,0:0|0:0,0:0:0:0:
372,156,83439,2,0,B|332:208|232:192|212:108|248:60,1,233.999989288331,0|2,0:0|0:0,0:0:0:0:
220,224,84782,6,0,B|238:271|216:311,1,90,0|8,0:0|0:0,0:0:0:0:
113,344,85230,2,0,B|65:257|132:176,1,180,2|0,0:0|0:0,0:0:0:0:
208,144,85901,1,8,0:0:0:0:
208,144,86125,2,0,B|240:108|240:60,1,90
288,128,86573,2,0,B|324:176|420:164|428:84,1,180
348,72,87245,1,4,0:0:0:0:
256,192,87319,12,8,89483,0:0:0:0:
256,192,100677,12,4,101573,0:0:0:0:
84,248,102021,6,0,B|68:208|80:152|128:128|180:136,1,180,8|0,0:0|0:0,0:0:0:0:
160,216,102692,2,0,B|180:268|152:300,1,90,2|8,0:0|0:0,0:0:0:0:
160,216,103140,2,0,B|204:232|244:196|244:196|284:160|328:168,1,180
308,248,103812,1,8,0:0:0:0:
384,272,104036,2,0,B|416:304|436:348,1,90,2|2,0:0|0:0,0:0:0:0:
384,272,104483,1,0,0:0:0:0:
408,196,104707,1,8,0:0:0:0:
408,196,104931,1,2,0:0:0:0:
332,172,105155,6,0,B|262:83|175:149,1,180,0|8,0:0|0:0,0:0:0:0:
140,220,105827,2,0,B|200:143|170:49,2,180,0|0|2,0:0|0:0|0:0,0:0:0:0:
76,168,106946,1,0,0:0:0:0:
76,168,107170,2,0,B|102:129|96:80,1,90,2|8,0:0|0:0,0:0:0:0:
60,292,107618,2,0,B|112:280|172:328|172:328|200:348|240:348,1,180,2|0,0:0|0:0,0:0:0:0:
228,268,108289,1,8,0:0:0:0:
256,192,108513,1,0,0:0:0:0:
308,256,108737,1,0,0:0:0:0:
332,180,108961,5,0,0:0:0:0:
316,144,109073,1,0,0:0:0:0:
284,120,109185,1,10,0:0:0:0:
244,120,109297,1,0,0:0:0:0:
208,136,109409,1,0,0:0:0:0:
184,168,109521,1,0,0:0:0:0:
184,208,109633,2,0,B|160:248|104:276|52:248|32:204,1,180,2|8,0:0|0:0,0:0:0:0:
108,172,110304,2,0,B|62:160|48:106,1,90,0|0,0:0|0:0,0:0:0:0:
128,96,110752,5,0,0:0:0:0:
144,60,110864,1,0,0:0:0:0:
176,36,110976,1,8,0:0:0:0:
216,32,111088,1,0,0:0:0:0:
256,40,111200,1,2,0:0:0:0:
280,72,111312,1,0,0:0:0:0:
300,108,111424,2,0,B|320:152|376:156,2,90,0|0|8,0:0|0:0|0:0,0:0:0:0:
372,72,112095,5,0,0:0:0:0:
372,72,112319,2,0,B|272:224,1,180,2|8,0:0|0:0,0:0:0:0:
268,304,112991,2,0,B|216:300|196:260|196:260|180:204|136:196,1,180,2|0,0:0|0:0,0:0:0:0:
116,276,113663,2,0,B|88:312|96:368,1,90,8|0,0:0|0:0,0:0:0:0:
76,208,114110,2,0,B|32:232|8:280,1,90,8|8,0:0|0:0,0:0:0:0:
88,124,114558,2,0,P|40:136|4:164,1,90,10|8,0:0|0:0,0:0:0:0:
156,96,115230,2,0,B|204:80|220:28,2,90,2|8|8,0:0|0:0|0:0,0:0:0:0:
136,16,115901,6,8,B|160:88|252:104|284:84,1,180,4|8,0:0|0:0,0:0:0:0:
344,28,116573,1,2,0:0:0:0:
284,84,116797,2,0,B|272:144|292:204|348:244,1,180,0|8,0:0|0:0,0:0:0:0:
440,112,117469,5,0,0:0:0:0:
364,96,117693,2,0,B|360:124|368:152|396:176,1,90,2|0,0:0|0:0,0:0:0:0:
472,188,118140,2,0,B|460:232|472:276,1,90,8|2,0:0|0:0,0:0:0:0:
392,260,118812,1,0,0:0:0:0:
408,340,119036,2,0,B|352:344|324:304,1,90,8|2,0:0|0:0,0:0:0:0:
316,228,119707,2,0,B|296:180|248:168,1,90,0|8,0:0|0:0,0:0:0:0:
172,184,120155,5,0,0:0:0:0:
172,184,120379,2,0,B|128:171|114:116|114:116|103:72|54:52,1,180,2|8,0:0|0:0,0:0:0:0:
29,132,121051,2,0,B|70:150|116:115|116:115|152:88|202:103,1,180,0|2,0:0|0:0,0:0:0:0:
252,164,121722,2,0,B|300:176|336:144,1,90,8|2,0:0|0:0,0:0:0:0:
276,88,122170,1,0,0:0:0:0:
324,244,122618,6,0,B|356:284|408:280,1,90,8|0,0:0|0:0,0:0:0:0:
276,304,123066,2,0,B|244:264|192:268,1,90,2|8,0:0|0:0,0:0:0:0:
208,348,123737,1,0,0:0:0:0:
192,196,123961,2,0,B|153:216|77:213|49:126,1,180,2|8,0:0|0:0,0:0:0:0:
256,160,124633,2,0,B|292:140|372:148|398:229,1,180,2|0,0:0|0:0,0:0:0:0:
368,152,125304,2,0,B|376:104|424:80,1,90,0|2,0:0|0:0,0:0:0:0:
296,248,125752,2,0,B|288:304|244:320,1,90
212,244,126200,6,0,B|188:204|180:160,1,90,8|0,0:0|0:0,0:0:0:0:
260,160,126648,2,0,B|256:100|288:28|343:-5,1,180,2|8,0:0|0:0,0:0:0:0:
380,68,127319,2,0,B|344:96|340:152,2,90,2|0|0,0:0|0:0|0:0,0:0:0:0:
256,192,128271,12,0,129334,0:0:0:0:
80,224,129782,6,0,B|128:264|196:268|248:212,1,180,8|4,0:0|0:0,0:0:0:0:
80,224,130677,1,8,0:0:0:0:
80,224,130901,2,0,B|104:180|80:136,1,90
12,180,131349,2,0,B|-12:132|16:92,1,90,2|8,0:0|0:0,0:0:0:0:
84,56,131797,2,0,B|176:92|256:40,1,180,0|2,0:0|0:0,0:0:0:0:
180,69,132469,2,0,B|148:105|160:152,1,90,8|2,0:0|0:0,0:0:0:0:
222,213,132916,2,0,B|206:167|155:151,1,90
59,211,133364,6,0,B|44:257|87:335|168:314,1,180,8|2,0:0|0:0,0:0:0:0:
140,236,134036,1,0,0:0:0:0:
220,212,134260,1,8,0:0:0:0:
220,212,134483,2,0,B|228:264|328:296,2,135.000005149842,2|0|0,0:0|0:0|0:0,0:0:0:0:
256,52,135827,2,0,B|208:32|168:52,1,90,0|8,0:0|0:0,0:0:0:0:
256,52,136275,2,0,B|304:72|344:52,1,90,0|2,0:0|0:0,0:0:0:0:
420,80,136722,1,0,0:0:0:0:
436,160,136946,6,0,B|408:204|432:244,1,90,8|0,0:0|0:0,0:0:0:0:
484,308,137394,2,0,B|416:240|316:264,1,180,2|8,0:0|0:0,0:0:0:0:
240,288,138066,2,0,B|144:320|68:252,1,180,2|0,0:0|0:0,0:0:0:0:
71,255,138737,1,0,0:0:0:0:
240,288,138961,6,0,B|172:220|196:120,1,180,0|2,0:0|0:0,0:0:0:0:
276,124,139633,1,8,0:0:0:0:
276,124,139857,2,0,B|180:140|108:76,1,180,2|0,0:0|0:0,0:0:0:0:
156,8,140528,1,8,0:0:0:0:
156,8,140752,2,0,B|116:96|28:128,1,180,2|0,0:0|0:0,0:0:0:0:
188,104,142095,6,0,B|148:132|156:184,2,90,0|8|2,0:0|0:0|0:0,0:0:0:0:
200,296,142991,2,0,B|240:268|232:216,2,90,2|8|0,0:0|0:0|0:0,0:0:0:0:
232,136,143663,5,0,0:0:0:0:
272,144,143775,1,0,0:0:0:0:
300,172,143886,2,0,B|332:208|380:200,1,90,0|12,0:0|0:0,0:0:0:0:
416,180,144222,1,0,0:0:0:0:
432,144,144334,1,8,0:0:0:0:
424,104,144446,1,0,0:0:0:0:
400,72,144558,6,0,B|344:56|296:84|284:136|300:172,1,180,4|8,0:0|0:0,0:0:0:0:
352,236,145230,2,0,B|364:272|344:328|296:352|244:332,1,180,0|2,0:0|0:0,0:0:0:0:
276,260,145901,1,8,0:0:0:0:
196,272,146125,2,0,B|96:280|28:212,1,180,2|0,0:0|0:0,0:0:0:0:
31,215,146797,1,8,0:0:0:0:
40,136,147021,1,0,0:0:0:0:
40,136,147245,1,0,0:0:0:0:
188,72,147692,5,8,0:0:0:0:
108,92,147916,1,0,0:0:0:0:
188,72,148140,2,0,B|232:160|336:160,1,180,2|8,0:0|0:0,0:0:0:0:
255,142,148812,2,0,B|216:167|216:217,1,90
255,142,149260,2,0,B|293:116|293:66,1,90,2|0,0:0|0:0,0:0:0:0:
328,220,150155,2,0,B|360:256|408:248,1,90,0|8,0:0|0:0,0:0:0:0:
388,168,150603,2,0,B|420:84,1,90,2|0,0:0|0:0,0:0:0:0:
328,220,151275,6,0,B|236:180|152:216,1,180,0|2,0:0|0:0,0:0:0:0:
328,220,152170,2,0,B|312:264|336:308,1,90,8|0,0:0|0:0,0:0:0:0:
404,260,152618,1,0,0:0:0:0:
328,220,152842,6,0,B|344:176|320:132,1,90,2|8,0:0|0:0,0:0:0:0:
252,180,153289,2,0,B|204:176|176:140|176:140|156:180|104:200,1,180,2|0,0:0|0:0,0:0:0:0:
148,268,153961,2,0,B|167:284|191:281|191:281|215:274|224:254,1,90,8|0,0:0|0:0,0:0:0:0:
80,328,154633,6,0,B|48:288|60:240,1,90,0|8,0:0|0:0,0:0:0:0:
120,192,155080,2,0,B|140:120|96:64,1,135,2|8,0:0|0:0,0:0:0:0:
96,64,155976,1,0,0:0:0:0:
256,96,156424,1,0,0:0:0:0:
316,40,156648,1,8,0:0:0:0:
336,120,156872,1,4,0:0:0:0:
400,268,157319,2,0,B|360:216|264:232|256:296,1,180,2|0,0:0|0:0,0:0:0:0:
376,156,158215,2,0,B|280:136|212:208,1,180,2|0,0:0|0:0,0:0:0:0:
212,207,158886,1,4,0:0:0:0:
256,192,158961,12,2,161125,0:0:0:0:
44,256,161573,5,2,0:0:0:0:
112,212,161797,1,0,0:0:0:0:
112,212,161909,1,2,0:0:0:0:
168,264,162133,1,2,0:0:0:0:
232,232,162469,1,2,0:0:0:0:
232,232,162692,6,0,B|240:184|288:164,1,90,0|2,0:0|0:0,0:0:0:0:
312,244,163140,2,0,B|304:292|256:308,1,90,0|2,0:0|0:0,0:0:0:0:
176,292,163588,1,0,0:0:0:0:
56,308,163924,6,0,B|88:276|92:220|48:188,2,135,2|0|0,0:0|0:0|0:0,0:0:0:0:
104,140,164931,2,0,B|76:112|68:48|116:0|180:8,1,180,2|0,0:0|0:0,0:0:0:0:
168,88,165603,1,0,0:0:0:0:
180,168,165827,1,2,0:0:0:0:
260,164,166051,5,0,0:0:0:0:
260,164,166163,1,2,0:0:0:0:
304,232,166386,1,2,0:0:0:0:
384,224,166610,2,0,B|408:232|424:252,1,45,0|2,0:0|0:0,0:0:0:0:
400,284,166834,2,0,B|384:300|377:322,1,45,2|0,0:0|0:0,0:0:0:0:
296,324,167170,1,2,0:0:0:0:
232,276,167394,6,0,B|184:292|132:284|96:240|92:196,1,180,2|2,0:0|0:0,0:0:0:0:
90,199,167954,1,0,0:0:0:0:
88,196,168066,1,0,0:0:0:0:
160,156,168289,1,2,0:0:0:0:
232,192,168513,1,0,0:0:0:0:
156,72,168737,2,0,B|204:56|256:64|292:108|296:152,1,180,2|0,0:0|0:0,0:0:0:0:
376,140,169409,2,0,B|372:116,3,22.5
368,100,169633,6,0,B|352:56|316:24,2,90,2|0|2,0:0|0:0|0:0,0:0:0:0:
380,180,170304,2,0,B|382:226|361:270,1,90,0|2,0:0|0:0,0:0:0:0:
352,284,170752,1,0,0:0:0:0:
292,180,171088,6,0,B|296:216|272:276|232:296,2,135,2|8|2,0:0|0:0|0:0,0:0:0:0:
172,192,172095,1,2,0:0:0:0:
132,188,172207,1,0,0:0:0:0:
104,160,172319,2,0,B|68:96|116:32|184:40,1,180,8|4,0:0|0:0,0:0:0:0:
324,116,173663,6,0,B|384:148|424:128,1,101.250003862381,2|0,0:0|0:0,0:0:0:0:
452,100,174110,2,0,B|420:164|452:232,2,135.000005149842,8|0|8,0:0|0:0|0:0,0:0:0:0:
388,48,175230,1,0,0:0:0:0:
278,80,175454,2,0,B|258:72|244:55|244:55|243:60|243:60|239:53|239:53|238:98|197:126,1,143.437505471707,0|8,0:0|0:0,0:0:0:0:
148,48,176125,1,0,0:0:0:0:
88,104,176349,6,0,B|112:140|160:136|184:128,1,101.250003862381,2|0,0:0|0:0,0:0:0:0:
212,104,176797,2,0,B|200:176|264:224,2,135.000005149842,8|0|8,0:0|0:0|0:0,0:0:0:0:
88,208,178140,1,0,0:0:0:0:
8,204,178364,2,0,B|12:244|36:268,1,67.5000025749208,8|8,0:0|0:0,0:0:0:0:
112,292,178812,1,0,0:0:0:0:
168,232,179036,2,0,B|232:188|296:216,2,135.000005149842,2|8|2,0:0|0:0|0:0,0:0:0:0:
232,184,180155,2,0,B|264:152|272:120,1,67.5000025749208,8|8,0:0|0:0,0:0:0:0:
220,48,180827,6,0,B|252:108|324:128,1,135.000005149842,0|8,0:0|0:0,0:0:0:0:
472,192,181722,2,0,B|404:192,2,67.5000025749208,0|8|8,0:0|0:0|0:0,0:0:0:0:
220,336,182618,2,0,B|252:276|324:256,1,135.000005149842,2|8,0:0|0:0,0:0:0:0:
220,336,183513,2,0,B|176:280|196:208,1,135.000005149842,0|8,0:0|0:0,0:0:0:0:
136,152,184185,1,0,0:0:0:0:
260,160,184409,1,2,0:0:0:0:
204,104,184633,1,0,0:0:0:0:
136,152,184857,1,8,0:0:0:0:
280,80,185304,6,0,B|316:72|332:32,1,67.5000025749208,0|8,0:0|0:0,0:0:0:0:
256,8,185752,2,0,B|352:104,1,135.000005149842,8|0,0:0|0:0,0:0:0:0:
408,160,186424,2,0,B|431:131|429:95,1,67.5000025749208,0|8,0:0|0:0,0:0:0:0:
408,160,186872,2,0,B|384:188|386:224,1,67.5000025749208,0|2,0:0|0:0,0:0:0:0:
468,220,187319,1,0,0:0:0:0:
468,220,187543,6,0,B|332:180,1,135.000005149842,4|0,0:0|0:0,0:0:0:0:
276,128,188215,2,0,B|252:160|260:204,2,67.5000025749208,0|8|0,0:0|0:0|0:0,0:0:0:0:
332,72,188886,2,0,B|296:44|256:52,1,67.5000025749208,0|8,0:0|0:0,0:0:0:0:
200,96,189334,2,0,B|132:116|72:72,1,135.000005149842,8|0,0:0|0:0,0:0:0:0:
36,44,189950,2,0,B|44:80|20:128,1,84.3750032186509,8|8,0:0|0:0,0:0:0:0:
52,288,190677,2,0,B|44:252|60:220,1,67.5000025749208,2|0,0:0|0:0,0:0:0:0:
128,264,191125,6,0,B|160:196|236:192,1,135.000005149842,8|0,0:0|0:0,0:0:0:0:
232,272,191797,2,0,B|268:268|297:292,1,67.5000025749208,0|8,0:0|0:0,0:0:0:0:
244,136,192469,1,0,0:0:0:0:
308,188,192692,1,8,0:0:0:0:
320,108,192916,2,0,B|376:56|448:88,1,135.000005149842,8|0,0:0|0:0,0:0:0:0:
492,152,193588,1,0,0:0:0:0:
480,232,193812,2,0,B|424:284|352:252,1,135.000005149842,8|2,0:0|0:0,0:0:0:0:
308,188,194483,1,8,0:0:0:0:
308,188,194707,6,0,B|332:256|288:320,1,135.000005149842,8|2,0:0|0:0,0:0:0:0:
216,284,195379,1,0,0:0:0:0:
228,204,195603,2,0,B|192:196|160:176,1,67.5000025749208,8|0,0:0|0:0,0:0:0:0:
176,100,196051,2,0,B|212:108|244:132,1,67.5000025749208,2|0,0:0|0:0,0:0:0:0:
296,72,196498,2,0,B|260:64|232:40,1,67.5000025749208,8|0,0:0|0:0,0:0:0:0:
156,20,196946,6,0,B|128:32|120:46|120:46|114:46|114:46|121:50|121:50|116:52|116:52|98:81|57:101,1,135.000005149842,0|8,0:0|0:0,0:0:0:0:
68,280,197842,2,0,B|124:232|100:156,2,135.000005149842,0|10|0,0:0|0:0|0:0,0:0:0:0:
48,120,199185,2,0,B|112:160|184:120,1,135.000005149842,8|10,0:0|0:0,0:0:0:0:
168,44,199857,1,0,0:0:0:0:
168,44,200080,2,0,B|156:108|208:168,2,135.000005149842,8|0|8,0:0|0:0|0:0,0:0:0:0:
288,152,201424,2,0,B|304:204|260:252|212:252,1,135.000005149842,2|4,0:0|0:0,0:0:0:0:
256,192,201946,12,2,203663,0:0:0:0:
256,192,203737,12,2,205454,0:0:0:0:
256,192,205510,12,8,208588,0:0:0:0:
256,192,209036,5,4,0:0:0:0:
256,192,221573,12,2,222916,0:3:0:0:
116,212,223140,5,4,0:3:0:0:
116,212,223364,2,0,B|88:128|160:40,1,180,4|8,0:0|0:0,0:0:0:0:
156,44,224036,1,2,0:0:0:0:
268,160,224483,2,0,B|316:156|344:112,1,90,2|8,0:0|0:0,0:0:0:0:
368,40,224931,2,0,B|347:135|414:211,1,180,2|0,0:0|0:0,0:0:0:0:
412,208,225603,1,8,0:0:0:0:
360,340,225827,1,2,0:0:0:0:
260,236,226051,2,0,B|184:172|88:220,1,180,0|8,0:0|0:0,0:0:0:0:
164,344,226722,5,2,0:0:0:0:
260,236,226946,2,0,B|304:192|304:112|252:72,1,180,4|8,0:0|0:0,0:0:0:0:
256,76,227618,1,0,0:0:0:0:
184,156,228066,1,2,0:0:0:0:
260,236,228513,1,0,0:0:0:0:
328,152,228961,2,0,B|376:160|408:124,1,90,0|8,0:0|0:0,0:0:0:0:
428,44,229409,1,0,0:0:0:0:
327,151,229634,2,0,B|335:103|299:71,1,90,0|2,0:0|0:0,0:0:0:0:
224,148,230080,6,0,B|196:188|148:188,2,90,8|0|4,0:0|0:0|0:0,0:0:0:0:
232,256,230976,1,8,0:0:0:0:
152,104,231200,1,2,0:0:0:0:
140,92,231648,2,0,B|36:96|12:208,2,180,2|0|2,0:0|0:0|0:0,0:0:0:0:
200,48,232767,2,0,P|248:40|276:12,1,90,8|2,0:0|0:0,0:0:0:0:
240,116,233215,1,0,0:0:0:0:
320,92,233439,5,2,0:0:0:0:
464,208,233663,1,8,0:0:0:0:
296,256,233886,1,2,0:0:0:0:
296,256,234110,2,0,B|280:304|224:316,1,90
152,288,234558,2,0,B|168:240|224:228,1,90,8|4,0:0|0:0,0:0:0:0:
348,320,235230,6,0,B|384:288|372:232,1,90,4|8,0:0|0:0,0:0:0:0:
456,236,235677,2,0,B|396:244|316:192|312:116,1,180,4|0,0:0|0:0,0:0:0:0:
392,108,236349,1,10,0:0:0:0:
464,148,236573,2,0,B|484:96|460:60,1,90,2|0,0:0|0:0,0:0:0:0:
428,36,236909,1,8,0:0:0:0:
388,28,237021,1,8,0:0:0:0:
348,40,237133,1,0,0:0:0:0:
320,72,237245,1,0,0:0:0:0:
312,112,237357,1,0,0:0:0:0:
324,152,237469,2,0,B|348:196|320:240,1,90,0|4,0:0|0:0,0:0:0:0:
256,192,237916,6,0,P|240:232|188:260,1,90,0|8,0:0|0:0,0:0:0:0:
172,180,238364,2,0,P|132:200|84:196,1,90,2|0,0:0|0:0,0:0:0:0:
72,116,238812,2,0,P|116:96|156:100,1,90,0|8,0:0|0:0,0:0:0:0:
272,28,239260,2,0,B|224:80|260:156|324:164,1,180,2|2,0:0|0:0,0:0:0:0:
324,164,239931,1,8,0:0:0:0:
384,220,240155,6,0,B|412:192|420:136|384:88|332:84,1,180,0|2,0:0|0:0,0:0:0:0:
312,244,240827,2,0,B|284:288|304:328,1,90,8|0,0:0|0:0,0:0:0:0:
324,164,241275,2,0,B|296:136|240:128|192:164|188:216,2,180,2|8|2,0:0|0:0|0:0,0:0:0:0:
176,100,242394,2,0,B|212:72|260:68,1,90,0|8,0:0|0:0,0:0:0:0:
268,228,242842,2,0,B|264:280|216:316|160:308|132:280,1,180,2|0,0:0|0:0,0:0:0:0:
268,228,243513,1,8,0:0:0:0:
272,232,243737,2,0,B|276:180|324:144|380:152|408:180,1,180,0|2,0:0|0:0,0:0:0:0:
228,132,244409,2,0,B|196:176|188:228,1,90,8|0,0:0|0:0,0:0:0:0:
168,292,244857,6,0,B|160:232|92:184|28:228,1,180,4|8,0:0|0:0,0:0:0:0:
88,172,245528,2,0,B|52:136|56:92,1,90,0|0,0:0|0:0,0:0:0:0:
136,108,245976,2,0,B|176:76|224:88,1,90,0|8,0:0|0:0,0:0:0:0:
176,20,246424,2,0,B|196:76|276:104|332:64,1,180,2|0,0:0|0:0,0:0:0:0:
327,67,247095,1,8,0:0:0:0:
344,148,247319,6,0,B|412:136|464:184|452:256,1,180,0|2,0:0|0:0,0:0:0:0:
432,80,247991,2,0,B|476:96|502:133,1,90,8|0,0:0|0:0,0:0:0:0:
368,232,248439,2,0,B|268:212|208:304,1,180,0|10,0:0|0:0,0:0:0:0:
212,297,249110,1,0,0:0:0:0:
260,232,249334,2,0,B|276:184|244:148,2,90,2|0|8,0:0|0:0|0:0,0:0:0:0:
184,208,250006,6,0,B|160:164|68:152|32:220,1,180,2|0,0:0|0:0,0:0:0:0:
184,208,250677,1,8,0:0:0:0:
328,176,250901,2,0,B|352:220|444:232|480:164,1,180,0|2,0:0|0:0,0:0:0:0:
368,284,251573,2,0,B|416:296|464:276,1,90,8|8,0:0|0:0,0:0:0:0:
400,108,252021,1,4,0:0:0:0:
256,192,252095,12,0,254707,0:0:0:0:
