osu file format v14

[General]
AudioFilename: OreImo - OP Single - ClariS - irony.mp3
AudioLeadIn: 0
PreviewTime: 57916
Countdown: 1
SampleSet: Soft
StackLeniency: 0.7
Mode: 0
LetterboxInBreaks: 0
WidescreenStoryboard: 1

[Editor]
DistanceSpacing: 0.9
BeatDivisor: 4
GridSize: 4
TimelineZoom: 1

[Metadata]
Title:irony
TitleUnicode:irony
Artist:ClariS
ArtistUnicode:ClariS
Creator:HakuNoKaemi
Version:Easy
Source:Ore no Imouto ga konna ni Kawaii Wake ga Nai
Tags:oreimo imouto kiririn shi kirino kousaka kyosuke kuroneko op single Alice Clara Kz livetune Light Novel ASCII Media Works Dengeki Bunko AIC Build Hiroyuki Kanbe Tsukasa Fushimi Hiro Kanzaki -kevincela- mint_ong89 cherry830525 Kuroneko-sherald sherald
BeatmapID:1429680
BeatmapSetID:44626

[Difficulty]
HPDrainRate:1
CircleSize:3
OverallDifficulty:1
ApproachRate:3
SliderMultiplier:1
SliderTickRate:2

[Events]
//Background and Video events
0,0,"BG.jpg",0,0
Video,-685,"irony video.mp4"
//Break Periods
2,15802,28492
2,87444,100133
2,159086,169984
2,209050,220133
//Storyboard Layer 0 (Background)
//Storyboard Layer 1 (Fail)
//Storyboard Layer 2 (Pass)
//Storyboard Layer 3 (Foreground)
//Storyboard Sound Samples

[TimingPoints]
1275,447.761194029851,4,2,1,100,1,0
2506,-100,4,2,2,100,0,0
2730,-100,4,2,1,100,0,0
15603,-100,4,2,1,100,0,1
15827,-100,4,2,1,100,0,0
29931,-100,4,2,1,100,0,1
30155,-100,4,2,1,100,0,0
32954,-100,4,2,2,100,0,0
33177,-100,4,2,1,100,0,0
34745,-100,4,2,2,100,0,0
34969,-100,4,2,1,100,0,0
35640,-100,4,2,2,100,0,0
35864,-100,4,2,1,100,0,0
36536,-100,4,2,2,100,0,0
36760,-100,4,2,1,100,0,0
38327,-100,4,2,2,100,0,0
38551,-100,4,2,1,100,0,0
41909,-100,4,2,2,100,0,0
42133,-100,4,2,1,100,0,0
44595,-100,4,2,2,100,0,0
44819,-100,4,2,1,100,0,0
47282,-100,4,2,2,100,0,0
47506,-100,4,2,1,100,0,0
57692,-100,4,3,1,100,0,0
58140,-100,4,2,0,100,0,0
58588,-100,4,1,1,60,0,1
64297,-100,4,1,2,60,0,1
64521,-100,4,1,1,60,0,1
67879,-100,4,1,2,60,0,1
68103,-100,4,1,1,60,0,1
69670,-100,4,1,2,60,0,1
69894,-100,4,1,1,60,0,1
72469,-100,4,1,1,100,0,0
72916,-100,4,1,1,60,0,1
73252,-100,4,1,2,60,0,1
73476,-100,4,1,1,60,0,1
76834,-100,4,1,2,60,0,1
77058,-100,4,1,1,60,0,1
77730,-100,4,1,2,60,0,1
77954,-100,4,1,1,60,0,1
78625,-100,4,1,2,60,0,1
78849,-100,4,1,1,60,0,1
81312,-100,4,1,2,60,0,1
81536,-100,4,1,1,60,0,1
82207,-100,4,1,2,60,0,1
82431,-100,4,1,1,60,0,1
83103,-100,4,1,2,60,0,1
83327,-100,4,1,1,60,0,1
83998,-100,4,1,2,60,0,1
84222,-100,4,1,1,60,0,1
84894,-100,4,1,2,60,0,1
85118,-100,4,1,1,60,0,1
85789,-100,4,1,2,60,0,1
86013,-100,4,1,1,60,0,1
86685,-100,4,1,2,60,0,1
86909,-100,4,1,1,60,0,1
87245,-100,4,2,1,100,0,0
101573,-100,4,2,1,100,0,1
101797,-100,4,2,1,100,0,0
106386,-100,4,2,2,100,0,0
106610,-100,4,2,1,100,0,0
107282,-100,4,2,2,100,0,0
107506,-100,4,2,1,100,0,0
109969,-100,4,2,2,100,0,0
110192,-100,4,2,1,100,0,0
113551,-100,4,2,2,100,0,0
113775,-100,4,2,1,100,0,0
113998,-100,4,2,2,100,0,0
114670,-100,4,2,1,100,0,0
115006,-100,4,2,1,5,0,0
115230,-100,4,2,0,60,0,0
115342,-100,4,2,2,60,0,0
115789,-100,4,2,1,100,0,0
124297,-100,4,2,2,100,0,0
124521,-100,4,2,1,100,0,0
126983,-100,4,2,1,100,0,0
127207,-100,4,2,1,100,0,0
129782,-100,4,2,0,100,0,0
130230,-100,4,1,1,60,0,1
131461,-100,4,1,2,60,0,1
131685,-100,4,1,1,60,0,1
132357,-100,4,1,2,60,0,1
132580,-100,4,1,1,60,0,1
135939,-100,4,1,2,60,0,1
136163,-100,4,1,1,60,0,1
138625,-100,4,1,2,60,0,1
138849,-100,4,1,1,60,0,1
140416,-100,4,1,2,60,0,1
140640,-100,4,1,1,60,0,1
141312,-100,4,1,2,60,0,1
141536,-100,4,1,1,60,0,1
143103,-100,4,1,2,60,0,1
143327,-100,4,1,1,60,0,1
144110,-100,4,1,1,60,0,0
144558,-100,4,1,1,60,0,1
145789,-100,4,1,2,60,0,1
146013,-100,4,1,1,60,0,1
146685,-100,4,1,2,60,0,1
146909,-100,4,1,1,60,0,1
149372,-100,4,1,2,60,0,1
149595,-100,4,1,1,60,0,1
152058,-100,4,1,2,60,0,1
152282,-100,4,1,1,60,0,1
153849,-100,4,1,2,60,0,1
154073,-100,4,1,1,60,0,1
154745,-100,4,1,2,60,0,1
154969,-100,4,1,1,60,0,1
158886,-100,4,2,1,100,0,0
172207,-100,4,2,2,100,0,0
172431,-100,4,2,1,100,0,0
175566,-100,4,2,2,100,0,0
175789,-100,4,2,1,100,0,0
181163,-100,4,2,2,100,0,0
181386,-100,4,2,1,100,0,0
181834,-100,4,2,2,100,0,0
182058,-100,4,2,1,100,0,0
186536,-100,4,2,2,100,0,0
186760,-100,4,2,1,100,0,0
188327,-100,4,2,2,100,0,0
188551,-100,4,2,1,100,0,0
189894,-100,4,2,2,100,0,0
190118,-100,4,2,1,100,0,0
194372,-100,4,2,2,100,0,0
194595,-100,4,2,1,100,0,0
199073,-100,4,2,1,100,0,0
199297,-100,4,2,1,100,0,0
208588,-100,4,2,0,100,0,0
208812,-100,4,2,1,100,0,0
223364,-100,4,1,1,60,0,1
227282,-100,4,1,2,60,0,1
227506,-100,4,1,1,60,0,1
232655,-100,4,1,2,60,0,1
232879,-100,4,1,1,60,0,1
233551,-100,4,1,2,60,0,1
233775,-100,4,1,1,60,0,1
234446,-100,4,1,2,60,0,1
234670,-100,4,1,1,60,0,1
237468,-100,4,1,1,60,0,0
237692,-100,4,1,1,60,0,1
237916,-100,4,1,1,60,0,0
238028,-100,4,1,2,60,0,0
238252,-100,4,1,1,60,0,0
239819,-100,4,1,2,60,0,0
240043,-100,4,1,1,60,0,0
247879,-100,4,1,2,60,0,0
248103,-100,4,1,1,60,0,0

[Colours]
Combo1 : 255,180,66
Combo2 : 114,243,117
Combo3 : 91,147,249
Combo4 : 252,73,73

[HitObjects]
48,236,827,6,0,B|16:188|48:140,1,100,0|2,0:0|0:0,0:0:0:0:
124,188,1722,2,0,P|208:124|348:168,1,250,8|2,0:0|0:0,0:0:0:0:
244,260,3513,2,0,B|272:312|236:364,1,100,8|0,0:0|0:0,0:0:0:0:
168,304,4409,5,8,0:0:0:0:
84,276,4857,1,2,0:0:0:0:
64,188,5304,2,0,B|104:112|192:139,1,150,8|2,0:0|0:0,0:0:0:0:
272,180,6424,2,0,B|360:220|412:144,1,150,0|8,0:0|0:0,0:0:0:0:
328,104,7544,1,2,0:0:0:0:
292,24,7991,6,0,B|248:44|240:96|240:96|220:144|160:172,2,200,8|8|8,0:0|0:0|0:0,0:0:0:0:
460,88,10677,6,0,P|458:154|366:251,1,200,8|8,0:0|0:0,0:0:0:0:
284,256,12021,1,2,0:0:0:0:
188,164,12692,1,2,0:0:0:0:
140,88,13141,6,0,B|96:44|32:68,1,100,2|0,0:0|0:0,0:0:0:0:
76,148,14036,1,2,0:0:0:0:
12,208,14484,1,0,0:0:0:0:
92,248,14932,1,2,0:0:0:0:
156,184,15379,2,0,P|184:196|211:199,1,50,2|4,0:0|0:0,0:0:0:0:
260,244,29932,5,4,0:0:0:0:
336,292,30379,1,8,0:0:0:0:
424,268,30828,1,0,0:0:0:0:
440,180,31275,2,0,B|427:86|325:87|286:128,1,200,8|8,0:0|0:0,0:0:0:0:
200,144,32618,6,0,B|172:192|72:216|36:120,1,200,0|2,0:0|0:0,0:0:0:0:
164,72,34185,2,0,B|212:-4|316:28|328:104,2,200,2|0|2,0:0|0:0|0:0,0:0:0:0:
92,128,36424,2,0,P|80:152|60:172,2,50,2|8|2,0:0|0:0|0:0,0:0:0:0:
196,212,37544,6,0,B|212:168|280:104|368:124|424:188,1,250,8|0,0:0|0:0,0:0:0:0:
316,268,39335,1,8,0:0:0:0:
240,320,39782,6,0,B|188:344|144:316,2,100,0|8|0,0:0|0:0|0:0,0:0:0:0:
196,244,41125,2,0,P|112:195|164:68,1,250,8|2,0:0|0:0,0:0:0:0:
236,32,42693,1,2,0:0:0:0:
272,112,43140,2,0,P|325:77|408:104,1,150,2|8,0:0|0:0,0:0:0:0:
344,168,44260,6,4,P|428:248|496:224,1,200,4|2,0:0|0:0,0:0:0:0:
504,136,45603,1,8,0:0:0:0:
432,84,46051,2,0,P|384:48|344:40,1,100,0|8,0:0|0:0,0:0:0:0:
288,112,46946,2,2,P|140:168|104:152,1,200
88,244,48289,6,0,P|132:260|204:256,1,100,8|0,0:0|0:0,0:0:0:0:
264,216,49185,2,0,B|312:168|412:184|440:244,1,200,8|8,0:0|0:0,0:0:0:0:
392,68,50976,6,0,P|336:52|284:76,2,100,8|0|8,0:0|0:0|0:0,0:0:0:0:
436,148,52319,1,2,0:0:0:0:
340,160,52767,2,0,B|304:196|324:248|324:248|340:296|300:356,1,200,8|8,0:0|0:0,0:0:0:0:
128,324,54558,5,0,0:0:0:0:
116,236,55006,1,0,0:0:0:0:
200,204,55454,2,0,P|216:224|240:240,1,50,8|2,0:0|0:0,0:0:0:0:
324,236,56125,1,2,0:0:0:0:
292,152,56573,1,2,0:0:0:0:
380,168,57022,2,0,B|428:156|456:96|432:44,1,150,2|0,0:0|0:0,0:0:0:0:
352,84,58140,5,8,0:0:0:0:
264,64,58588,1,4,0:0:0:0:
200,128,59036,2,0,B|232:176|220:240|160:268,1,150,8|0,0:0|0:0,0:0:0:0:
128,184,60155,1,2,0:0:0:0:
44,148,60604,2,0,B|32:172|40:200,1,50,0|8,0:0|0:0,0:0:0:0:
56,284,61275,1,0,0:0:0:0:
140,320,61722,6,0,B|156:272|216:264,1,100,8|0,0:0|0:0,0:0:0:0:
220,356,62618,2,0,P|244:356|284:356,1,50,8|2,0:0|0:0,0:0:0:0:
348,312,63290,1,0,0:0:0:0:
300,236,63738,1,2,0:0:0:0:
312,148,64185,2,0,B|248:144|212:188|212:240,1,150,0|2,0:0|0:0,0:0:0:0:
132,196,65305,6,0,B|172:152|148:88,1,100,8|0,0:0|0:0,0:0:0:0:
68,132,66200,2,0,P|40:128|8:136,1,50,8|0,0:0|0:0,0:0:0:0:
44,220,66872,1,2,0:0:0:0:
48,308,67319,6,0,P|108:328|244:296,1,200
420,316,69110,6,0,B|412:204|496:132,1,200,2|0,0:0|0:0,0:0:0:0:
420,80,70454,1,0,0:0:0:0:
356,140,70902,1,0,0:0:0:0:
328,52,71350,1,0,0:0:0:0:
268,120,71797,2,0,B|256:200|176:228,1,150,2|4,0:0|0:0,0:0:0:0:
92,216,72916,6,0,B|48:304|140:360,1,150,4|2,0:0|0:0,0:0:0:0:
168,268,74036,1,0,0:0:0:0:
248,308,74483,2,0,B|300:368|396:340,1,150,2|8,0:0|0:0,0:0:0:0:
416,260,75604,1,0,0:0:0:0:
364,184,76051,6,0,P|320:68|216:88,1,250,8|0,0:0|0:0,0:0:0:0:
264,164,77618,2,0,P|192:176|136:128,1,150,2|0,0:0|0:0,0:0:0:0:
52,160,78737,2,0,L|88:276,1,100,8|0,0:0|0:0,0:0:0:0:
156,304,79633,5,8,0:0:0:0:
244,312,80080,2,0,P|320:276|352:216,1,150,4|0,0:0|0:0,0:0:0:0:
356,132,81200,2,0,P|336:84|280:48,1,100
264,140,82095,2,0,P|224:172|172:184,1,100
116,120,82991,6,0,B|48:100|4:156|8:288|100:220|120:340|120:340,1,300
208,344,84782,6,0,B|208:345|228:225|320:293|324:161|280:105|212:125,1,300
136,76,86573,2,0,P|120:152|176:208,1,150,2|4,0:0|0:0,0:0:0:0:
152,244,101573,5,4,0:0:0:0:
72,208,102021,2,0,B|100:148|176:156|176:156|212:128|220:84,2,200,8|8|8,0:0|0:0|0:0,0:0:0:0:
96,296,104260,5,0,0:0:0:0:
180,324,104707,1,0,0:0:0:0:
268,308,105155,1,2,0:0:0:0:
328,244,105603,2,0,P|340:216|340:188,1,50,8|2,0:0|0:0,0:0:0:0:
308,112,106275,2,0,B|279:66|213:59,1,100,0|2,0:0|0:0,0:0:0:0:
136,80,107170,2,0,P|100:116|85:172,1,100,0|2,0:0|0:0,0:0:0:0:
104,296,108289,2,0,P|132:336|178:358,1,100,8|0,0:0|0:0,0:0:0:0:
256,316,109186,6,0,B|292:292|344:308|344:308|420:336|504:276,1,250,10|0,0:0|0:0,0:0:0:0:
396,192,110976,1,8,0:0:0:0:
395,104,111424,6,0,P|443:115|476:152,2,100,2|8|0,0:0|0:0|0:0,0:0:0:0:
308,116,112767,2,0,P|280:124|252:120,1,50,8|2,0:0|0:0,0:0:0:0:
180,84,113439,2,0,P|104:76|100:248,1,300,0|2,0:0|0:0,0:0:0:0:
144,168,115230,2,0,P|184:216|160:312,1,150,2|4,0:0|0:0,0:0:0:0:
264,300,116349,6,0,B|308:280|308:280|376:280,1,100,8|0,0:0|0:0,0:0:0:0:
416,208,117245,1,8,0:0:0:0:
364,136,117692,6,0,B|312:136|312:136|268:116,1,100,8|0,0:0|0:0,0:0:0:0:
236,32,118588,2,0,P|196:56|176:112,2,100,0|8|2,0:0|0:0|0:0,0:0:0:0:
324,56,119932,1,8,0:0:0:0:
348,144,120379,1,2,0:0:0:0:
272,192,120827,2,0,P|244:196|212:188,1,50,8|2,0:0|0:0,0:0:0:0:
144,152,121499,2,0,B|120:140|92:136,2,50,2|8|0,0:0|0:0|0:0,0:0:0:0:
80,272,122619,5,8,0:0:0:0:
80,272,123066,1,4,0:0:0:0:
196,200,123737,2,0,B|212:224|212:268|212:268|248:216|316:192|384:240|396:312,1,300,2|2,0:0|0:0,0:0:0:0:
296,316,125529,1,0,0:0:0:0:
160,316,126200,6,0,B|128:312|112:284,1,50,8|0,0:0|0:0,0:0:0:0:
92,252,126648,2,0,B|88:212|112:172|168:168|168:168|112:164|88:124|92:84,1,250,2|0,0:0|0:0,0:0:0:0:
180,76,128215,2,0,B|248:88|260:148|260:148|288:152|304:168|304:168|288:180|272:192|260:208|256:240,1,250,2|0,0:0|0:0,0:0:0:0:
344,256,129782,6,0,B|400:264|432:216,1,100,8|4,0:0|0:0,0:0:0:0:
432,128,130677,2,0,P|420:100|400:84,1,50,8|0,0:0|0:0,0:0:0:0:
352,156,131349,2,0,B|312:116|252:128,1,100,2|0,0:0|0:0,0:0:0:0:
172,148,132245,2,0,B|112:196|112:280,1,150,0|2,0:0|0:0,0:0:0:0:
192,324,133364,5,8,0:0:0:0:
280,304,133812,1,4,0:0:0:0:
356,192,134484,2,0,B|356:132|304:108,1,100,0|2,0:0|0:0,0:0:0:0:
264,188,135380,1,0,0:0:0:0:
212,108,135827,2,0,B|136:72|68:120,1,150,2|2,0:0|0:0,0:0:0:0:
104,204,136947,6,0,B|144:164|200:200,1,100,8|0,0:0|0:0,0:0:0:0:
152,276,137842,2,0,P|150:300|156:328,1,50,8|2,0:0|0:0,0:0:0:0:
244,300,138513,1,0,0:0:0:0:
324,340,138961,2,0,B|376:364|432:328,1,100,0|2,0:0|0:0,0:0:0:0:
480,268,139857,6,0,B|532:204|496:128|432:108,2,200
392,288,142095,2,0,P|340:272|284:280,1,100
208,296,142991,2,0,B|151:299|118:259,1,100,0|2,0:0|0:0,0:0:0:0:
212,164,144110,6,0,B|244:120|228:68,1,100,4|4,0:0|0:0,0:0:0:0:
156,16,145006,2,0,P|76:96|132:208,1,250,8|2,0:0|0:0,0:0:0:0:
200,256,146573,2,0,P|264:240|340:280,1,150,0|8,0:0|0:0,0:0:0:0:
424,296,147692,6,0,B|468:328,2,50,8|0|2,0:0|0:0|0:0,0:0:0:0:
376,168,148812,2,0,B|348:120|297:111|297:111|240:107|219:54,1,200,0|2,0:0|0:0,0:0:0:0:
84,48,150379,2,0,B|96:104|56:144,1,100,8|0,0:0|0:0,0:0:0:0:
100,220,151275,6,0,B|152:204|192:244|192:244|216:236|216:236|232:256|232:256|264:300|320:296,1,250,8|2,0:0|0:0,0:0:0:0:
308,208,152842,1,2,0:0:0:0:
388,252,153289,2,0,P|384:156|288:120,1,200
208,116,154633,6,0,P|160:92|128:56,1,100,2|0,0:0|0:0,0:0:0:0:
28,208,155976,1,4,0:0:0:0:
104,320,156648,6,0,P|104:288|120:256,1,50,8|4,0:0|0:0,0:0:0:0:
196,304,157319,2,0,B|224:256|204:208,1,100,2|0,0:0|0:0,0:0:0:0:
292,188,158215,2,0,B|322:260|280:331,1,150,2|4,0:0|0:0,0:0:0:0:
212,244,171424,6,0,B|188:224|172:196|164:160|176:124|220:88|256:132|256:132|288:92|336:124|348:160|340:196|324:224|300:244,1,400,0|4,0:0|0:0,0:0:0:0:
256,316,173663,5,0,0:0:0:0:
336,356,174110,1,8,0:0:0:0:
408,300,174558,1,0,0:0:0:0:
408,300,175006,1,8,0:0:0:0:
384,212,175454,2,0,B|380:156|440:124,1,100,0|8,0:0|0:0,0:0:0:0:
472,208,176349,1,0,0:0:0:0:
512,136,176797,6,0,B|516:80|460:52|460:52|408:52|368:32,1,200,8|8,0:0|0:0,0:0:0:0:
296,88,178140,1,0,0:0:0:0:
220,132,178588,2,0,B|184:132|172:168|128:168,2,100,8|0|8,0:0|0:0|0:0,0:0:0:0:
296,180,179931,1,2,0:0:0:0:
296,180,180379,1,8,0:0:0:0:
388,180,180827,6,0,B|396:244|324:300|248:264|248:264|196:284|188:340,1,300,0|8,0:0|0:0,0:0:0:0:
100,324,182618,1,0,0:0:0:0:
52,248,183066,1,8,0:0:0:0:
64,160,183513,1,2,0:0:0:0:
120,88,183961,2,0,B|164:49|219:74,2,100,8|0|8,0:0|0:0|0:0,0:0:0:0:
188,156,185304,1,0,0:0:0:0:
192,244,185752,2,0,B|248:244|272:196|272:196|280:120|344:72|420:108,1,300,8|0,0:0|0:0,0:0:0:0:
368,188,187543,1,4,0:0:0:0:
452,220,187991,6,0,B|436:316|332:240|312:344,1,200
240,288,189334,2,0,B|196:280|196:248|152:236,2,100,0|0|8,0:0|0:0|0:0,0:0:0:0:
268,204,190677,2,0,B|232:152|268:92,1,100,0|8,0:0|0:0,0:0:0:0:
336,152,191573,6,0,B|368:200|340:252,1,100,0|10,0:0|0:0,0:0:0:0:
276,308,192469,1,2,0:0:0:0:
200,264,192916,2,0,B|152:220|161:124|253:109,1,200,8|0,0:0|0:0,0:0:0:0:
260,200,194260,2,0,L|364:244,1,100,0|8,0:0|0:0,0:0:0:0:
352,328,195155,6,0,B|256:288,1,100,0|8,0:0|0:0,0:0:0:0:
260,200,196051,2,0,B|356:240,1,100,0|8,0:0|0:0,0:0:0:0:
444,232,196946,2,0,B|440:204|424:180,1,50,0|8,0:0|0:0,0:0:0:0:
388,164,197394,2,0,B|364:116|388:64,1,100,8|0,0:0|0:0,0:0:0:0:
464,116,198289,1,8,0:0:0:0:
388,164,198737,2,0,B|320:164|264:220|304:304,1,200,0|8,0:0|0:0,0:0:0:0:
380,256,200080,2,0,B|436:260|468:212,1,100,8|0,0:0|0:0,0:0:0:0:
464,124,200976,1,8,0:0:0:0:
256,192,201424,12,2,203663,0:0:0:0:
256,192,204558,5,2,0:0:0:0:
256,192,205454,5,2,0:0:0:0:
256,192,205677,12,4,208588,0:0:0:0:
328,232,221573,6,0,B|276:220|256:180|256:180|176:120|256:44|336:120|256:180|256:180|236:220|184:232,1,400,0|4,0:0|0:0,0:0:0:0:
96,232,223812,6,0,B|28:168|96:84,1,150,2|0,0:0|0:0,0:0:0:0:
148,164,224931,1,2,0:0:0:0:
236,168,225379,2,0,P|232:132|220:108,3,50,0|8|0|2,0:0|0:0|0:0|0:0,0:0:0:0:
304,72,226498,5,4,0:0:0:0:
384,116,226946,2,0,B|384:208|484:216,1,150
476,124,228066,1,0,0:0:0:0:
436,44,228513,2,0,P|364:28|304:80,1,150,2|8,0:0|0:0,0:0:0:0:
220,48,229633,1,0,0:0:0:0:
128,60,230080,5,8,0:0:0:0:
168,140,230528,1,0,0:0:0:0:
216,216,230976,2,0,P|212:244|200:268,1,50,8|0,0:0|0:0,0:0:0:0:
124,220,231648,1,2,0:0:0:0:
116,308,232095,2,0,P|200:360|288:308,1,200,0|2,0:0|0:0,0:0:0:0:
308,232,233439,6,0,P|284:96|428:32,1,300
420,116,235230,2,0,B|468:136,2,50,0|2|4,0:0|0:0|0:0,0:0:0:0:
344,164,236125,1,0,0:0:0:0:
264,120,236573,1,2,0:0:0:0:
284,32,237021,1,0,0:0:0:0:
376,24,237469,1,0,0:0:0:0:
256,192,237692,12,4,241275,0:0:0:0:
144,104,241722,6,0,B|168:54|209:30,1,100,8|0,0:0|0:0,0:0:0:0:
264,100,242618,2,0,P|244:124|224:140,1,50,8|0,0:0|0:0,0:0:0:0:
168,200,243289,1,2,0:0:0:0:
220,272,243737,6,0,B|276:308|340:284|356:232,1,150,2|8,0:0|0:0,0:0:0:0:
272,196,244857,1,4,0:0:0:0:
356,164,245304,1,8,0:0:0:0:
344,76,245752,1,0,0:0:0:0:
256,60,246200,2,0,P|224:56|200:64,1,50,8|2,0:0|0:0,0:0:0:0:
88,196,247319,5,0,0:0:0:0:
144,264,247767,2,0,P|236:284|288:244,1,150,0|2,0:0|0:0,0:0:0:0:
292,168,248886,2,0,B|270:121|219:96|163:119,1,150,8|2,0:0|0:0,0:0:0:0:
256,192,250006,12,4,252021,0:0:0:0:
