osu file format v14

[General]
AudioFilename: audio.mp3
AudioLeadIn: 3000
PreviewTime: 34003
Countdown: 0
SampleSet: Soft
StackLeniency: 0.7
Mode: 0
LetterboxInBreaks: 0
WidescreenStoryboard: 0

[Editor]
Bookmarks: 11166
DistanceSpacing: 1.2
BeatDivisor: 4
GridSize: 4
TimelineZoom: 1.7

[Metadata]
Title:border -TV MIX-
TitleUnicode:border -TV MIX-
Artist:ClariS
ArtistUnicode:ClariS
Creator:[C u r i]
Version:NeoSL's Hard
Source:憑物語
Tags:Tsukimonogatari Ending ED Ononoki Yotsugi HabiHolic Neoskylove Nisioisin
BeatmapID:985114
BeatmapSetID:459564

[Difficulty]
HPDrainRate:5
CircleSize:4
OverallDifficulty:6
ApproachRate:7
SliderMultiplier:1.4
SliderTickRate:1

[Events]
//Background and Video events
0,0,"22.jpg",0,0
//Break Periods
//Storyboard Layer 0 (Background)
//Storyboard Layer 1 (Fail)
//Storyboard Layer 2 (Pass)
//Storyboard Layer 3 (Foreground)
//Storyboard Sound Samples

[TimingPoints]
380,337.078651685393,4,2,1,60,1,0
11166,-100,4,2,1,50,0,0
21953,-100,4,2,1,60,0,0
27346,-100,4,2,1,70,0,0
30042,-100,4,2,1,50,0,0
32739,-100,4,2,1,60,0,0
33413,-100,4,2,1,70,0,0
34087,-100,4,2,1,80,0,1
49930,-100,4,2,1,60,0,0
50267,-100,4,2,1,80,0,1
55660,-100,4,2,1,50,0,0
58357,-100,4,2,1,60,0,0
59705,-100,4,2,1,50,0,0
61054,-100,4,2,1,80,0,1
76896,-100,4,2,1,60,0,0
77233,-100,4,2,1,80,0,1
82627,-100,4,2,1,80,0,0
85323,-100,4,2,1,70,0,0
86672,-100,4,2,1,50,0,0
88526,-100,4,2,1,10,0,0

[Colours]
Combo1 : 96,255,96
Combo2 : 0,202,141
Combo3 : 255,53,53
Combo4 : 237,247,115

[HitObjects]
156,102,11166,6,4,P|190:107|225:104,1,70,6|0,0:0|0:0,0:0:0:0:
306,82,11503,1,2,0:0:0:0:
376,127,11672,2,0,L|375:205,1,70,0|2,0:0|0:0,0:0:0:0:
434,257,12009,2,0,L|406:329,1,70,0|2,0:0|0:0,0:0:0:0:
325,336,12346,1,0,0:0:0:0:
263,280,12514,6,0,P|200:251|132:265,1,140,2|2,0:0|0:0,0:0:0:0:
78,329,13020,2,0,L|79:189,1,140,0|0,0:0|0:0,0:0:0:0:
55,108,13526,1,2,0:0:0:0:
122,58,13694,1,0,0:0:0:0:
191,107,13863,6,0,B|304:107|304:107|282:123,1,140,2|2,0:0|0:0,0:0:0:0:
225,185,14368,2,0,L|365:185,1,140,0|0,0:0|0:0,0:0:0:0:
435,140,14874,2,0,P|441:105|435:71,1,70,2|0,0:0|0:0,0:0:0:0:
365,185,15211,6,0,P|359:219|365:253,1,70,2|0,0:0|0:0,0:0:0:0:
298,305,15548,2,0,P|263:299|229:305,1,70,2|0,0:0|0:0,0:0:0:0:
150,334,15885,1,2,0:0:0:0:
150,334,16054,1,0,0:0:0:0:
74,369,16222,1,2,0:0:0:0:
14,310,16391,1,0,0:0:0:0:
79,256,16559,6,0,P|84:221|80:186,1,70,2|0,0:0|0:0,0:0:0:0:
60,104,16896,1,2,0:0:0:0:
141,124,17065,2,0,B|187:124|187:124|233:131|233:131|280:131,1,140,0|0,0:0|0:0,0:0:0:0:
354,90,17571,2,0,P|359:55|354:20,1,70,2|0,0:0|0:0,0:0:0:0:
280,131,17908,6,0,P|274:165|279:200,1,70,2|0,0:0|0:0,0:0:0:0:
315,276,18245,1,2,0:0:0:0:
260,339,18413,2,0,B|214:339|214:339|168:332|168:332|121:332,1,140,0|0,0:0|0:0,0:0:0:0:
135,249,18919,1,2,0:0:0:0:
85,182,19087,1,0,0:0:0:0:
149,127,19256,6,0,P|214:106|279:130,1,140,2|2,0:0|0:0,0:0:0:0:
336,191,19762,2,0,P|313:255|333:321,1,140,0|0,0:0|0:0,0:0:0:0:
417,329,20267,1,2,0:0:0:0:
459,256,20436,1,0,0:0:0:0:
406,191,20604,6,0,L|336:191,1,70,2|0,0:0|0:0,0:0:0:0:
307,111,20941,2,0,L|265:111,3,35,2|0|0|0,0:0|0:0|0:0|0:0,0:0:0:0:
247,145,21278,1,8,0:0:0:0:
149,127,21447,1,8,0:0:0:0:
149,126,21953,6,0,P|152:196|146:266,1,140,6|2,0:0|0:0,0:0:0:0:
199,330,22458,1,0,0:0:0:0:
282,317,22627,2,0,P|273:247|281:178,1,140,8|2,0:0|0:0,0:0:0:0:
296,96,23132,6,0,P|226:104|157:96,1,140,0|8,0:0|0:0,0:0:0:0:
80,61,23638,1,0,0:0:0:0:
60,142,23806,2,0,L|57:233,1,70,2|8,0:0|0:0,0:0:0:0:
13,284,24144,1,2,0:0:0:0:
78,333,24312,2,0,P|129:346|180:335,1,105
212,307,24649,6,0,L|281:307,1,70,6|0,0:0|0:0,0:0:0:0:
308,228,24986,2,0,L|238:227,1,70,0|2,0:0|0:0,0:0:0:0:
314,143,25323,2,0,P|374:175|390:241,1,140,8|2,0:0|0:0,0:0:0:0:
281,307,25829,6,0,L|212:307,1,70,2|0,0:0|0:0,0:0:0:0:
152,247,26166,2,0,L|152:177,1,70,8|0,0:0|0:0,0:0:0:0:
223,130,26503,1,2,0:0:0:0:
149,93,26672,1,8,0:0:0:0:
187,18,26840,1,0,0:0:0:0:
261,56,27009,2,0,P|312:66|363:59,1,105,8|0,0:0|0:0,0:0:0:0:
406,55,27346,6,0,L|405:124,1,70,4|0,0:0|0:0,0:0:0:0:
324,151,27683,2,0,L|324:220,1,70,8|0,0:0|0:0,0:0:0:0:
242,247,28020,2,0,L|242:316,2,70,8|0|8,0:0|0:0|0:0,0:0:0:0:
197,176,28526,1,0,0:0:0:0:
217,94,28694,6,0,P|182:87|148:89,2,70,8|2|8,0:0|0:0|0:0,0:0:0:0:
285,44,29200,1,0,0:0:0:0:
285,44,29284,1,8,0:0:0:0:
285,44,29368,2,0,P|320:51|354:48,1,70,8|2,0:0|0:0,0:0:0:0:
433,21,29705,1,2,0:0:0:0:
459,100,29874,1,2,0:0:0:0:
380,129,30042,6,0,P|377:198|382:268,1,140,6|2,0:0|0:0,0:0:0:0:
314,318,30548,2,0,P|246:332|179:314,1,140
196,233,31054,2,0,P|202:198|199:163,1,70,2|0,0:0|0:0,0:0:0:0:
161,88,31391,6,0,L|300:83,1,140,6|2,0:0|0:0,0:0:0:0:
383,69,31896,2,0,P|388:34|386:0,2,70,0|2|0,0:0|0:0|0:0,0:0:0:0:
354,147,32402,2,0,P|348:182|351:217,1,70,2|0,0:0|0:0,0:0:0:0:
397,287,32739,5,2,0:0:0:0:
331,339,32908,1,2,0:0:0:0:
331,339,32992,1,2,0:0:0:0:
331,339,33076,2,0,L|279:343,3,35,2|2|2|2,0:0|0:0|0:0|0:0,0:0:0:0:
255,330,33413,1,8,0:0:0:0:
145,300,33582,1,8,0:0:0:0:
145,299,34087,6,0,P|146:230|137:160,1,140,6|8,0:0|0:0,0:0:0:0:
186,92,34593,1,0,0:0:0:0:
255,137,34762,2,0,P|290:144|325:140,1,70,2|0,0:0|0:0,0:0:0:0:
324,56,35099,2,0,P|289:50|254:54,1,70,8|0,0:0|0:0,0:0:0:0:
255,137,35436,6,0,L|257:276,1,140,2|8,0:0|0:0,0:0:0:0:
267,360,35941,1,0,0:0:0:0:
334,309,36110,2,0,L|403:304,1,70,2|0,0:0|0:0,0:0:0:0:
257,276,36447,2,0,L|187:280,1,70,8|0,0:0|0:0,0:0:0:0:
104,294,36784,6,0,P|106:224|100:154,1,140,6|8,0:0|0:0,0:0:0:0:
147,84,37290,1,0,0:0:0:0:
226,113,37458,2,0,P|261:119|296:116,1,70,2|0,0:0|0:0,0:0:0:0:
309,199,37795,2,0,P|344:195|379:201,1,70,8|0,0:0|0:0,0:0:0:0:
426,270,38132,6,0,P|461:212|443:146,1,140,2|8,0:0|0:0,0:0:0:0:
379,201,38638,1,0,0:0:0:0:
426,270,38806,2,0,P|435:303|431:338,2,70,2|0|8,0:0|0:0|0:0,0:0:0:0:
379,201,39312,1,0,0:0:0:0:
317,258,39481,6,0,L|229:261,1,70,6|0,0:0|0:0,0:0:0:0:
181,312,39818,1,8,0:0:0:0:
117,257,39986,2,0,B|121:146|121:146|138:122,1,140
211,81,40492,1,8,0:0:0:0:
258,150,40660,1,0,0:0:0:0:
294,73,40829,6,0,P|328:70|363:76,1,70,2|0,0:0|0:0,0:0:0:0:
448,23,41166,2,0,P|450:58|445:93,1,70,8|0,0:0|0:0,0:0:0:0:
497,177,41503,2,0,P|462:179|427:173,1,70,2|0,0:0|0:0,0:0:0:0:
343,225,41840,2,0,P|340:190|346:155,1,70,8|0,0:0|0:0,0:0:0:0:
267,236,42177,6,0,P|272:305|268:375,1,140,6|8,0:0|0:0,0:0:0:0:
190,345,42683,1,0,0:0:0:0:
130,285,42851,2,0,L|60:284,1,70,2|0,0:0|0:0,0:0:0:0:
197,235,43188,2,0,L|266:235,1,70,8|0,0:0|0:0,0:0:0:0:
150,164,43526,5,2,0:0:0:0:
149,80,43694,1,2,0:0:0:0:
233,88,43863,2,0,P|236:122|233:157,1,70,8|0,0:0|0:0,0:0:0:0:
267,235,44200,1,2,0:0:0:0:
337,277,44368,1,0,0:0:0:0:
399,221,44537,2,0,L|400:147,1,70,8|0,0:0|0:0,0:0:0:0:
337,277,44874,6,0,P|280:315|214:299,1,140,6|8,0:0|0:0,0:0:0:0:
140,260,45379,2,0,P|145:225|141:190,1,70,0|2,0:0|0:0,0:0:0:0:
158,108,45717,2,0,P|192:113|227:109,1,70,0|8,0:0|0:0,0:0:0:0:
259,187,46054,1,0,0:0:0:0:
317,128,46222,6,2,P|383:108|445:138,2,140,2|8|2,0:0|0:0|0:0,0:0:0:0:
259,187,47065,1,0,0:0:0:0:
320,242,47233,2,0,P|355:248|390:244,1,70,8|0,0:0|0:0,0:0:0:0:
259,187,47571,6,0,P|224:181|189:185,1,70,6|0,0:0|0:0,0:0:0:0:
112,220,47908,1,8,0:0:0:0:
28,216,48076,2,0,B|28:114|28:114|63:79,1,140
112,150,48582,2,8,L|111:220,1,70,8|0,0:0|0:0,0:0:0:0:
168,281,48919,6,0,L|152:329,2,35
224,218,49256,1,2,0:0:0:0:
251,297,49424,2,0,L|235:345,2,35,0|0|0,0:0|0:0|0:0,0:0:0:0:
332,265,49762,1,2,0:0:0:0:
413,330,49931,1,6,0:0:0:0:
413,330,50267,6,0,L|415:190,1,140,6|8,0:0|0:0,0:0:0:0:
375,115,50773,1,0,0:0:0:0:
292,128,50941,2,0,P|258:135|223:130,1,70,2|0,0:0|0:0,0:0:0:0:
209,47,51278,2,0,P|174:41|140:49,1,70,8|0,0:0|0:0,0:0:0:0:
107,127,51615,6,0,P|109:197|103:267,1,140,2|8,0:0|0:0,0:0:0:0:
169,320,52121,1,0,0:0:0:0:
211,249,52289,2,0,P|246:243|281:246,1,70,2|0,0:0|0:0,0:0:0:0:
336,182,52626,2,0,P|371:186|406:181,1,70,8|0,0:0|0:0,0:0:0:0:
453,112,52963,6,0,P|488:170|470:236,1,140,6|8,0:0|0:0,0:0:0:0:
406,181,53469,1,0,0:0:0:0:
453,112,53637,2,0,P|462:79|458:44,2,70,2|0|8,0:0|0:0|0:0,0:0:0:0:
406,181,54143,1,0,0:0:0:0:
405,265,54312,6,0,L|404:352,1,70,2|0,0:0|0:0,0:0:0:0:
320,330,54649,2,0,L|319:243,1,70,8|0,0:0|0:0,0:0:0:0:
278,186,54986,2,0,P|216:157|151:180,1,140,2|8,0:0|0:0,0:0:0:0:
126,260,55492,1,0,0:0:0:0:
53,217,55660,6,0,L|55:77,1,140,6|0,0:0|0:0,0:0:0:0:
136,53,56166,1,2,0:0:0:0:
136,53,56335,2,0,P|201:74|266:51,1,140,8|2,0:0|0:0,0:0:0:0:
347,31,56840,1,8,0:0:0:0:
413,83,57009,6,0,L|405:232,1,140,6|2,0:0|0:0,0:0:0:0:
378,301,57514,2,0,P|343:307|308:303,1,70,2|8,0:0|0:0,0:0:0:0:
219,222,57851,2,0,P|254:217|289:221,1,70,8|8,0:0|0:0,0:0:0:0:
289,221,58357,6,0,L|288:78,1,140,6|8,0:0|0:0,0:0:0:0:
347,21,58863,1,2,0:0:0:0:
370,101,59031,2,0,L|439:96,1,70,8|2,0:0|0:0,0:0:0:0:
288,81,59368,2,0,L|211:76,1,70,8|2,0:0|0:0,0:0:0:0:
135,60,59705,6,0,L|130:129,1,70,2|0,0:0|0:0,0:0:0:0:
42,76,60042,2,0,L|47:146,1,70,2|2,0:0|0:0,0:0:0:0:
2,217,60379,2,0,L|9:260,3,35,2|2|2|2,0:0|0:0|0:0|0:0,0:0:0:0:
49,261,60717,2,0,L|56:304,3,35,2|2|2|2,0:0|0:0|0:0|0:0,0:0:0:0:
82,327,61054,6,0,P|151:320|220:328,1,140,6|8,0:0|0:0,0:0:0:0:
302,345,61559,1,0,0:0:0:0:
303,260,61728,2,0,L|305:190,1,70,2|0,0:0|0:0,0:0:0:0:
385,217,62065,2,0,L|383:148,1,70,8|0,0:0|0:0,0:0:0:0:
332,78,62402,6,0,P|265:62|200:83,1,140,2|8,0:0|0:0,0:0:0:0:
136,138,62908,1,0,0:0:0:0:
128,221,63076,2,0,L|131:290,1,70,2|0,0:0|0:0,0:0:0:0:
213,308,63413,2,0,L|217:239,1,70,8|0,0:0|0:0,0:0:0:0:
284,188,63750,6,0,L|436:185,1,140,6|8,0:0|0:0,0:0:0:0:
439,102,64256,1,0,0:0:0:0:
372,52,64424,2,0,P|337:48|302:51,1,70,2|0,0:0|0:0,0:0:0:0:
174,112,64762,2,0,P|208:115|243:112,1,70,8|0,0:0|0:0,0:0:0:0:
283,187,65099,6,0,P|295:256|287:326,1,140,2|8,0:0|0:0,0:0:0:0:
207,349,65604,1,0,0:0:0:0:
131,310,65773,2,0,P|123:275|121:240,1,70,2|0,0:0|0:0,0:0:0:0:
139,158,66110,2,0,P|174:150|209:148,1,70,8|0,0:0|0:0,0:0:0:0:
283,187,66447,6,0,P|352:190|421:178,1,140,6|8,0:0|0:0,0:0:0:0:
459,102,66953,1,0,0:0:0:0:
386,61,67121,2,0,P|317:58|248:70,1,140,2|8,0:0|0:0,0:0:0:0:
174,112,67627,1,0,0:0:0:0:
90,101,67795,6,0,L|91:258,1,140,2|8,0:0|0:0,0:0:0:0:
170,213,68301,1,0,0:0:0:0:
207,288,68469,2,0,P|242:295|276:289,1,70,2|0,0:0|0:0,0:0:0:0:
370,209,68806,2,0,P|336:203|302:209,1,70,8|0,0:0|0:0,0:0:0:0:
271,128,69144,6,0,P|339:117|407:134,2,140,6|8|2,0:0|0:0|0:0,0:0:0:0:
201,84,69986,1,0,0:0:0:0:
147,148,70155,1,8,0:0:0:0:
118,69,70323,1,0,0:0:0:0:
147,148,70492,6,0,L|147:234,1,70,2|0,0:0|0:0,0:0:0:0:
120,298,70829,1,8,0:0:0:0:
199,326,70997,1,0,0:0:0:0:
266,275,71166,2,0,L|266:189,1,70,2|2,0:0|0:0,0:0:0:0:
343,172,71503,1,8,0:0:0:0:
306,95,71672,1,0,0:0:0:0:
226,69,71840,6,0,P|191:67|156:73,1,70,6|0,0:0|0:0,0:0:0:0:
104,138,72177,1,8,0:0:0:0:
81,218,72346,2,0,P|84:253|82:288,1,70,0|2,0:0|0:0,0:0:0:0:
165,348,72683,2,0,P|162:313|165:279,1,70,0|8,0:0|0:0,0:0:0:0:
227,222,73020,1,0,0:0:0:0:
255,300,73188,6,0,P|288:308|322:302,1,70,2|0,0:0|0:0,0:0:0:0:
403,273,73526,1,8,0:0:0:0:
403,273,73694,1,0,0:0:0:0:
344,213,73863,2,0,L|355:143,1,70,2|0,0:0|0:0,0:0:0:0:
407,78,74200,1,8,0:0:0:0:
407,78,74368,1,0,0:0:0:0:
331,42,74537,6,0,P|265:24|202:52,1,140,6|8,0:0|0:0,0:0:0:0:
144,112,75042,2,0,L|141:181,1,70,0|2,0:0|0:0,0:0:0:0:
59,142,75379,2,0,L|62:212,1,70,0|8,0:0|0:0,0:0:0:0:
120,272,75717,1,0,0:0:0:0:
201,253,75885,5,0,0:0:0:0:
237,329,76054,2,0,L|228:375,2,35
294,267,76391,1,0,0:0:0:0:
336,339,76559,2,0,L|327:385,2,35
426,300,76896,1,6,0:0:0:0:
426,300,77233,6,0,L|425:150,1,140,6|8,0:0|0:0,0:0:0:0:
391,92,77739,1,0,0:0:0:0:
347,164,77908,2,0,P|312:172|279:164,1,70,2|2,0:0|0:0,0:0:0:0:
391,91,78245,2,0,P|425:85|458:92,1,70,8|0,0:0|0:0,0:0:0:0:
326,43,78582,6,0,P|257:57|189:42,1,140,2|8,0:0|0:0,0:0:0:0:
112,12,79087,1,0,0:0:0:0:
65,82,79256,2,0,L|65:151,1,70,2|0,0:0|0:0,0:0:0:0:
143,114,79593,2,0,L|143:184,1,70,8|0,0:0|0:0,0:0:0:0:
86,246,79930,6,0,P|150:266|210:233,1,140,6|8,0:0|0:0,0:0:0:0:
266,169,80436,1,0,0:0:0:0:
346,190,80604,2,0,L|340:259,2,70,2|0|8,0:0|0:0|0:0,0:0:0:0:
391,119,81110,1,0,0:0:0:0:
337,54,81278,6,0,P|266:77|204:48,1,140,2|8,0:0|0:0,0:0:0:0:
129,23,81784,1,0,0:0:0:0:
65,77,81953,2,0,L|68:222,1,140,2|8,0:0|0:0,0:0:0:0:
113,287,82458,1,0,0:0:0:0:
172,226,82627,6,0,P|235:255|298:230,1,140,6|2,0:0|0:0,0:0:0:0:
435,326,83301,2,0,P|372:297|309:322,1,140,8|2,0:0|0:0,0:0:0:0:
233,356,83806,1,8,0:0:0:0:
172,296,83975,6,0,L|172:156,1,140,6|2,0:0|0:0,0:0:0:0:
227,93,84481,2,0,P|292:118|358:97,1,140,2|8,0:0|0:0,0:0:0:0:
433,64,84986,2,0,L|432:153,1,70,8|2,0:0|0:0,0:0:0:0:
461,213,85323,6,0,P|459:247|454:282,1,70,6|0,0:0|0:0,0:0:0:0:
446,366,85660,2,0,P|411:364|376:359,1,70,2|2,0:0|0:0,0:0:0:0:
293,351,85997,2,0,P|294:316|299:281,1,70,8|8,0:0|0:0,0:0:0:0:
308,198,86335,2,0,P|342:199|377:204,1,70,8|8,0:0|0:0,0:0:0:0:
461,213,86672,5,12,0:0:0:0:
256,192,86840,12,0,88526,0:0:0:0:
