osu file format v14

[General]
AudioFilename: audio123.mp3
AudioLeadIn: 0
PreviewTime: 33973
Countdown: 0
SampleSet: Soft
StackLeniency: 0.7
Mode: 0
LetterboxInBreaks: 0
WidescreenStoryboard: 1

[Editor]
DistanceSpacing: 0.6
BeatDivisor: 4
GridSize: 4
TimelineZoom: 3.399999

[Metadata]
Title:border (TV Size)
TitleUnicode:border (TV Size)
Artist:ClariS
ArtistUnicode:ClariS
Creator:Alexsander
Version:Extra
Source:憑物語
Tags:ending tsukimonogatari mix ononoki yotsugi japanese anime clara alice
BeatmapID:1841481
BeatmapSetID:880633

[Difficulty]
HPDrainRate:6.5
CircleSize:4.2
OverallDifficulty:8.8
ApproachRate:9.2
SliderMultiplier:1.82
SliderTickRate:1

[Events]
//Background and Video events
0,0,"BG.jpg",0,0
Video,255,"Ending tv mix.avi"
//Break Periods
//Storyboard Layer 0 (Background)
//Storyboard Layer 1 (Fail)
//Storyboard Layer 2 (Pass)
//Storyboard Layer 3 (Foreground)
//Storyboard Sound Samples

[TimingPoints]
436,327.868852459016,4,2,1,40,1,0
436,-133.333333333333,4,2,1,40,0,0
1091,340.909090909091,4,2,1,40,1,0
1091,-133.333333333333,4,2,1,40,0,0
1772,340.909090909091,4,2,1,40,1,0
2794,338.983050847458,4,2,1,40,1,0
3132,337.078651685393,4,2,1,40,1,0
3132,-133.333333333333,4,2,1,40,0,0
4648,-133.333333333333,4,2,1,5,0,0
5828,331.491712707182,4,2,1,40,1,0
5828,-133.333333333333,4,2,1,40,0,0
6988,340.909090909091,4,2,1,40,1,0
7158,340.909090909091,4,2,1,40,1,0
8521,338.028169014084,4,2,1,40,1,0
8521,-133.333333333333,4,2,1,40,0,0
8859,-133.333333333333,4,2,1,5,0,0
9197,-133.333333333333,4,2,1,40,0,0
9536,-133.333333333333,4,2,1,5,0,0
9873,333.333333333333,4,2,1,40,1,0
9873,-133.333333333333,4,2,1,40,0,0
10206,-133.333333333333,4,2,1,5,0,0
10539,-133.333333333333,4,2,1,40,0,0
10873,348.837209302326,4,2,1,40,1,0
10873,-200,4,2,1,40,0,0
11134,-133.333333333333,4,2,1,5,0,0
11221,337.078651685393,4,2,1,50,1,0
21333,-100,4,2,2,60,0,0
22934,-100,4,2,2,5,0,0
23018,-100,4,2,2,60,0,0
27063,-166.666666666667,4,2,2,60,0,0
27316,-133.333333333333,4,2,1,5,0,0
27400,-100,4,2,2,60,0,0
30097,-100,4,2,1,50,0,0
32794,-100,4,2,2,60,0,0
34142,-84.7457627118644,4,2,1,70,0,1
34395,-84.7457627118644,4,2,1,5,0,1
34479,-84.7457627118644,4,2,1,70,0,1
35743,-84.7457627118644,4,2,1,5,0,1
35827,-84.7457627118644,4,2,1,70,0,1
37091,-84.7457627118644,4,2,1,5,0,1
37176,-84.7457627118644,4,2,1,70,0,1
39788,-84.7457627118644,4,2,1,5,0,1
39872,-84.7457627118644,4,2,1,70,0,1
41136,-84.7457627118644,4,2,1,5,0,1
41220,-84.7457627118644,4,2,1,70,0,1
42485,-84.7457627118644,4,2,1,5,0,1
42569,-84.7457627118644,4,2,1,70,0,1
44591,-200,4,2,1,70,0,1
44844,-84.7457627118644,4,2,1,5,0,1
44928,-84.7457627118644,4,2,1,70,0,1
45181,-84.7457627118644,4,2,1,5,0,1
45265,-84.7457627118644,4,2,1,70,0,1
46529,-84.7457627118644,4,2,1,5,0,1
46614,-84.7457627118644,4,2,1,70,0,1
47878,-84.7457627118644,4,2,1,5,0,1
47962,-84.7457627118644,4,2,1,70,0,1
49647,-78.125,4,2,1,70,0,1
49985,-250,4,2,1,70,0,0
50237,-250,4,2,1,5,0,0
50322,-84.7457627118644,4,2,1,70,0,1
50574,-250,4,2,1,5,0,1
50659,-84.7457627118644,4,2,1,70,0,1
51923,-250,4,2,1,5,0,1
52007,-84.7457627118644,4,2,1,70,0,1
53271,-250,4,2,1,5,0,1
53355,-84.7457627118644,4,2,1,70,0,1
54367,-100,4,2,1,65,0,1
54619,-100,4,2,1,5,0,1
54704,-100,4,2,1,65,0,1
54956,-100,4,2,1,5,0,1
55041,-100,4,2,1,65,0,1
55294,-100,4,2,1,5,0,1
55378,-100,4,2,1,65,0,1
55715,-100,4,2,2,50,0,0
58074,-133.333333333333,4,2,1,50,0,0
58327,-133.333333333333,4,2,1,5,0,0
58412,-100,4,2,2,70,0,0
59423,317.040951122853,4,2,2,70,1,0
59740,335.195530726257,4,2,2,70,1,0
61080,341.394025604552,4,2,1,70,1,1
61080,-84.7457627118644,4,2,1,70,0,1
61336,-84.7457627118644,4,2,1,5,0,1
61421,-84.7457627118644,4,2,1,70,0,1
61762,350.877192982456,4,2,1,70,1,1
61762,-84.7457627118644,4,2,1,70,0,1
62463,331.491712707182,4,2,1,70,1,1
62463,-84.7457627118644,4,2,1,70,0,1
62711,-84.7457627118644,4,2,1,5,0,1
62794,-84.7457627118644,4,2,1,70,0,1
63125,335.195530726257,4,2,1,70,1,1
63125,-84.7457627118644,4,2,1,70,0,1
63460,344.827586206897,4,2,1,70,1,1
63460,-84.7457627118644,4,2,1,70,0,1
63804,337.078651685393,4,2,1,70,1,1
63804,-84.7457627118644,4,2,1,70,0,1
64056,-84.7457627118644,4,2,1,5,0,1
64141,-84.7457627118644,4,2,1,70,0,1
66163,329.67032967033,4,2,1,70,1,1
66163,-84.7457627118644,4,2,1,70,0,1
66492,337.078651685393,4,2,1,70,1,1
66492,-84.7457627118644,4,2,1,70,0,1
66744,-84.7457627118644,4,2,1,5,0,1
66829,-84.7457627118644,4,2,1,70,0,1
68093,-84.7457627118644,4,2,1,5,0,1
68177,-84.7457627118644,4,2,1,70,0,1
69441,-84.7457627118644,4,2,1,5,0,1
69525,-84.7457627118644,4,2,1,70,0,1
71042,-84.7457627118644,4,2,2,70,0,1
71379,-84.7457627118644,4,2,1,70,0,1
71548,-200,4,2,1,70,0,1
71800,-200,4,2,1,5,0,1
71885,-84.7457627118644,4,2,1,70,0,1
72138,-84.7457627118644,4,2,1,5,0,1
72222,-84.7457627118644,4,2,1,70,0,1
73486,-84.7457627118644,4,2,1,5,0,1
73570,-84.7457627118644,4,2,1,70,0,1
73739,-84.7457627118644,4,2,2,70,0,1
74076,-84.7457627118644,4,2,1,70,0,1
75087,-84.7457627118644,4,2,2,70,0,1
75424,-84.7457627118644,4,2,1,70,0,1
76941,-250,4,2,1,70,0,0
77194,-250,4,2,1,5,0,0
77278,-84.7457627118644,4,2,1,70,0,1
77531,-84.7457627118644,4,2,1,5,0,1
77615,-84.7457627118644,4,2,1,70,0,1
78880,-84.7457627118644,4,2,1,5,0,1
78963,-84.7457627118644,4,2,1,70,0,1
81323,-100,4,2,1,65,0,1
81576,-100,4,2,1,5,0,1
81660,-100,4,2,1,65,0,1
81913,-100,4,2,1,5,0,1
81997,-100,4,2,1,65,0,1
82250,-100,4,2,1,5,0,1
82334,-100,4,2,1,65,0,1
82671,-100,4,2,2,50,0,0
85368,-100,4,2,1,70,0,0
86716,-200,4,2,1,70,0,0
87053,-200,4,2,1,30,0,0
88570,-100,4,2,1,5,0,0

[Colours]
Combo1 : 255,192,0
Combo2 : 0,196,98
Combo3 : 255,128,0
Combo4 : 255,113,113

[HitObjects]
92,149,436,6,0,L|101:228,1,68.250002603531,2|0,0:0|0:0,0:0:0:0:
179,74,763,2,0,L|188:153,1,68.250002603531,2|0,0:0|0:0,0:0:0:0:
230,255,1091,2,0,B|285:278|285:278|377:240,1,136.500005207062,2|0,0:0|0:0,0:0:0:0:
444,182,1602,5,2,0:0:0:0:
252,165,1942,1,2,0:0:0:0:
236,355,2283,1,2,0:0:0:0:
426,372,2624,1,2,0:0:0:0:
277,257,2963,1,2,0:0:0:0:
277,257,3132,6,0,P|231:273|142:226,1,136.500005207062,2|0,0:0|0:0,0:0:0:0:
102,160,3637,2,0,L|112:60,1,68.250002603531,2|0,0:0|0:0,0:0:0:0:
2,147,3974,2,0,L|8:214,1,68.250002603531,2|0,0:0|0:0,0:0:0:0:
60,294,4311,6,0,B|79:208|165:210|165:210|239:249|280:179|280:179|259:315|380:323,1,477.750018224717,2|0,0:0|0:0,0:0:0:0:
153,369,5828,6,0,L|148:296,1,68.250002603531,2|0,0:0|0:0,0:0:0:0:
60,294,6159,2,0,L|55:221,1,68.250002603531,2|0,0:0|0:0,0:0:0:0:
112,115,6490,2,0,B|163:130|163:130|255:92,1,136.500005207062,2|0,0:0|0:0,0:0:0:0:
328,45,6988,5,2,0:0:0:0:
311,235,7328,1,2,0:0:0:0:
120,218,7669,1,2,0:0:0:0:
136,27,8010,1,2,0:0:0:0:
276,162,8351,1,2,0:0:0:0:
276,162,8521,6,0,B|256:126|256:126|162:199|70:129,1,238.875009112358,2|0,0:0|0:0,0:0:0:0:
144,82,9197,6,0,P|124:190|4:177,1,238.875009112358,2|0,0:0|0:0,0:0:0:0:
74,132,9873,6,0,B|124:195|123:253|123:253|176:268|232:210,1,238.875009112358,2|0,0:0|0:0,0:0:0:0:
245,206,10539,5,2,0:0:0:0:
245,206,10706,1,2,0:0:0:0:
199,81,10873,6,0,L|122:81,1,68.25,2|0,0:0|0:0,0:0:0:0:
120,97,11221,6,0,P|113:145|128:189,1,91,6|0,3:2|0:0,0:0:0:0:
214,264,11558,1,0,3:0:0:0:
333,168,11726,2,0,P|292:151|242:144,1,91,2|0,0:0|3:0,0:0:0:0:
363,263,12063,2,0,P|398:235|429:196,1,91,2|0,0:0|3:0,0:0:0:0:
395,78,12400,1,2,0:0:0:0:
246,144,12569,6,0,P|202:148|155:119,1,91,2|0,3:2|0:0,0:0:0:0:
76,47,12906,1,0,3:0:0:0:
81,213,13074,2,0,P|84:257|75:306,1,91,2|0,0:0|3:0,0:0:0:0:
202,206,13412,2,0,P|186:163|161:126,1,91,2|0,0:0|3:0,0:0:0:0:
81,213,13749,1,2,0:0:0:0:
234,297,13917,6,0,P|287:240|258:122,1,182,6|0,3:2|3:0,0:0:0:0:
144,282,14423,2,0,P|151:326|177:363,1,91,2|0,0:0|3:0,0:0:0:0:
204,207,14760,2,0,P|197:163|171:126,1,91,2|0,0:0|3:0,0:0:0:0:
71,83,15097,1,2,0:0:0:0:
50,223,15265,6,0,L|65:318,1,91,0|0,3:0|0:0,0:0:0:0:
129,192,15603,2,0,L|144:282,1,91,0|0,3:0|0:0,0:0:0:0:
302,268,15940,2,0,L|287:173,1,91,0|0,3:0|0:0,0:0:0:0:
224,296,16277,2,0,L|209:206,1,91,0|0,3:0|0:0,0:0:0:0:
364,45,16614,5,6,3:2:0:0:
234,74,16782,1,2,0:0:0:0:
369,140,16951,1,0,3:0:0:0:
209,206,17119,2,0,P|161:197|127:164,1,91,2|0,0:0|3:0,0:0:0:0:
272,158,17456,2,0,P|288:204|276:250,1,91,2|0,0:0|3:0,0:0:0:0:
221,343,17794,1,2,0:0:0:0:
43,234,17962,6,0,B|99:190|99:190|226:208,1,182,2|0,3:2|3:0,0:0:0:0:
135,355,18468,2,0,B|118:311|118:311|121:259,1,91,2|0,0:0|3:0,0:0:0:0:
194,117,18805,2,0,B|211:161|211:161|208:213,1,91,2|0,0:0|3:0,0:0:0:0:
116,73,19142,1,2,0:0:0:0:
283,27,19310,6,0,P|331:30|383:41,1,91,6|0,3:2|0:0,0:0:0:0:
478,93,19647,1,0,3:0:0:0:
357,195,19816,2,0,P|335:151|319:101,1,91,2|0,0:0|3:0,0:0:0:0:
467,205,20153,1,2,0:0:0:0:
350,280,20322,1,0,3:0:0:0:
403,130,20490,1,2,0:0:0:0:
335,303,20659,6,0,L|314:357,3,45.5,0|0|0|0,3:0|3:0|3:0|3:0,0:0:0:0:
243,303,20996,1,0,3:0:0:0:
226,286,21080,1,0,3:0:0:0:
209,269,21164,1,0,3:0:0:0:
192,252,21249,1,0,3:0:0:0:
174,236,21333,5,12,0:0:0:0:
267,16,21501,1,4,0:0:0:0:
431,337,22007,6,0,P|383:343|340:325,1,91,6|0,0:0|0:0,0:0:0:0:
209,226,22344,2,0,P|257:220|300:238,1,91,2|0,0:0|3:0,0:0:0:0:
86,322,22681,2,0,P|52:262|61:191,1,136.5,8|0,0:0|0:0,0:0:0:0:
76,175,23018,1,0,3:0:0:0:
212,135,23187,6,0,L|207:255,1,91,0|0,3:0|0:0,0:0:0:0:
407,132,23524,2,0,L|402:12,1,91,8|0,0:0|0:0,0:0:0:0:
447,232,23861,2,0,P|484:208|511:146,1,91,0|8,3:0|0:0,0:0:0:0:
364,212,24198,1,0,0:0:0:0:
501,303,24367,1,2,0:0:0:0:
137,332,24704,5,6,0:0:0:0:
281,234,24872,1,0,3:0:0:0:
94,234,25041,1,2,0:0:0:0:
267,332,25209,1,0,3:0:0:0:
77,221,25378,1,12,0:0:0:0:
77,221,25715,1,0,3:0:0:0:
210,129,25883,6,0,P|260:126|317:142,1,91,0|0,3:0|0:0,0:0:0:0:
414,67,26220,2,0,P|380:36|339:17,1,91,8|0,0:0|0:0,0:0:0:0:
414,167,26558,2,0,P|457:152|494:127,1,91,0|8,3:0|0:0,0:0:0:0:
367,267,26895,1,0,3:0:0:0:
367,267,26979,1,0,3:0:0:0:
367,267,27063,6,0,L|265:254,1,81.8999975006104,8|0,0:0|0:0,0:0:0:0:
181,303,27400,6,0,L|175:212,1,91,12|0,0:0|0:0,0:0:0:0:
217,66,27737,1,8,0:0:0:0:
285,256,27906,1,2,0:0:0:0:
327,43,28074,1,8,0:0:0:0:
175,212,28243,1,0,3:0:0:0:
323,59,28412,1,8,0:0:0:0:
414,269,28580,6,0,P|458:276|510:256,1,91,2|12,3:2|3:2,0:0:0:0:
262,204,28917,2,0,P|217:197|175:212,1,91,2|8,3:2|0:2,0:0:0:0:
370,163,29254,1,0,3:0:0:0:
370,163,29338,1,0,3:0:0:0:
370,163,29423,1,8,0:0:0:0:
280,303,29591,1,8,0:3:0:0:
244,124,29760,1,4,0:3:0:0:
141,284,29928,1,8,0:3:0:0:
360,330,30097,6,0,P|407:334|456:308,1,91,6|0,0:0|0:0,0:0:0:0:
335,186,30434,1,0,3:0:0:0:
262,326,30602,1,0,3:0:0:0:
262,326,30686,1,0,3:0:0:0:
262,326,30771,1,2,3:2:0:0:
129,209,30940,1,0,3:0:0:0:
129,209,31024,1,0,3:0:0:0:
129,209,31108,1,2,3:2:0:0:
244,64,31277,1,0,3:0:0:0:
244,64,31361,1,0,3:0:0:0:
244,64,31445,6,0,L|244:164,1,91,6|2,0:0|0:0,0:0:0:0:
163,41,31782,1,0,3:0:0:0:
323,102,31951,1,2,0:0:0:0:
129,209,32119,5,0,3:0:0:0:
342,106,32288,1,0,3:0:0:0:
342,106,32372,1,0,3:0:0:0:
342,106,32456,1,2,3:2:0:0:
226,245,32625,1,2,0:0:0:0:
244,64,32794,6,0,L|247:126,1,45.5,6|0,0:0|0:0,0:0:0:0:
347,231,32962,1,8,0:0:0:0:
385,214,33046,1,8,0:0:0:0:
413,185,33131,1,8,0:0:0:0:
428,147,33215,1,8,0:0:0:0:
427,106,33299,1,8,0:0:0:0:
415,68,33383,1,8,0:0:0:0:
385,42,33468,5,8,3:2:0:0:
185,202,33636,1,6,0:0:0:0:
185,202,34142,6,0,P|264:207|324:124,1,161.069994347214,4|0,0:0|0:0,0:0:0:0:
329,121,34479,1,8,0:0:0:0:
312,305,34647,1,0,0:0:0:0:
229,113,34816,1,0,3:0:0:0:
452,118,34985,1,0,3:0:0:0:
185,202,35153,2,0,P|142:169|123:114,1,107.379996231476,8|0,0:0|0:0,0:0:0:0:
376,37,35490,6,0,B|379:97|379:97|366:150|366:150|370:224,1,161.069994347214,2|0,3:2|0:0,0:0:0:0:
380,226,35827,1,8,0:0:0:0:
512,129,35996,1,0,0:0:0:0:
302,90,36164,1,2,3:2:0:0:
283,289,36333,1,0,3:0:0:0:
441,160,36501,1,8,0:0:0:0:
215,160,36670,1,0,0:0:0:0:
484,241,36838,6,0,P|523:171|494:82,1,161.069994347214,4|0,0:0|0:0,0:0:0:0:
480,74,37176,2,0,L|369:76,1,107.379996231476,8|0,0:0|0:0,0:0:0:0:
217,160,37513,1,2,3:2:0:0:
441,160,37681,1,0,3:0:0:0:
171,288,37850,5,8,0:0:0:0:
396,288,38018,1,0,0:0:0:0:
116,216,38187,1,0,3:0:0:0:
341,216,38355,1,0,3:0:0:0:
68,350,38524,5,8,0:0:0:0:
293,350,38692,1,0,0:0:0:0:
14,266,38861,1,0,3:0:0:0:
239,266,39029,1,0,3:0:0:0:
0,368,39198,2,0,P|-5:308|25:252,1,107.379996231476,10|0,0:0|0:0,0:0:0:0:
324,116,39535,6,0,P|356:191|325:278,1,161.069994347214,4|0,0:0|0:0,0:0:0:0:
311,286,39872,1,8,0:0:0:0:
110,203,40041,2,0,P|159:185|211:197,1,107.379996231476,2|0,0:0|3:0,0:0:0:0:
332,364,40378,1,2,3:2:0:0:
285,198,40546,1,8,0:0:0:0:
109,304,40715,1,0,0:0:0:0:
332,364,40883,6,0,L|523:341,1,161.069994347214,2|0,3:2|0:0,0:0:0:0:
507,315,41220,2,0,L|479:205,1,107.379996231476,8|0,0:0|0:0,0:0:0:0:
353,94,41558,1,2,3:2:0:0:
257,242,41726,1,0,3:0:0:0:
426,120,41895,2,0,P|422:64|382:20,1,107.379996231476,10|0,0:0|0:0,0:0:0:0:
109,242,42232,6,0,P|172:269|269:229,1,161.069994347214,4|0,0:0|0:0,0:0:0:0:
275,215,42569,1,8,0:0:0:0:
108,146,42737,1,0,0:0:0:0:
141,351,42906,1,0,3:0:0:0:
183,187,43074,1,0,3:0:0:0:
0,340,43243,1,10,0:0:0:0:
221,283,43412,1,0,0:0:0:0:
0,148,43580,6,0,P|4:201|24:253,1,107.379996231476,2|0,3:2|3:0,0:0:0:0:
206,83,43917,2,0,P|202:136|182:188,1,107.379996231476,8|0,0:0|0:0,0:0:0:0:
130,305,44254,1,0,3:0:0:0:
331,261,44423,2,0,L|301:216,1,53.689998115738,0|0,3:0|0:0,0:0:0:0:
387,332,44591,6,0,L|425:265,1,68.25,10|0,0:0|0:0,0:0:0:0:
487,170,44928,6,0,B|506:102|506:102|500:43|430:28,1,161.069994347214,4|0,0:0|0:0,0:0:0:0:
420,31,45265,1,8,0:0:0:0:
332,227,45434,1,2,0:0:0:0:
241,21,45603,1,0,3:0:0:0:
428,108,45771,1,2,3:2:0:0:
199,138,45940,1,8,0:0:0:0:
357,22,46108,1,0,0:0:0:0:
152,225,46277,6,0,P|106:171|121:79,1,161.069994347214,2|0,3:2|0:0,0:0:0:0:
135,59,46614,2,0,L|264:63,1,107.379996231476,8|0,0:0|0:0,0:0:0:0:
375,135,46951,1,0,3:0:0:0:
287,254,47119,1,0,3:0:0:0:
333,55,47288,2,0,P|384:49|446:82,1,107.379996231476,10|0,0:0|0:0,0:0:0:0:
267,334,47625,6,0,P|213:278|231:191,1,161.069994347214,4|0,0:0|0:0,0:0:0:0:
248,179,47962,1,8,0:0:0:0:
139,328,48130,1,0,3:0:0:0:
139,328,48214,1,0,3:0:0:0:
139,328,48299,1,0,3:0:0:0:
86,161,48468,1,2,3:2:0:0:
285,254,48636,1,8,0:0:0:0:
48,260,48805,1,0,3:0:0:0:
212,51,48973,5,8,0:0:0:0:
212,51,49058,1,8,0:0:0:0:
212,51,49142,1,8,0:0:0:0:
148,240,49310,1,0,3:0:0:0:
85,38,49479,1,8,0:0:0:0:
85,38,49563,1,8,0:0:0:0:
85,38,49647,6,0,L|101:120,1,58.24,8|0,0:0|0:0,0:0:0:0:
212,182,49816,2,0,L|228:100,1,58.24,0|0,3:0|0:0,0:0:0:0:
326,40,49985,6,0,P|356:39|389:46,1,54.6,12|0,0:0|0:0,0:0:0:0:
478,120,50322,6,0,L|451:287,1,161.069994347214,4|0,0:0|0:0,0:0:0:0:
439,309,50659,1,8,0:0:0:0:
293,364,50827,1,0,0:0:0:0:
371,185,50996,1,0,3:0:0:0:
410,382,51164,1,0,3:0:0:0:
247,236,51333,2,0,P|236:181|254:119,1,107.379996231476,8|0,0:0|0:0,0:0:0:0:
446,31,51670,6,0,L|259:35,1,161.069994347214,2|0,3:2|0:0,0:0:0:0:
252,40,52007,1,8,0:0:0:0:
373,157,52176,1,0,0:0:0:0:
236,40,52344,2,0,P|179:41|120:80,1,107.379996231476,2|0,3:2|3:0,0:0:0:0:
174,221,52681,2,0,P|201:171|197:100,1,107.379996231476,8|0,0:0|0:0,0:0:0:0:
31,265,53018,6,0,P|70:337|155:354,1,161.069994347214,4|0,0:0|0:0,0:0:0:0:
175,359,53355,2,0,L|290:342,1,107.379996231476,8|0,0:0|0:0,0:0:0:0:
387,209,53692,1,2,3:2:0:0:
299,349,53861,1,0,3:0:0:0:
473,199,54029,2,0,P|443:148|383:126,1,107.379996231476,8|0,0:0|0:0,0:0:0:0:
163,244,54367,6,0,B|234:264|234:264|316:242,1,136.5,4|0,0:0|0:0,0:0:0:0:
148,163,54704,2,0,P|97:195|88:281,1,136.5,8|0,0:0|0:0,0:0:0:0:
233,187,55041,2,0,P|226:129|163:71,1,136.5,4|0,3:2|0:0,0:0:0:0:
163,244,55378,1,8,0:0:0:0:
342,176,55546,1,0,3:0:0:0:
148,67,55715,6,0,B|70:73|70:73|33:130|71:188,1,182,4|0,0:0|0:0,0:0:0:0:
163,244,56220,1,0,3:0:0:0:
227,133,56389,2,0,L|127:141,1,91,8|0,0:0|3:0,0:0:0:0:
316,168,56726,2,0,L|308:68,1,91,2|8,0:0|0:0,0:0:0:0:
319,284,57063,6,0,P|369:269|405:228,1,91,0|8,3:0|0:0,0:0:0:0:
240,202,57400,1,2,0:3:0:0:
237,351,57569,1,0,3:0:0:0:
237,351,57653,1,0,3:0:0:0:
237,351,57737,2,0,L|238:290,1,45.5,8|0,0:0|0:0,0:0:0:0:
123,202,57906,2,0,L|124:263,1,45.5,8|0,0:0|0:0,0:0:0:0:
240,202,58074,6,0,L|242:72,1,102.375003905296,12|0,0:0|0:0,0:0:0:0:
237,79,58412,5,4,0:0:0:0:
352,284,58580,1,0,3:0:0:0:
455,0,58749,5,12,0:0:0:0:
322,191,58917,1,0,3:0:0:0:
104,7,59086,5,4,0:0:0:0:
327,64,59254,1,0,3:0:0:0:
46,243,59423,5,12,0:0:0:0:
191,75,59581,1,0,3:0:0:0:
141,170,59740,6,0,L|147:236,3,45.5,0|0|0|0,3:0|3:0|3:0|3:0,0:0:0:0:
266,228,60075,2,0,L|269:305,3,45.5,0|0|0|0,3:0|3:0|3:0|3:0,0:0:0:0:
372,347,60410,5,8,0:0:0:0:
403,347,60494,1,8,0:0:0:0:
434,342,60577,1,8,0:0:0:0:
462,328,60661,1,8,0:0:0:0:
487,308,60745,1,8,0:0:0:0:
506,282,60829,1,8,0:0:0:0:
512,253,60913,1,8,0:0:0:0:
509,221,60996,1,8,0:0:0:0:
504,192,61080,6,0,B|438:214|438:214|323:167,1,161.069994347214,4|0,0:0|0:0,0:0:0:0:
322,168,61421,2,0,L|207:175,1,107.379996231476,8|0,0:0|0:0,0:0:0:0:
66,256,61762,1,0,3:0:0:0:
246,304,61937,1,0,3:0:0:0:
116,156,62112,2,0,L|123:41,1,107.379996231476,8|0,0:0|0:0,0:0:0:0:
208,234,62463,6,0,P|150:275|65:255,1,161.069994347214,2|0,3:2|0:0,0:0:0:0:
36,245,62794,2,0,L|58:352,1,107.379996231476,8|0,0:0|0:0,0:0:0:0:
257,305,63125,1,2,3:2:0:0:
129,181,63292,1,0,3:0:0:0:
188,370,63460,1,8,0:0:0:0:
247,157,63632,1,0,0:0:0:0:
365,359,63804,6,0,B|420:383|420:383|480:362|482:288,1,161.069994347214,4|0,0:0|0:0,0:0:0:0:
481,284,64141,1,8,0:0:0:0:
470,96,64309,1,0,0:0:0:0:
310,174,64478,2,0,L|312:295,1,107.379996231476,2|0,3:2|3:0,0:0:0:0:
236,84,64815,5,8,0:0:0:0:
236,309,64983,1,0,0:0:0:0:
388,34,65152,1,0,3:0:0:0:
388,259,65320,1,0,3:0:0:0:
150,36,65489,5,8,0:0:0:0:
150,261,65657,1,0,0:0:0:0:
280,12,65826,1,0,3:0:0:0:
280,237,65995,1,0,3:0:0:0:
141,25,66163,2,0,P|83:16|37:38,1,107.379996231476,10|0,0:0|0:0,0:0:0:0:
280,237,66492,6,0,B|354:247|354:247|441:197,1,161.069994347214,4|0,0:0|0:0,0:0:0:0:
458,189,66829,2,0,L|449:298,1,107.379996231476,8|0,0:0|0:0,0:0:0:0:
331,158,67166,1,0,3:0:0:0:
506,131,67334,1,2,3:2:0:0:
425,311,67503,1,8,0:0:0:0:
381,96,67671,1,0,0:0:0:0:
208,309,67840,6,0,B|149:320|149:320|95:286|109:213,1,161.069994347214,2|0,3:2|0:0,0:0:0:0:
111,202,68177,2,0,L|128:89,1,107.379996231476,8|0,0:0|0:0,0:0:0:0:
276,25,68514,1,2,3:2:0:0:
100,19,68683,1,0,3:0:0:0:
275,131,68851,2,0,P|331:120|370:75,1,107.379996231476,10|0,0:0|0:0,0:0:0:0:
228,247,69188,6,0,P|154:226|67:276,1,161.069994347214,4|0,0:0|0:0,0:0:0:0:
64,287,69525,1,8,0:0:0:0:
279,338,69694,1,0,0:0:0:0:
199,142,69862,1,0,3:0:0:0:
164,333,70031,1,0,3:0:0:0:
164,333,70199,1,8,0:0:0:0:
56,154,70368,1,0,0:0:0:0:
313,135,70536,5,2,3:2:0:0:
147,227,70705,1,0,3:0:0:0:
179,0,70874,1,8,0:0:0:0:
247,214,71042,1,8,0:0:0:0:
247,214,71126,1,8,0:0:0:0:
247,214,71211,1,8,3:2:0:0:
455,102,71379,2,0,L|451:45,1,53.689998115738,0|0,3:0|0:0,0:0:0:0:
318,67,71548,6,0,L|313:145,1,68.25,10|0,0:0|0:0,0:0:0:0:
242,239,71885,6,0,P|159:252|99:197,1,161.069994347214,4|0,0:0|0:0,0:0:0:0:
85,178,72222,1,8,0:0:0:0:
79,347,72390,1,2,0:0:0:0:
186,169,72559,1,0,3:0:0:0:
281,328,72727,1,2,3:2:0:0:
369,97,72896,2,0,P|319:80|259:92,1,107.379996231476,8|0,0:0|0:0,0:0:0:0:
77,250,73233,6,0,L|70:74,1,161.069994347214,2|0,3:2|0:0,0:0:0:0:
90,63,73570,1,8,0:0:0:0:
224,234,73739,1,8,0:0:0:0:
224,234,73823,1,8,0:0:0:0:
224,234,73907,1,8,3:2:0:0:
226,37,74076,1,0,3:0:0:0:
74,173,74244,1,8,0:0:0:0:
304,175,74413,1,2,0:0:0:0:
74,59,74581,5,4,0:0:0:0:
115,256,74750,1,0,3:0:0:0:
242,123,74918,1,8,0:0:0:0:
29,136,75087,1,8,0:0:0:0:
29,136,75171,1,8,0:0:0:0:
29,136,75256,1,8,3:2:0:0:
217,236,75424,1,0,3:0:0:0:
212,19,75593,1,8,0:0:0:0:
111,163,75761,1,0,3:0:0:0:
407,159,75930,5,6,0:0:0:0:
332,304,76098,1,8,0:3:0:0:
310,306,76183,1,8,0:3:0:0:
289,303,76267,2,0,L|228:291,1,53.689998115738,8|8,0:3|0:3,0:0:0:0:
111,163,76435,1,8,0:3:0:0:
242,69,76604,1,8,0:3:0:0:
275,52,76688,1,8,0:3:0:0:
312,45,76772,1,8,0:3:0:0:
349,51,76857,1,8,0:3:0:0:
382,68,76941,6,0,L|380:126,1,54.6,12|0,0:0|0:0,0:0:0:0:
326,246,77278,6,0,B|286:277|286:277|261:235|229:218|165:232,1,161.069994347214,4|0,0:0|0:0,0:0:0:0:
163,235,77615,1,8,0:0:0:0:
304,357,77784,1,0,0:0:0:0:
297,143,77952,1,0,3:0:0:0:
193,320,78121,1,0,3:0:0:0:
394,252,78289,1,8,0:0:0:0:
197,142,78458,1,0,0:0:0:0:
304,357,78626,6,0,P|380:360|449:309,1,161.069994347214,2|0,3:2|0:0,0:0:0:0:
467,287,78963,2,0,L|464:176,1,107.379996231476,8|0,0:0|0:0,0:0:0:0:
301,88,79300,1,2,3:2:0:0:
388,197,79469,1,0,3:0:0:0:
466,34,79638,1,8,0:0:0:0:
226,34,79806,1,0,3:0:0:0:
199,34,79890,1,0,3:0:0:0:
172,34,79975,5,4,0:0:0:0:
270,217,80143,1,0,3:0:0:0:
366,51,80312,1,8,0:0:0:0:
148,137,80480,1,0,0:0:0:0:
335,263,80649,1,2,3:2:0:0:
232,114,80817,1,0,3:0:0:0:
170,326,80986,1,8,0:0:0:0:
342,180,81154,1,0,0:0:0:0:
128,253,81323,6,0,P|55:262|0:193,1,136.5,4|0,0:0|0:0,0:0:0:0:
166,177,81660,2,0,P|210:235|178:317,1,136.5,8|0,0:0|0:0,0:0:0:0:
82,189,81997,2,0,B|96:128|96:128|170:72,1,136.5,4|0,3:2|0:0,0:0:0:0:
278,57,82334,1,8,0:0:0:0:
166,177,82503,1,0,3:0:0:0:
347,22,82671,6,0,L|348:223,1,182,4|0,0:0|0:0,0:0:0:0:
293,321,83177,1,0,3:0:0:0:
170,208,83345,2,0,P|219:194|266:204,1,91,8|0,0:0|3:0,0:0:0:0:
135,284,83683,2,0,P|98:248|83:201,1,91,2|0,0:0|3:0,0:0:0:0:
83,189,83935,1,0,3:0:0:0:
89,167,84020,6,0,P|125:131|140:84,1,91,0|8,3:0|0:0,0:0:0:0:
14,45,84357,1,2,0:3:0:0:
17,237,84525,1,0,3:0:0:0:
17,237,84609,1,0,3:0:0:0:
17,237,84694,1,8,0:0:0:0:
106,21,84862,1,12,0:0:0:0:
135,284,85031,1,4,0:0:0:0:
135,284,85368,5,4,0:0:0:0:
332,38,85536,1,0,3:0:0:0:
53,238,85705,5,0,3:0:0:0:
402,86,85874,1,0,3:0:0:0:
21,145,86042,5,8,0:0:0:0:
433,169,86210,1,8,0:0:0:0:
31,39,86379,5,8,0:0:0:0:
434,265,86548,1,8,0:0:0:0:
131,0,86716,6,0,P|166:35|183:88,1,91,6|0,0:0|0:0,0:0:0:0:
122,151,87222,2,0,B|32:147,1,91,2|2,0:0|0:0,0:0:0:0:
198,297,87896,6,0,B|277:331|328:276|328:276|363:314,1,182,2|0,0:0|0:0,0:0:0:0:
