osu file format v14

[General]
AudioFilename: audio.mp3
AudioLeadIn: 0
PreviewTime: 108478
Countdown: 0
SampleSet: Soft
StackLeniency: 0.5
Mode: 0
LetterboxInBreaks: 0
WidescreenStoryboard: 0

[Editor]
Bookmarks: 35754,108563,186765,211038,239351
DistanceSpacing: 1.1
BeatDivisor: 4
GridSize: 32
TimelineZoom: 2.5

[Metadata]
Title:border
TitleUnicode:border
Artist:ClariS
ArtistUnicode:ClariS
Creator:Azu
Version:captin's Extra
Source:憑物語
Tags:Tsukimonogatari ending Fairy Castle 10th Anniversary BEST Pink Moon japanese anime pop j-pop jpop full size length version Mayu Sakuma Xexyz Azunyan- Ayana captin1
BeatmapID:3483436
BeatmapSetID:1701031

[Difficulty]
HPDrainRate:5
CircleSize:4.2
OverallDifficulty:8
ApproachRate:9
SliderMultiplier:1.8
SliderTickRate:2

[Events]
//Background and Video events
0,0,"border.jpg",0,0
Video,-103,"border.mp4"
//Break Periods
2,62921,72056
2,100665,102056
2,138418,145707
//Storyboard Layer 0 (Background)
//Storyboard Layer 1 (Fail)
//Storyboard Layer 2 (Pass)
//Storyboard Layer 3 (Foreground)
//Storyboard Layer 4 (Overlay)
//Storyboard Sound Samples

[TimingPoints]
690,337.078651685393,4,2,11,50,1,0
690,-133.333333333333,4,2,11,50,0,0
11476,-111.111111111111,4,2,11,60,0,0
19566,-111.111111111111,4,2,11,65,0,0
22263,-111.111111111111,4,2,11,70,0,0
27656,-100,4,2,11,70,0,0
30352,-133.333333333333,4,2,11,60,0,0
33049,-100,4,2,11,70,0,0
35746,-100,4,2,11,80,0,1
62712,-100,4,2,11,70,0,0
72656,-111.111111111111,4,2,11,60,0,0
84200,-111.111111111111,4,2,11,5,0,0
84285,-100,4,2,11,70,0,0
108555,-100,4,2,11,80,0,1
135521,-100,4,2,11,70,0,0
138218,-100,4,2,11,40,0,0
146307,-133.333333333333,4,2,11,50,0,0
157094,-133.333333333333,4,2,22,50,0,0
167375,-133.333333333333,4,2,22,70,0,0
167543,-111.111111111111,4,2,11,70,0,0
173274,-100,4,2,11,70,0,0
184060,-200,4,2,11,70,0,0
186083,-83.3333333333333,4,2,11,70,0,0
186757,-90.9090909090909,4,2,11,80,0,1
209349,317.460317460317,4,2,11,80,1,1
209349,-90.9090909090909,4,2,11,80,0,1
209666,335.195530726257,4,2,11,50,1,1
209666,-90.9090909090909,4,2,11,50,0,1
210336,337.078651685393,4,2,11,50,1,1
210364,-100,4,2,11,60,0,1
210673,-100,4,2,11,70,0,1
210925,-100,4,2,11,80,0,0
211010,338.983050847458,4,2,11,80,1,1
211010,-90.9090909090909,4,2,11,80,0,1
211687,350.877192982456,4,2,11,80,1,1
212037,-90.9090909090909,4,2,1,80,0,1
212388,335.195530726257,4,2,1,80,1,1
212388,-90.9090909090909,4,2,1,80,0,1
213058,331.491712707182,4,2,1,80,1,1
213389,346.820809248555,4,2,1,80,1,1
213389,-90.9090909090909,4,2,1,80,0,1
213735,337.078651685393,4,2,1,80,1,1
213735,-90.9090909090909,4,2,1,80,0,1
216094,329.67032967033,4,2,1,80,1,1
216094,-90.9090909090909,4,2,1,80,0,1
216423,337.078651685393,4,2,1,80,1,1
216423,-90.9090909090909,4,2,1,80,0,1
226029,-100,4,2,1,80,0,1
226872,-90.9090909090909,4,2,1,80,0,1
236647,-100,4,2,1,70,0,0
238333,324.324324324324,4,2,1,40,1,0
238657,337.078651685393,4,2,1,40,1,0
238994,357.142857142857,4,2,1,40,1,0
238994,-100,4,2,1,50,0,0
239351,337.078651685393,4,2,1,80,1,1
239435,-100,4,2,1,80,0,0
239856,-100,4,2,11,80,0,0
246092,317.460317460317,4,2,11,80,1,1
246250,-100,4,2,1,80,0,1
246568,337.078651685393,4,2,1,80,1,1
247073,340.909090909091,4,2,1,80,1,1
247413,355.029585798817,4,2,1,80,1,1
247945,335.195530726257,4,2,1,80,1,1
248782,337.078651685393,4,2,1,60,1,1
249119,-100,4,2,11,60,0,0
249456,-100,4,2,11,70,0,0
250130,-111.111111111111,4,2,11,70,0,0
254849,-100,4,2,11,80,0,0
255523,-90.9090909090909,4,2,11,80,0,1
259568,-90.9090909090909,4,2,11,90,0,0

[Colours]
Combo1 : 248,170,7
Combo2 : 0,255,128
Combo3 : 0,128,192
Combo4 : 242,24,57

[HitObjects]
404,251,690,6,0,P|370:253|332:261,1,67.5000000000002,2|0,2:0|2:0,2:0:0:0:
249,311,1027,2,0,P|238:271|237:244,1,67.5000000000002,0|0,2:0|2:0,2:0:0:0:
146,206,1364,2,0,P|165:157|170:75,1,135,2|0,2:0|2:0,2:0:0:0:
111,33,1869,1,2,2:0:0:0:
62,241,2206,1,0,2:0:0:0:
256,156,2543,2,0,P|312:151|393:162,1,135,2|0,2:0|2:0,2:0:0:0:
471,283,3218,1,0,2:0:0:0:
471,283,3386,6,0,L|330:293,1,135,2|0,2:0|2:0,2:0:0:0:
295,356,3892,2,0,P|252:336|164:350,1,135,2|0,2:0|2:0,2:0:0:0:
121,138,4566,2,0,L|133:274,1,135,2|0,2:0|2:0,2:0:0:0:
213,217,5072,2,0,P|257:238|337:211,2,135,0|2|0,2:0|2:0|2:0,2:0:0:0:
40,173,6083,6,0,P|35:138|35:101,1,67.5000000000002,2|0,2:0|2:0,2:0:0:0:
158,68,6420,2,0,P|157:101|152:135,1,67.5000000000002,0|0,2:0|2:0,2:0:0:0:
128,251,6757,2,0,P|124:290|144:383,1,135,2|0,2:0|2:0,2:0:0:0:
218,357,7263,1,2,2:0:0:0:
393,242,7600,1,0,2:0:0:0:
224,119,7937,2,0,P|180:125|86:110,1,135,2|0,2:0|2:0,2:0:0:0:
297,50,8611,1,0,2:0:0:0:
297,50,8779,6,0,L|437:57,1,135,2|0,2:0|2:0,2:0:0:0:
480,260,9454,2,0,L|340:267,1,135,2|0,2:0|2:0,2:0:0:0:
145,209,10128,2,0,P|131:151|129:68,1,135,2|0,2:0|2:0,2:0:0:0:
320,201,10802,1,2,2:0:0:0:
320,201,10970,2,0,L|308:344,1,135,0|0,2:0|2:0,2:0:0:0:
391,281,11476,6,0,P|421:288|473:289,1,81.0000000000001,4|0,1:2|2:0,2:0:0:0:
236,267,11813,2,0,P|204:267|155:277,1,81.0000000000001,0|0,1:0|2:0,2:0:0:0:
100,352,12150,1,0,1:0:0:0:
209,355,12319,1,0,2:0:0:0:
157,187,12487,1,0,1:0:0:0:
14,290,12656,1,0,2:0:0:0:
198,268,12824,6,0,L|362:283,1,162,0|0,1:0|1:0,2:0:0:0:
481,343,13330,2,0,P|469:295|464:253,1,81.0000000000001,0|0,2:0|1:0,2:0:0:0:
480,91,13667,1,0,2:0:0:0:
499,194,13836,1,0,1:0:0:0:
386,125,14004,1,0,2:0:0:0:
288,215,14173,6,0,L|294:381,1,162,0|0,1:0|1:0,2:0:0:0:
185,239,14678,2,0,P|192:186|193:157,1,81.0000000000001,0|0,2:0|1:0,2:0:0:0:
364,200,15015,2,0,P|366:240|371:280,1,81.0000000000001,0|0,2:0|1:0,2:0:0:0:
220,311,15352,1,0,2:0:0:0:
289,147,15521,6,0,P|341:115|443:156,2,162,0|0|0,1:0|1:0|1:0,2:0:0:0:
453,231,16364,1,2,2:0:0:0:
412,37,16532,1,0,1:0:0:0:
364,200,16701,1,2,2:0:0:0:
503,120,16869,6,0,P|461:124|417:124,1,81.0000000000001,0|0,1:0|2:0,2:0:0:0:
300,42,17206,1,0,1:0:0:0:
199,149,17375,2,0,L|202:247,1,81.0000000000001,0|0,2:0|1:0,2:0:0:0:
318,325,17712,2,0,L|321:227,1,81.0000000000001,0|0,2:0|1:0,2:0:0:0:
221,64,18049,1,0,2:0:0:0:
104,226,18218,6,0,P|126:309|214:321,1,162,0|0,1:0|1:0,2:0:0:0:
395,236,18723,2,0,P|343:235|304:238,1,81.0000000000001,2|0,2:0|1:0,2:0:0:0:
150,160,19060,1,2,2:0:0:0:
115,359,19229,1,0,1:0:0:0:
185,245,19397,1,2,2:0:0:0:
4,272,19566,6,0,L|94:268,1,81.0000000000001,0|2,1:0|2:0,2:0:0:0:
276,291,19903,1,0,1:0:0:0:
209,88,20072,1,2,2:0:0:0:
185,245,20240,1,0,1:0:0:0:
334,186,20409,1,2,2:0:0:0:
228,172,20577,1,0,1:0:0:0:
426,151,20746,1,2,2:0:0:0:
354,362,20914,6,0,L|264:358,1,81.0000000000001,0|2,1:0|2:0,2:0:0:0:
66,156,21251,2,0,L|156:152,1,81.0000000000001,0|2,1:0|2:0,2:0:0:0:
353,270,21588,1,8,2:0:0:0:
88,247,21757,1,10,1:2:0:0:
88,247,22263,5,4,1:0:0:0:
300,200,22431,2,0,L|472:209,1,162,0|0,2:0|1:0,2:0:0:0:
215,116,22937,2,0,L|43:125,1,162,8|0,2:0|1:0,2:0:0:0:
188,311,23442,6,0,P|192:248|192:210,1,81.0000000000001,0|0,1:0|2:0,2:0:0:0:
38,93,23779,2,0,P|1:161|35:231,1,162,8|0,2:0|1:0,1:0:0:0:
170,336,24285,1,8,2:0:0:0:
140,169,24454,1,0,1:0:0:0:
94,368,24622,1,2,2:0:0:0:
448,149,24959,5,4,1:2:0:0:
261,28,25128,2,0,P|218:48|195:80,1,81.0000000000001,8|0,2:0|2:0,2:0:0:0:
434,63,25465,1,0,1:0:0:0:
271,107,25633,2,0,L|105:103,1,162,8|0,2:0|1:0,2:0:0:0:
9,248,26139,6,0,L|94:243,1,81.0000000000001,0|2,1:0|2:0,2:0:0:0:
111,255,26392,1,0,2:0:0:0:
131,267,26476,1,8,2:0:0:0:
43,354,26645,1,2,2:0:0:0:
21,148,26813,1,0,1:0:0:0:
215,222,26982,1,8,2:0:0:0:
399,129,27150,1,0,1:0:0:0:
399,129,27234,1,0,1:0:0:0:
399,129,27319,2,0,L|316:128,1,81.0000000000001,12|0,2:0|2:0,2:0:0:0:
50,71,27656,6,0,L|185:67,1,135,4|0,1:0|2:0,2:0:0:0:
240,128,27993,2,0,P|241:172|235:217,1,90,8|0,2:0|2:0,2:0:0:0:
175,328,28330,1,8,2:0:0:0:
139,188,28498,1,0,1:0:0:0:
299,255,28667,1,8,2:0:0:0:
299,255,28836,6,0,L|205:260,1,90,0|8,1:0|2:0,2:0:0:0:
15,283,29173,2,0,L|109:288,1,90,0|8,1:0|2:0,2:0:0:0:
333,336,29510,1,2,2:0:0:0:
333,336,29594,1,0,2:0:0:0:
333,336,29678,1,8,2:0:0:0:
305,153,29847,1,8,2:3:0:0:
252,322,30015,1,4,2:3:0:0:
406,300,30184,1,4,2:3:0:0:
254,228,30352,6,0,L|113:234,1,135,4|0,2:0|1:0,2:0:0:0:
31,326,30858,1,2,2:0:0:0:
31,326,30942,1,0,2:0:0:0:
31,326,31027,2,0,L|25:244,1,67.5000000000002,0|0,1:0|2:0,2:0:0:0:
129,90,31364,2,0,L|123:172,1,67.5000000000002,0|2,1:0|2:0,2:0:0:0:
194,208,31616,1,0,2:0:0:0:
194,208,31701,6,0,P|256:227|310:191,1,135,4|0,1:2|1:0,2:0:0:0:
380,249,32206,1,2,2:0:0:0:
247,154,32375,1,0,1:0:0:0:
235,318,32543,1,0,2:0:0:0:
235,318,32628,1,0,2:0:0:0:
235,318,32712,2,0,L|142:310,1,67.5000000000002,2|0,1:2|2:0,2:0:0:0:
28,191,33049,6,0,L|19:92,1,90,12|0,2:0|1:0,2:0:0:0:
100,24,33386,1,0,1:0:0:0:
243,228,33555,2,0,L|234:317,1,90,12|0,2:0|1:0,2:0:0:0:
162,150,33892,1,0,1:0:0:0:
327,287,34060,2,0,L|416:295,1,90,12|0,2:0|1:0,2:0:0:0:
441,284,34313,1,0,1:0:0:0:
465,273,34397,1,0,1:0:0:0:
386,128,34566,5,0,1:0:0:0:
363,113,34650,1,0,1:0:0:0:
337,105,34734,1,0,1:0:0:0:
309,105,34819,1,0,1:0:0:0:
284,115,34903,2,0,L|278:183,1,45,0|0,1:0|1:0,2:0:0:0:
232,334,35072,1,8,1:2:0:0:
475,218,35240,1,10,1:2:0:0:
232,334,35746,6,0,P|181:348|78:318,1,135,4|0,1:0|2:0,2:0:0:0:
23,329,36083,2,0,L|19:233,1,90,8|0,2:0|2:0,2:0:0:0:
113,72,36420,1,0,1:0:0:0:
96,221,36588,1,0,1:0:0:0:
208,114,36757,2,0,L|204:18,1,90,8|0,2:0|2:0,2:0:0:0:
158,269,37094,6,0,P|210:286|268:272,1,90,0|0,1:0|2:0,2:0:0:0:
450,248,37431,2,0,L|300:234,1,135,8|0,2:0|2:0,2:0:0:0:
282,156,37768,1,0,1:0:0:0:
236,364,37937,1,0,1:0:0:0:
375,315,38105,1,8,2:0:0:0:
207,223,38274,1,0,2:0:0:0:
55,339,38442,6,0,L|157:335,1,90,0|0,1:0|2:0,2:0:0:0:
344,231,38779,1,8,2:0:0:0:
196,142,38948,1,0,2:0:0:0:
277,358,39116,2,0,L|270:258,1,90,0|0,1:0|1:0,1:0:0:0:
417,331,39454,2,0,L|424:231,1,90,8|0,2:0|2:0,2:0:0:0:
492,59,39791,6,0,P|425:93|359:73,1,135,0|0,1:0|2:0,2:0:0:0:
295,42,40128,2,0,L|193:47,1,90,8|0,2:0|2:0,2:0:0:0:
6,111,40465,1,0,1:0:0:0:
132,25,40633,1,0,1:0:0:0:
233,147,40802,1,8,2:0:0:0:
98,113,40970,1,0,2:0:0:0:
309,121,41139,6,0,P|321:201|311:263,1,135,4|0,1:2|2:0,2:0:0:0:
251,309,41476,1,8,2:0:0:0:
491,250,41645,2,0,L|389:257,1,90,0|0,2:0|1:0,2:0:0:0:
193,233,41982,2,0,L|91:226,1,90,0|8,1:0|2:0,2:0:0:0:
233,73,42319,1,0,2:0:0:0:
276,275,42487,6,0,P|233:321|124:298,2,180,0|8|0,1:0|2:0|1:0,2:0:0:0:
166,148,43330,1,0,1:0:0:0:
46,265,43498,2,0,P|28:318|21:354,1,90,8|0,2:0|2:0,2:0:0:0:
193,233,43836,6,0,L|311:231,1,90,0|0,1:0|2:0,2:0:0:0:
438,331,44173,2,0,P|386:270|364:199,1,135,8|0,2:0|2:0,2:0:0:0:
408,149,44510,1,0,1:0:0:0:
313,310,44678,1,0,1:0:0:0:
315,115,44847,1,8,2:0:0:0:
479,82,45015,1,0,2:0:0:0:
330,212,45184,6,0,P|283:210|238:180,1,90,0|0,1:0|1:0,2:0:0:0:
37,127,45521,2,0,P|75:105|120:103,1,90,8|0,2:0|2:0,2:0:0:0:
315,115,45858,1,0,1:0:0:0:
313,310,46027,1,0,1:0:0:0:
162,169,46195,2,0,L|149:14,1,135,12|0,2:0|2:0,2:0:0:0:
86,185,46532,6,0,L|83:278,1,90,4|0,1:0|2:0,2:0:0:0:
222,334,46869,1,8,2:0:0:0:
334,287,47038,2,0,L|337:194,1,90,0|0,2:0|1:0,2:0:0:0:
438,68,47375,2,0,L|441:161,1,90,0|8,1:0|2:0,1:0:0:0:
371,361,47712,1,0,2:0:0:0:
260,264,47881,6,0,L|253:72,1,180,0|8,1:0|2:0,2:0:0:0:
350,61,48386,1,0,2:0:0:0:
179,152,48555,2,0,L|70:142,1,90,0|0,1:0|1:0,2:0:0:0:
328,216,48892,1,8,2:0:0:0:
319,53,49060,1,0,2:0:0:0:
237,232,49229,6,0,L|240:327,1,90,0|0,1:0|2:0,2:0:0:0:
101,201,49566,1,8,2:0:0:0:
298,132,49734,1,0,2:0:0:0:
316,265,49903,1,0,1:0:0:0:
212,114,50072,2,0,L|215:19,1,90,0|8,1:0|2:0,2:0:0:0:
155,278,50409,1,0,1:0:0:0:
386,196,50577,5,8,2:0:0:0:
386,196,50661,1,8,2:0:0:0:
386,196,50746,2,0,L|288:198,1,90,0|0,1:0|1:0,2:0:0:0:
90,110,51083,2,0,L|94:158,1,45,8|8,2:0|2:0,2:0:0:0:
4,245,51251,2,0,P|50:248|99:228,1,90,0|0,1:0|1:0,2:0:0:0:
280,129,51588,2,0,P|349:90|426:110,1,135,12|0,2:0|2:0,2:0:0:0:
483,161,51925,6,0,L|489:253,1,90,4|0,1:0|2:0,2:0:0:0:
373,354,52263,2,0,L|215:346,1,135,8|0,2:0|2:0,2:0:0:0:
171,293,52600,1,0,1:0:0:0:
317,274,52768,1,0,1:0:0:0:
110,354,52937,2,0,L|20:358,1,90,8|0,2:0|2:0,2:0:0:0:
239,242,53274,6,0,P|251:173|252:97,1,135,0|0,1:0|2:0,2:0:0:0:
149,53,53611,2,0,P|149:103|160:161,1,90,8|0,2:0|2:0,2:0:0:0:
336,164,53948,1,0,1:0:0:0:
232,26,54116,1,0,1:0:0:0:
319,244,54285,2,0,L|321:337,1,90,8|0,2:0|2:0,2:0:0:0:
109,235,54622,6,0,P|83:166|77:73,1,135,0|0,1:0|2:0,2:0:0:0:
89,24,54959,1,8,2:0:0:0:
8,220,55128,1,0,2:0:0:0:
160,66,55296,2,0,L|162:161,1,90,0|0,1:0|1:0,2:0:0:0:
285,354,55633,2,0,L|287:259,1,90,8|0,2:0|2:0,2:0:0:0:
364,47,55970,5,4,1:2:0:0:
381,217,56139,1,0,2:0:0:0:
195,96,56307,2,0,L|297:93,1,90,8|0,2:0|2:0,2:0:0:0:
478,206,56645,1,4,1:2:0:0:
297,253,56813,1,0,1:0:0:0:
420,131,56982,1,8,2:0:0:0:
424,340,57150,1,8,2:3:0:0:
243,191,57319,6,0,L|48:207,1,180,4|0,1:0|2:0,2:0:0:0:
297,253,57824,1,0,1:0:0:0:
205,24,57993,2,0,L|201:119,1,90,8|0,2:0|1:0,2:0:0:0:
118,270,58330,1,0,2:0:0:0:
67,123,58498,1,8,2:0:0:0:
197,218,58667,5,0,1:0:0:0:
156,352,58836,2,0,L|52:347,1,90,8|0,2:0|2:0,2:0:0:0:
276,287,59173,1,0,1:0:0:0:
276,287,59257,1,0,1:0:0:0:
276,287,59341,2,0,L|343:283,1,45,12|0,2:0|2:0,2:0:0:0:
374,173,59510,2,0,L|441:177,1,45,12|0,2:0|2:0,2:0:0:0:
457,362,59678,2,0,P|422:324|388:241,1,135,12|0,2:0|2:0,2:0:0:0:
307,126,60015,6,0,P|255:121|204:121,1,90,12|0,2:0|1:0,2:0:0:0:
15,331,60352,2,0,P|59:330|104:325,1,90,8|0,2:0|1:0,2:0:0:0:
269,207,60689,1,8,2:0:0:0:
103,151,60858,1,0,1:0:0:0:
216,300,61027,2,0,P|268:305|319:305,1,90,8|0,2:0|1:0,2:0:0:0:
412,128,61364,5,12,2:0:0:0:
248,115,61532,1,0,1:0:0:0:
423,221,61701,1,10,2:0:0:0:
336,69,61869,1,0,2:0:0:0:
311,303,62038,1,8,2:3:0:0:
276,197,62206,1,8,2:3:0:0:
160,317,62375,1,8,2:3:0:0:
125,211,62543,1,8,2:3:0:0:
345,231,62712,5,4,2:0:0:0:
158,218,72656,6,0,L|259:225,1,81.0000000000001,8|0,2:3|2:0,2:0:0:0:
66,256,72993,1,8,2:3:0:0:
228,149,73161,1,4,2:3:0:0:
99,346,73498,6,0,P|144:342|191:345,1,81.0000000000001,4|0,1:2|2:0,2:0:0:0:
394,342,73836,2,0,P|361:309|343:277,1,81.0000000000001,0|0,1:0|2:0,2:0:0:0:
363,183,74173,1,0,1:0:0:0:
447,280,74341,1,0,2:0:0:0:
266,268,74510,1,0,1:0:0:0:
381,161,74678,6,0,P|390:120|394:79,2,81.0000000000001,0|0|0,2:0|1:0|2:0,2:0:0:0:
312,331,75184,1,0,1:0:0:0:
177,189,75352,2,0,P|181:229|189:268,1,81.0000000000001,0|0,2:0|1:0,2:0:0:0:
389,330,75689,1,0,2:0:0:0:
234,342,75858,2,0,L|139:343,1,81.0000000000001,0|0,1:0|2:0,2:0:0:0:
19,365,76195,6,0,B|48:286|4:286|25:205,1,162,0|0,1:0|1:0,2:0:0:0:
127,129,76701,2,0,P|136:86|141:44,1,81.0000000000001,0|0,2:0|1:0,2:0:0:0:
226,201,77038,2,0,P|231:241|239:280,1,81.0000000000001,0|0,2:0|1:0,2:0:0:0:
362,317,77375,1,0,2:0:0:0:
468,248,77543,6,0,L|483:75,2,162,0|0|0,1:0|1:0|1:0,2:0:0:0:
362,217,78386,1,2,2:0:0:0:
351,107,78555,1,0,1:0:0:0:
451,152,78723,1,2,2:0:0:0:
291,186,78892,6,0,L|203:182,1,81.0000000000001,0|0,1:0|2:0,2:0:0:0:
76,144,79229,1,0,1:0:0:0:
241,108,79397,1,0,2:0:0:0:
195,329,79566,2,0,P|130:286|130:209,1,162,0|0,1:0|1:0,2:0:0:0:
348,258,80072,6,0,L|430:265,1,81.0000000000001,0|0,2:0|1:0,2:0:0:0:
246,187,80409,2,0,L|328:180,1,81.0000000000001,0|0,2:0|1:0,2:0:0:0:
155,265,80746,2,0,L|73:272,1,81.0000000000001,0|0,2:0|1:0,2:0:0:0:
253,330,81083,1,0,2:0:0:0:
166,183,81251,2,0,L|84:176,1,81.0000000000001,0|0,1:0|2:0,2:0:0:0:
290,118,81588,6,0,P|345:161|456:157,1,162,0|0,1:0|1:0,2:0:0:0:
337,49,82094,1,2,2:0:0:0:
235,180,82263,2,0,P|167:198|66:151,1,162,0|0,1:0|1:0,2:0:0:0:
37,81,82768,1,2,2:0:0:0:
34,252,82937,6,0,L|30:335,1,81.0000000000001,0|2,1:0|2:0,2:0:0:0:
181,241,83274,2,0,L|185:324,1,81.0000000000001,0|2,1:0|2:0,2:0:0:0:
262,350,83611,1,0,1:0:0:0:
107,340,83779,1,0,1:0:0:0:
286,263,83948,2,0,P|336:289|425:274,1,121.5,8|0,2:0|2:0,2:0:0:0:
470,224,84285,6,0,L|476:129,1,90,4|0,1:0|2:0,2:0:0:0:
358,30,84622,1,8,2:0:0:0:
391,201,84791,2,0,L|385:106,1,90,0|0,2:0|1:0,2:0:0:0:
216,57,85128,1,0,1:0:0:0:
317,190,85296,1,8,2:0:0:0:
283,19,85465,1,0,2:0:0:0:
250,228,85633,6,0,P|189:253|83:200,1,180,0|8,1:0|2:0,2:0:0:0:
292,310,86139,2,0,L|388:309,1,90,0|0,2:0|1:0,2:0:0:0:
483,207,86476,1,0,1:0:0:0:
340,229,86645,2,0,L|244:228,1,90,8|0,2:0|2:0,2:0:0:0:
136,298,86982,6,0,B|113:248|113:248|114:108,1,180,0|8,1:0|2:0,2:0:0:0:
232,33,87487,2,0,P|231:78|224:130,1,90,0|0,2:0|1:0,2:0:0:0:
122,26,87824,1,0,1:0:0:0:
326,84,87993,2,0,P|371:87|422:88,1,90,8|0,2:0|2:0,2:0:0:0:
399,240,88330,5,0,1:0:0:0:
399,240,88498,1,0,2:0:0:0:
495,350,88667,2,0,P|450:347|399:346,1,90,8|0,2:0|2:0,2:0:0:0:
295,204,89004,1,0,1:0:0:0:
239,342,89173,1,0,1:0:0:0:
372,197,89341,2,0,L|375:93,1,90,8|2,2:0|2:0,2:0:0:0:
153,52,89678,5,0,1:0:0:0:
184,176,89847,1,0,2:0:0:0:
228,23,90015,1,8,2:0:0:0:
73,61,90184,2,0,L|70:165,1,90,0|0,2:0|1:0,2:0:0:0:
37,315,90521,1,0,1:0:0:0:
116,215,90689,2,0,L|119:319,1,90,8|0,2:0|2:0,2:0:0:0:
297,326,91027,6,0,P|358:338|476:310,1,180,0|8,1:0|2:0,2:0:0:0:
291,250,91532,2,0,L|186:259,1,90,0|0,2:0|1:0,2:0:0:0:
0,296,91869,2,0,L|105:305,1,90,0|8,1:0|2:0,2:0:0:0:
228,370,92206,1,0,2:0:0:0:
376,248,92375,6,0,L|380:146,1,90,2|0,1:2|2:0,2:0:0:0:
207,276,92712,2,0,L|203:174,1,90,10|0,2:0|2:0,2:0:0:0:
333,74,93049,1,2,1:2:0:0:
447,202,93218,1,0,1:0:0:0:
441,24,93386,2,0,L|437:126,1,90,10|0,2:0|2:0,2:0:0:0:
402,327,93723,5,2,1:2:0:0:
359,171,93892,1,0,1:0:0:0:
268,362,94060,2,0,P|285:310|289:266,1,90,10|0,2:0|2:0,2:0:0:0:
167,85,94397,1,2,1:2:0:0:
192,294,94566,1,2,1:2:0:0:
396,248,94734,1,8,2:0:0:0:
422,240,94819,1,8,2:0:0:0:
447,232,94903,1,8,2:0:0:0:
472,224,94987,1,8,2:0:0:0:
498,216,95072,5,4,1:0:0:0:
316,155,95240,2,0,L|407:159,1,90,2|8,2:0|2:0,2:0:0:0:
457,357,95577,2,0,L|367:360,1,90,2|0,2:0|1:0,2:0:0:0:
192,294,95914,1,2,2:0:0:0:
372,258,96083,1,8,2:0:0:0:
197,206,96251,6,0,L|107:209,1,90,2|0,2:0|1:0,2:0:0:0:
279,277,96588,1,2,2:0:0:0:
209,105,96757,1,8,2:0:0:0:
35,168,96925,2,0,P|46:270|126:288,1,180,2|2,2:0|2:0,2:0:0:0:
295,356,97431,2,0,L|181:352,1,90,8|0,2:0|2:0,2:0:0:0:
108,208,97768,5,0,1:0:0:0:
66,377,97937,1,2,2:0:0:0:
212,249,98105,2,0,P|277:250|322:249,1,90,8|2,2:0|2:0,2:0:0:0:
212,142,98442,1,0,1:0:0:0:
139,283,98611,1,2,2:0:0:0:
329,180,98779,1,8,2:0:0:0:
144,66,98948,6,0,P|89:66|39:78,1,90,2|0,2:0|1:0,2:0:0:0:
0,351,99285,2,0,P|55:351|105:339,1,90,2|8,2:0|2:0,2:0:0:0:
138,187,99622,1,2,2:0:0:0:
14,225,99791,1,0,1:0:0:0:
214,231,99959,1,2,2:0:0:0:
367,100,100128,2,0,P|322:106|279:120,1,90,8|0,2:0|2:0,2:0:0:0:
66,295,100465,5,4,1:2:0:0:
321,331,102656,5,0,1:0:0:0:
321,331,102740,1,0,1:0:0:0:
321,331,102824,2,0,P|270:358|183:320,1,135,8|0,2:0|2:0,2:0:0:0:
148,284,103161,5,12,2:0:0:0:
201,142,103330,2,0,L|206:193,2,45,0|0|8,2:0|2:0|2:0,2:0:0:0:
341,173,103667,2,0,L|336:224,2,45,0|0|8,2:0|2:0|2:0,2:0:0:0:
220,40,104004,1,0,2:0:0:0:
220,40,104088,1,0,2:0:0:0:
220,40,104173,1,8,2:0:0:0:
89,161,104341,1,0,2:0:0:0:
89,161,104425,1,0,2:0:0:0:
89,161,104510,6,0,L|91:256,1,90,12|0,2:0|2:0,2:0:0:0:
169,248,104763,1,0,2:0:0:0:
169,248,104847,2,0,L|167:343,1,90,8|8,2:0|2:0,2:0:0:0:
242,319,105100,1,8,2:0:0:0:
267,328,105184,1,8,2:0:0:0:
293,331,105268,1,8,2:0:0:0:
319,328,105352,1,8,2:0:0:0:
344,318,105437,1,8,2:0:0:0:
365,302,105521,2,0,L|499:311,1,135,2|0,1:2|2:0,2:0:0:0:
482,233,105858,6,0,L|385:226,1,90,12|0,2:0|1:0,2:0:0:0:
187,86,106195,1,0,1:0:0:0:
405,47,106364,2,0,L|308:53,1,90,12|0,2:0|1:0,2:0:0:0:
110,194,106701,1,0,1:0:0:0:
387,138,106869,2,0,L|290:131,1,90,12|0,2:0|1:0,2:0:0:0:
271,140,107122,1,0,1:0:0:0:
245,148,107206,1,0,1:0:0:0:
78,270,107375,6,0,L|80:321,1,45,8|0,2:3|2:0,2:0:0:0:
268,334,107543,2,0,L|190:323,1,45,8|8,2:0|2:0,2:0:0:0:
190,205,107712,2,0,L|192:256,1,45,8|8,2:0|2:0,2:0:0:0:
342,366,107881,1,8,2:0:0:0:
334,116,108049,1,10,2:0:0:0:
277,250,108218,1,8,2:3:0:0:
277,250,108302,1,8,2:3:0:0:
277,250,108386,1,8,2:3:0:0:
277,250,108470,1,8,2:3:0:0:
277,250,108555,6,0,P|348:264|419:246,1,135,4|0,1:0|2:0,2:0:0:0:
346,349,108892,2,0,P|399:343|443:345,1,90,12|0,2:0|2:0,2:0:0:0:
430,169,109229,1,0,1:0:0:0:
245,159,109397,1,0,1:0:0:0:
483,87,109566,2,0,L|380:78,1,90,8|0,2:0|2:0,2:0:0:0:
138,84,109903,6,0,P|123:135|119:183,1,90,0|0,1:0|2:0,2:0:0:0:
78,360,110240,2,0,L|56:200,1,135,8|0,2:0|2:0,2:0:0:0:
135,246,110577,1,0,1:0:0:0:
0,350,110746,1,0,1:0:0:0:
192,198,110914,2,0,P|235:186|280:182,1,90,8|0,2:0|2:0,2:0:0:0:
400,344,111251,6,0,P|443:355|488:359,1,90,0|0,1:0|2:0,2:0:0:0:
383,197,111588,1,8,2:0:0:0:
252,326,111757,1,0,2:0:0:0:
103,222,111925,2,0,L|97:124,1,90,0|0,1:0|1:0,2:0:0:0:
5,269,112263,2,0,L|0:358,1,90,8|0,2:0|2:0,2:0:0:0:
209,242,112600,6,0,L|218:99,1,135,0|0,1:0|2:0,2:0:0:0:
282,62,112937,2,0,P|341:58|395:68,1,90,8|0,2:0|2:0,2:0:0:0:
145,160,113274,1,0,1:0:0:0:
57,32,113442,1,0,1:0:0:0:
292,89,113611,1,8,2:0:0:0:
197,240,113779,1,0,2:0:0:0:
66,119,113948,6,0,P|49:180|58:267,1,135,4|0,1:2|2:0,2:0:0:0:
101,312,114285,1,8,2:0:0:0:
260,280,114454,2,0,L|262:370,1,90,0|0,2:0|1:0,2:0:0:0:
449,371,114791,2,0,L|447:281,1,90,0|8,1:0|2:0,2:0:0:0:
477,87,115128,1,0,2:0:0:0:
282,71,115296,6,0,P|253:130|325:223,2,180,0|8|0,1:0|2:0|1:0,2:0:0:0:
446,109,116139,1,0,1:0:0:0:
394,268,116307,2,0,P|366:307|324:337,1,90,8|0,2:0|2:0,2:0:0:0:
134,284,116645,6,0,L|124:190,1,90,0|0,1:0|2:0,2:0:0:0:
35,50,116982,2,0,P|81:88|174:90,1,135,8|0,2:0|2:0,2:0:0:0:
212,42,117319,1,0,1:0:0:0:
19,134,117487,1,0,1:0:0:0:
122,19,117656,1,8,2:0:0:0:
91,213,117824,1,0,2:0:0:0:
235,349,117993,6,0,P|283:357|330:346,1,90,0|0,1:0|1:0,2:0:0:0:
480,140,118330,2,0,P|431:131|385:143,1,90,8|0,2:0|2:0,2:0:0:0:
278,275,118667,1,0,1:0:0:0:
437,214,118836,1,0,1:0:0:0:
206,213,119004,2,0,L|53:221,1,135,12|0,2:0|2:0,2:0:0:0:
233,132,119341,6,0,L|340:143,1,90,4|0,1:0|2:0,2:0:0:0:
167,298,119678,1,8,2:0:0:0:
16,186,119847,2,0,L|119:180,1,90,0|0,2:0|1:0,2:0:0:0:
249,53,120184,1,0,1:0:0:0:
243,231,120352,1,8,2:0:0:0:
168,99,120521,1,0,2:0:0:0:
334,184,120689,6,0,B|425:182|425:182|465:200,1,135,0|0,1:0|2:0,2:0:0:0:
410,260,121027,2,0,L|414:359,1,90,8|0,2:0|2:0,2:0:0:0:
233,215,121364,1,0,1:0:0:0:
211,359,121532,1,0,1:0:0:0:
338,170,121701,2,0,L|342:71,1,90,8|0,2:0|2:0,2:0:0:0:
125,199,122038,6,0,P|65:203|22:196,1,90,0|0,1:0|2:0,2:0:0:0:
231,97,122375,1,8,2:0:0:0:
143,283,122543,2,0,P|83:287|40:280,1,90,0|0,2:0|1:0,2:0:0:0:
130,85,122881,1,0,1:0:0:0:
329,35,123049,2,0,P|373:30|418:35,1,90,8|0,2:0|1:0,2:0:0:0:
193,179,123386,5,8,2:0:0:0:
359,118,123555,1,0,1:0:0:0:
81,161,123723,2,0,P|46:189|66:277,1,135,12|0,2:0|2:0,2:0:0:0:
126,325,124060,2,0,L|129:369,1,45,8|0,2:3|2:0,2:0:0:0:
197,270,124229,1,8,2:0:0:0:
203,243,124313,1,8,2:0:0:0:
206,216,124397,2,0,L|199:157,1,45,8|0,2:3|2:0,2:0:0:0:
311,69,124566,2,0,L|304:128,1,45,4|0,2:3|2:0,2:0:0:0:
316,255,124734,6,0,P|314:309|317:348,1,90,4|0,1:0|2:0,2:0:0:0:
453,228,125072,2,0,L|464:85,1,135,8|0,2:0|2:0,2:0:0:0:
482,22,125409,1,0,1:0:0:0:
329,145,125577,1,0,1:0:0:0:
153,58,125746,2,0,L|246:55,1,90,8|0,2:0|2:0,2:0:0:0:
367,231,126083,6,0,P|319:240|238:175,1,135,0|0,1:0|2:0,2:0:0:0:
173,146,126420,2,0,L|80:149,1,90,8|0,2:0|2:0,2:0:0:0:
30,257,126757,1,0,1:0:0:0:
70,58,126925,1,0,1:0:0:0:
136,251,127094,2,0,P|135:304|132:348,1,90,8|0,2:0|2:0,2:0:0:0:
371,305,127431,6,0,P|318:310|228:296,1,135,0|0,1:0|2:0,2:0:0:0:
208,286,127768,1,8,2:0:0:0:
414,225,127937,1,0,2:0:0:0:
235,181,128105,2,0,L|130:194,1,90,0|0,1:0|1:0,2:0:0:0:
383,118,128442,2,0,L|488:131,1,90,8|0,2:0|2:0,2:0:0:0:
237,73,128779,5,4,1:2:0:0:
223,272,128948,1,0,2:0:0:0:
68,149,129116,2,0,P|50:108|43:60,1,90,8|0,2:0|2:0,2:0:0:0:
259,38,129454,1,0,1:0:0:0:
198,205,129622,1,0,1:0:0:0:
123,85,129791,1,12,2:0:0:0:
297,181,129959,1,0,2:0:0:0:
127,287,130128,6,0,P|74:305|-1:207,1,180,4|0,1:0|2:0,2:0:0:0:
198,205,130633,1,0,1:0:0:0:
280,366,130802,2,0,L|283:265,1,90,8|0,2:0|1:0,2:0:0:0:
337,139,131139,1,0,2:0:0:0:
191,123,131307,1,8,2:0:0:0:
364,232,131476,5,0,1:0:0:0:
418,67,131645,2,0,L|426:167,1,90,8|0,2:0|2:0,2:0:0:0:
414,328,131982,1,0,1:0:0:0:
414,328,132066,1,0,1:0:0:0:
414,328,132150,2,0,L|354:340,1,45,12|0,2:0|2:0,2:0:0:0:
228,219,132319,2,0,L|288:231,1,45,12|0,2:0|2:0,2:0:0:0:
190,355,132487,2,0,L|38:343,1,135,12|0,2:0|2:0,2:0:0:0:
6,243,132824,6,0,P|1:192|-1:145,1,90,12|0,2:0|2:0,1:0:0:0:
288,26,133161,2,0,P|293:77|295:124,1,90,12|0,2:0|1:0,2:0:0:0:
152,250,133498,1,12,2:0:0:0:
94,108,133667,1,0,1:0:0:0:
269,237,133836,2,0,L|391:246,1,90,12|0,2:0|2:0,2:0:0:0:
205,338,134173,5,12,2:0:0:0:
171,166,134341,1,0,1:0:0:0:
347,163,134510,1,12,2:0:0:0:
210,246,134678,1,0,2:0:0:0:
197,66,134847,1,8,2:0:0:0:
128,311,135015,1,8,2:3:0:0:
141,131,135184,1,8,2:3:0:0:
210,246,135352,1,4,2:3:0:0:
54,236,135521,5,4,1:0:0:0:
256,192,135605,12,0,138218,2:0:0:0:
117,114,146307,6,0,L|123:258,1,135,4|0,1:2|2:0,2:0:0:0:
219,344,146982,2,0,P|276:325|363:340,1,135,0|0,1:0|2:0,2:0:0:0:
431,337,147487,1,0,2:0:0:0:
486,276,147656,2,0,L|491:131,2,135,2|0|0,2:0|2:0|2:0,2:0:0:0:
336,182,148667,1,0,2:0:0:0:
457,54,149004,6,0,P|409:47|303:55,1,135,0|0,1:0|2:0,2:0:0:0:
199,106,149678,2,0,L|203:247,1,135,0|0,1:0|2:0,2:0:0:0:
79,346,150352,1,2,2:0:0:0:
60,177,150689,1,0,2:0:0:0:
209,295,151027,1,0,2:0:0:0:
96,257,151364,1,0,2:0:0:0:
275,222,151701,6,0,L|412:223,1,135,0|0,1:0|2:0,2:0:0:0:
495,117,152375,2,0,P|476:69|397:29,1,135,0|0,1:0|2:0,2:0:0:0:
333,67,152881,1,0,2:0:0:0:
256,40,153049,2,0,L|112:44,2,135,2|0|0,2:0|2:0|2:0,2:0:0:0:
345,192,154060,1,0,2:0:0:0:
256,344,154397,6,0,L|112:340,1,135,0|0,1:0|2:0,2:0:0:0:
29,239,155072,2,0,P|11:199|17:99,1,135,0|0,1:0|2:0,2:0:0:0:
211,54,155746,1,2,2:0:0:0:
137,203,156083,1,0,2:0:0:0:
98,86,156420,1,0,2:0:0:0:
250,171,156757,1,0,2:0:0:0:
157,318,157094,6,0,L|76:311,1,67.5000000000002,12|0,1:2|2:0,2:0:0:0:
251,353,157431,2,0,L|332:346,1,67.5000000000002,8|0,2:0|2:0,2:0:0:0:
476,248,157768,1,8,2:0:0:0:
370,232,157937,2,0,L|289:239,1,67.5000000000002,0|8,1:0|2:0,2:0:0:0:
436,159,158274,1,0,1:0:0:0:
436,159,158442,6,0,P|451:117|454:87,1,67.5000000000002,8|0,1:2|2:0,2:0:0:0:
357,27,158779,2,0,L|276:34,1,67.5000000000002,8|0,2:0|2:0,2:0:0:0:
176,149,159116,1,8,2:0:0:0:
140,67,159285,1,0,2:0:0:0:
257,115,159454,1,8,2:0:0:0:
148,226,159622,1,0,1:0:0:0:
148,226,159791,6,0,P|86:246|11:204,2,135,8|8|8,1:2|2:0|2:0,2:0:0:0:
168,325,160633,1,0,1:0:0:0:
168,325,160802,2,0,P|214:331|252:340,1,67.5000000000002,8|0,2:0|1:0,2:0:0:0:
336,274,161139,6,0,L|480:280,1,135,8|8,1:2|2:0,2:0:0:0:
496,166,161645,1,0,2:0:0:0:
496,166,161813,2,0,L|412:172,1,67.5000000000002,8|0,2:0|2:0,2:0:0:0:
272,121,162150,1,8,2:0:0:0:
201,204,162319,1,0,1:0:0:0:
374,87,162487,6,0,P|418:70|507:76,1,135,8|8,1:2|2:0,2:0:0:0:
376,327,163161,2,0,L|369:255,1,67.5000000000002,8|0,2:0|1:0,2:0:0:0:
242,200,163498,2,0,L|235:272,1,67.5000000000002,8|0,2:0|1:0,2:0:0:0:
117,326,163836,6,0,B|64:344|6:331|6:331|30:315,1,135,8|8,1:2|2:0,2:0:0:0:
112,231,164341,1,0,2:0:0:0:
214,304,164510,2,0,P|259:309|303:311,1,67.5000000000002,8|0,2:0|2:0,2:0:0:0:
436,337,164847,1,8,2:0:0:0:
436,337,165015,1,0,1:0:0:0:
357,234,165184,6,0,L|352:84,2,135,8|8|8,1:2|2:0|2:0,2:0:0:0:
244,178,166027,1,0,1:0:0:0:
244,178,166195,2,0,P|190:179|171:181,1,67.5000000000002,8|0,2:0|1:0,2:0:0:0:
58,247,166532,6,0,L|63:97,1,135,8|8,2:0|2:0,2:0:0:0:
233,128,167038,2,0,L|149:136,1,67.5000000000002,0|8,2:0|2:0,2:0:0:0:
304,46,167375,5,0,1:0:0:0:
268,237,167543,2,0,L|271:358,1,121.5,12|0,2:0|2:0,2:0:0:0:
346,280,167881,6,0,P|396:272|430:269,1,81.0000000000001,4|0,1:0|2:0,2:0:0:0:
194,203,168218,1,2,2:0:0:0:
138,284,168386,1,0,1:0:0:0:
341,196,168555,2,0,P|405:192|503:210,1,162,8|0,2:0|1:0,2:0:0:0:
216,275,169060,5,0,1:0:0:0:
216,275,169397,2,0,L|208:104,1,162,8|0,2:0|1:0,2:0:0:0:
214,89,169819,1,0,1:0:0:0:
220,65,169903,1,12,2:0:0:0:
310,223,170072,1,0,1:0:0:0:
121,223,170240,2,0,L|-1:215,1,121.5,12|0,2:0|2:0,2:0:0:0:
46,140,170577,6,0,L|131:146,1,81.0000000000001,4|0,1:0|2:0,2:0:0:0:
288,283,170914,1,0,2:0:0:0:
138,265,171083,1,0,1:0:0:0:
301,319,171251,2,0,P|378:328|455:278,1,162,10|0,2:0|2:0,1:0:0:0:
472,86,171757,5,0,1:0:0:0:
472,86,172094,2,0,L|374:89,1,81.0000000000001,8|0,2:0|2:0,2:0:0:0:
201,57,172431,1,0,1:0:0:0:
201,57,172515,1,0,1:0:0:0:
201,57,172600,1,8,2:0:0:0:
401,16,172768,1,0,1:0:0:0:
318,214,172937,1,8,2:0:0:0:
296,109,173105,1,0,1:0:0:0:
415,256,173274,6,0,P|434:296|445:351,1,90,12|0,2:0|1:0,2:0:0:0:
183,295,173611,2,0,P|192:251|212:210,1,90,12|0,2:0|1:0,2:0:0:0:
390,113,173948,1,12,2:0:0:0:
345,310,174116,1,0,1:0:0:0:
303,154,174285,1,12,2:0:0:0:
464,170,174454,1,0,1:0:0:0:
215,235,174622,6,0,L|107:227,1,90,12|0,2:0|1:0,2:0:0:0:
20,42,174959,2,0,L|128:34,1,90,12|8,2:0|2:0,2:0:0:0:
165,87,175212,1,8,2:0:0:0:
165,87,175296,1,8,2:0:0:0:
63,276,175465,1,8,2:3:0:0:
79,135,175633,1,8,2:3:0:0:
63,276,175802,1,4,2:3:0:0:
225,126,175970,6,0,P|268:111|397:133,1,180,4|0,1:2|1:0,2:0:0:0:
363,301,176476,1,2,2:0:0:0:
275,202,176645,2,0,L|269:299,1,90,0|2,1:0|2:0,2:0:0:0:
108,324,176982,2,0,L|114:227,1,90,0|2,1:0|2:0,2:0:0:0:
285,65,177319,6,0,P|340:82|459:68,1,180,4|0,1:2|1:0,2:0:0:0:
218,20,177824,1,2,2:0:0:0:
90,130,177993,2,0,L|78:234,1,90,0|2,1:0|2:0,2:0:0:0:
177,315,178330,1,0,1:0:0:0:
212,157,178498,1,0,2:0:0:0:
0,302,178667,6,0,L|103:304,1,90,12|0,2:0|1:0,2:0:0:0:
300,157,179004,1,0,1:0:0:0:
80,104,179173,2,0,L|183:102,1,90,12|0,2:0|1:0,2:0:0:0:
380,249,179510,1,0,1:0:0:0:
168,348,179678,2,0,P|128:315|128:218,1,135,12|0,2:0|2:0,2:0:0:0:
133,209,180015,5,0,1:0:0:0:
291,335,180184,1,0,1:0:0:0:
321,343,180268,1,0,1:0:0:0:
352,345,180352,1,0,1:0:0:0:
383,339,180437,1,0,1:0:0:0:
410,323,180521,2,0,L|416:271,1,45,0|0,1:0|1:0,2:0:0:0:
428,131,180689,1,8,2:0:0:0:
488,367,180858,1,10,2:0:0:0:
488,367,181364,5,12,2:0:0:0:
286,211,181532,2,0,L|292:136,2,45,0|0|0,1:0|1:0|1:0,2:0:0:0:
163,336,181869,1,12,2:0:0:0:
386,260,182038,1,0,1:0:0:0:
417,258,182122,1,0,1:0:0:0:
448,256,182206,1,0,1:0:0:0:
184,234,182375,2,0,L|74:227,1,90,12|0,2:0|1:0,2:0:0:0:
12,127,182628,1,0,1:0:0:0:
12,127,182712,6,0,L|122:134,1,90,0|8,1:0|2:0,2:0:0:0:
185,70,182965,1,8,2:0:0:0:
213,83,183049,1,8,2:0:0:0:
244,84,183133,1,8,2:0:0:0:
275,78,183218,2,0,L|325:58,1,45,8|8,2:0|2:0,2:0:0:0:
461,24,183386,1,8,1:2:0:0:
184,234,183555,1,10,1:2:0:0:
479,233,184060,6,0,B|461:273|461:273|392:292|343:251|343:251|320:233|293:233|268:242|249:266|250:295|266:327|294:336|319:331|343:319,1,360,4|0,1:2|2:0,2:0:0:0:
469,46,185746,1,2,2:0:0:0:
85,98,186083,6,0,L|75:178,1,54,8|0,2:0|2:0,2:0:0:0:
10,319,186251,2,0,L|4:266,1,54,8|0,2:3|2:0,2:0:0:0:
247,180,186420,2,0,P|296:212|407:217,1,162,4|0,2:0|2:0,2:0:0:0:
193,247,186757,6,0,P|140:255|80:248,1,99,4|0,1:0|2:0,2:0:0:0:
256,83,187094,1,8,2:0:0:0:
265,283,187263,1,0,2:0:0:0:
169,70,187431,2,0,L|164:169,1,99,0|0,1:0|1:0,2:0:0:0:
9,321,187768,2,0,P|57:333|107:332,1,99,8|0,2:0|2:0,2:0:0:0:
336,241,188105,6,0,L|492:257,1,148.5,0|0,1:0|2:0,2:0:0:0:
483,256,188442,2,0,P|498:203|499:157,1,99,8|0,2:0|2:0,2:0:0:0:
345,144,188779,1,0,1:0:0:0:
363,348,188948,1,0,1:0:0:0:
428,106,189116,1,8,2:0:0:0:
242,176,189285,1,0,2:0:0:0:
160,359,189454,6,0,P|209:363|308:330,1,148.5,0|0,1:0|2:0,2:0:0:0:
347,267,189791,1,8,2:0:0:0:
120,254,189959,2,0,P|71:261|19:260,1,99,0|0,2:0|1:0,2:0:0:0:
244,145,190296,1,0,1:0:0:0:
203,342,190465,2,0,P|152:341|101:328,1,99,8|0,2:0|2:0,2:0:0:0:
160,80,190802,6,0,B|199:45|199:45|268:30|339:80,2,198,0|8|0,1:0|2:0|1:0,2:0:0:0:
248,269,191645,1,0,1:0:0:0:
407,135,191813,2,0,P|429:82|437:33,1,99,8|0,2:0|2:0,2:0:0:0:
188,187,192150,6,0,L|72:189,1,99,0|0,1:0|2:0,2:0:0:0:
346,237,192487,2,0,P|400:248|493:219,1,148.5,8|0,2:0|2:0,2:0:0:0:
507,198,192824,1,0,1:0:0:0:
284,160,192993,1,0,1:0:0:0:
398,346,193161,2,0,L|291:357,1,99,8|0,2:0|2:0,2:0:0:0:
112,275,193498,5,0,1:0:0:0:
76,122,193667,1,0,1:0:0:0:
228,301,193836,1,8,2:0:0:0:
264,148,194004,1,0,2:0:0:0:
93,277,194173,1,0,1:0:0:0:
57,124,194341,1,0,1:0:0:0:
295,237,194510,2,0,P|341:260|443:239,1,148.5,12|0,2:0|2:0,2:0:0:0:
284,267,194847,6,0,L|279:166,1,99,4|0,1:0|2:0,2:0:0:0:
390,41,195184,1,8,2:0:0:0:
501,82,195352,2,0,L|496:183,1,99,0|0,2:0|1:0,2:0:0:0:
371,351,195689,2,0,L|376:250,1,99,0|8,1:0|2:0,2:0:0:0:
299,121,196027,1,0,2:0:0:0:
99,184,196195,6,0,P|137:228|273:212,1,198,0|8,1:0|2:0,2:0:0:0:
400,142,196701,1,0,2:0:0:0:
182,100,196869,2,0,L|82:108,1,99,0|0,1:0|1:0,2:0:0:0:
174,296,197206,1,8,2:0:0:0:
20,269,197375,1,0,2:0:0:0:
266,184,197543,6,0,L|366:192,1,99,0|0,1:0|1:0,2:0:0:0:
103,258,197881,2,0,P|86:207|82:152,1,99,8|0,2:0|2:0,2:0:0:0:
146,117,198133,1,8,2:0:0:0:
146,117,198218,1,0,1:0:0:0:
250,279,198386,1,0,1:0:0:0:
20,269,198555,1,8,2:0:0:0:
180,214,198723,1,0,1:0:0:0:
72,363,198892,5,12,2:0:0:0:
53,181,199060,2,0,L|49:121,2,49.5,0|0|0,1:0|1:0|1:0,2:0:0:0:
170,335,199397,1,12,2:0:0:0:
357,289,199566,1,0,1:0:0:0:
357,289,199650,1,0,1:0:0:0:
357,289,199734,1,0,1:0:0:0:
252,154,199903,2,0,L|104:172,1,148.5,12|0,2:0|2:0,2:0:0:0:
343,128,200240,6,0,P|396:135|446:133,1,99,4|0,1:0|2:0,2:0:0:0:
191,82,200577,2,0,P|123:70|48:104,1,148.5,8|0,2:0|2:0,2:0:0:0:
31,126,200914,1,0,1:0:0:0:
54,313,201083,1,0,1:0:0:0:
174,162,201251,2,0,L|180:267,1,99,8|0,2:0|2:0,2:0:0:0:
400,206,201588,6,0,P|343:187|251:205,1,148.5,0|0,1:0|2:0,2:0:0:0:
301,269,201925,2,0,L|295:374,1,99,8|0,2:0|2:0,2:0:0:0:
473,242,202263,1,0,1:0:0:0:
251,183,202431,1,0,1:0:0:0:
423,156,202600,1,8,2:0:0:0:
301,269,202768,1,0,2:0:0:0:
145,206,202937,6,0,B|125:134|125:134|137:54,1,148.5,0|0,1:0|2:0,2:0:0:0:
210,90,203274,1,8,2:0:0:0:
28,149,203442,1,0,2:0:0:0:
229,171,203611,2,0,L|338:159,1,99,0|0,1:0|1:0,2:0:0:0:
464,301,203948,1,8,2:0:0:0:
504,134,204116,1,0,2:0:0:0:
317,248,204285,5,4,1:2:0:0:
277,81,204454,1,0,2:0:0:0:
395,237,204622,2,0,L|387:351,1,99,8|0,2:0|2:0,2:0:0:0:
161,215,204959,1,0,1:0:0:0:
337,173,205128,1,0,1:0:0:0:
182,306,205296,1,12,2:0:0:0:
223,151,205465,1,0,2:0:0:0:
117,346,205633,6,0,P|169:325|319:354,1,198,4|0,1:0|2:0,2:0:0:0:
443,319,206139,1,0,1:0:0:0:
167,229,206307,2,0,L|266:220,1,99,8|0,2:0|1:0,2:0:0:0:
375,334,206645,1,0,2:0:0:0:
424,135,206813,1,8,2:0:0:0:
479,275,206982,5,0,1:0:0:0:
302,295,207150,2,0,L|203:304,1,99,8|0,2:0|2:0,2:0:0:0:
31,222,207487,1,0,1:0:0:0:
31,222,207572,1,0,1:0:0:0:
31,222,207656,2,0,L|23:155,1,49.5,12|0,2:0|2:0,2:0:0:0:
178,127,207824,2,0,L|170:194,1,49.5,12|0,2:0|2:0,2:0:0:0:
320,221,207993,2,0,L|299:73,1,148.5,12|0,2:0|2:0,2:0:0:0:
202,22,208330,6,0,P|144:13|86:13,1,99,12|0,2:0|1:0,2:0:0:0:
20,269,208667,2,4,P|69:267|118:259,1,99,12|0,2:0|1:0,2:0:0:0:
228,133,209004,1,12,2:0:0:0:
61,179,209173,1,0,1:0:0:0:
125,349,209349,2,0,P|173:357|223:359,1,99,12|0,2:0|1:0,2:0:0:0:
409,274,209666,6,0,L|424:374,1,99,12|0,2:0|2:0,2:0:0:0:
250,250,210001,2,0,L|257:199,3,49.5,8|8|8|8,2:0|2:0|2:0|2:0,2:0:0:0:
350,191,210336,1,8,2:0:0:0:
348,176,210420,1,8,2:0:0:0:
347,161,210504,1,8,2:0:0:0:
346,146,210588,1,8,2:0:0:0:
345,131,210673,1,8,2:0:0:0:
344,116,210757,1,8,2:0:0:0:
343,101,210841,1,8,2:0:0:0:
342,87,210925,1,8,2:0:0:0:
341,73,211010,6,0,L|188:90,1,148.5,4|0,1:0|2:0,2:0:0:0:
131,161,211348,2,0,P|105:115|102:66,1,99,12|0,2:0|2:0,2:0:0:0:
270,33,211687,1,0,1:0:0:0:
239,222,211862,1,0,1:0:0:0:
384,107,212037,2,0,L|393:9,1,99.0000030212403,8|0,2:0|2:0,2:0:0:0:
441,212,212388,6,0,L|450:310,1,99.0000030212403,0|0,1:0|2:0,2:0:0:0:
279,337,212723,2,0,P|217:319|110:327,1,148.50000453186,8|0,2:0|2:0,2:0:0:0:
111,335,213058,1,0,1:0:0:0:
267,204,213223,1,0,1:0:0:0:
389,365,213389,2,0,L|398:267,1,99.0000030212403,8|0,2:0|2:0,2:0:0:0:
497,61,213735,6,0,P|434:35|353:44,1,148.50000453186,0|0,1:0|2:0,2:0:0:0:
292,77,214072,1,8,2:0:0:0:
314,269,214240,1,0,2:0:0:0:
426,145,214409,2,0,L|324:141,1,99.0000030212403,0|0,1:0|1:0,2:0:0:0:
139,41,214746,2,0,L|37:45,1,99.0000030212403,8|0,2:0|2:0,2:0:0:0:
60,242,215083,6,0,P|80:202|92:143,1,99.0000030212403,0|0,1:0|2:0,2:0:0:0:
0,129,215420,1,8,2:0:0:0:
11,311,215588,1,0,2:0:0:0:
163,209,215757,2,0,L|170:308,1,99.0000030212403,0|0,1:0|1:0,2:0:0:0:
325,364,216094,1,8,2:0:0:0:
489,322,216258,1,0,2:0:0:0:
332,276,216423,6,0,B|235:265|235:265|187:288,1,148.50000453186,4|0,1:2|2:0,2:0:0:0:
125,330,216760,1,8,2:0:0:0:
18,194,216928,2,0,L|25:300,1,99.0000030212403,0|0,2:0|1:0,2:0:0:0:
139,134,217265,2,0,L|146:28,1,99.0000030212403,0|8,1:0|2:0,2:0:0:0:
38,87,217602,1,0,2:0:0:0:
196,267,217771,6,0,P|254:269|305:251,1,99.0000030212403,0|0,1:0|2:0,2:0:0:0:
481,76,218108,2,0,P|433:63|384:66,1,99.0000030212403,8|0,2:0|2:0,2:0:0:0:
173,279,218445,2,0,P|231:281|282:263,1,99.0000030212403,0|0,1:0|1:0,2:0:0:0:
458,88,218782,2,0,P|410:75|361:78,1,99.0000030212403,8|0,2:0|2:0,2:0:0:0:
138,207,219119,6,0,P|96:257|115:333,1,148.50000453186,0|0,1:0|2:0,2:0:0:0:
187,365,219456,2,0,L|290:367,1,99.0000030212403,8|0,2:0|2:0,2:0:0:0:
466,278,219793,1,0,1:0:0:0:
261,194,219962,1,0,1:0:0:0:
346,349,220130,1,8,2:0:0:0:
452,192,220299,1,0,2:0:0:0:
431,371,220467,6,0,P|417:322|412:267,1,99.0000030212403,0|0,1:0|1:0,2:0:0:0:
473,13,220805,2,0,P|467:62|454:109,1,99.0000030212403,8|0,2:0|2:0,2:0:0:0:
379,130,221057,1,8,2:0:0:0:
379,130,221142,1,0,1:0:0:0:
143,65,221310,1,0,1:0:0:0:
325,182,221479,2,0,L|485:190,1,148.50000453186,12|0,2:0|2:0,2:0:0:0:
305,255,221816,6,0,P|250:260|193:273,1,99.0000030212403,4|0,1:0|2:0,2:0:0:0:
63,340,222153,1,8,2:0:0:0:
111,161,222321,2,0,L|113:274,1,99.0000030212403,0|0,2:0|1:0,2:0:0:0:
298,352,222658,1,0,1:0:0:0:
399,259,222827,2,0,L|401:161,1,99.0000030212403,8|0,2:0|2:0,2:0:0:0:
219,51,223164,5,0,1:0:0:0:
186,195,223333,1,0,1:0:0:0:
288,93,223501,2,0,P|357:78|446:99,1,148.50000453186,8|8,2:0|2:0,2:0:0:0:
480,160,223838,2,0,L|484:264,1,99.0000030212403,0|0,1:0|1:0,2:0:0:0:
338,355,224175,1,8,2:0:0:0:
283,197,224344,1,0,2:0:0:0:
408,277,224512,6,0,P|359:280|297:276,1,99.0000030212403,4|0,1:2|1:0,2:0:0:0:
192,135,224849,1,8,2:0:0:0:
426,188,225018,2,0,P|377:191|315:187,1,99.0000030212403,0|0,2:0|1:0,2:0:0:0:
203,55,225355,1,0,1:0:0:0:
145,209,225524,1,8,2:0:0:0:
283,107,225692,1,0,1:0:0:0:
57,114,225861,5,12,2:0:0:0:
26,275,226029,2,0,L|32:335,1,45,8|8,2:3|2:3,2:0:0:0:
162,310,226198,2,0,L|156:370,1,45,8|8,2:3|2:3,2:0:0:0:
255,205,226366,1,12,2:0:0:0:
358,338,226535,1,4,2:3:0:0:
386,318,226619,1,8,2:3:0:0:
400,285,226703,1,8,2:3:0:0:
403,250,226788,1,8,2:3:0:0:
391,217,226872,2,0,P|377:143|397:67,1,148.50000453186,4|0,2:0|2:0,2:0:0:0:
335,165,227209,6,0,P|284:179|225:178,1,99.0000030212403,4|0,1:0|2:0,2:0:0:0:
30,223,227546,2,0,L|190:228,1,148.50000453186,8|0,2:0|2:0,2:0:0:0:
241,272,227883,1,0,1:0:0:0:
101,144,228052,1,0,1:0:0:0:
346,202,228220,2,0,L|238:195,1,99.0000030212403,8|0,2:0|2:0,2:0:0:0:
36,79,228557,6,0,P|19:135|21:178,1,99.0000030212403,0|0,1:0|1:0,2:0:0:0:
141,320,228894,1,8,2:0:0:0:
138,195,229063,1,0,2:0:0:0:
41,337,229231,1,0,1:0:0:0:
232,338,229400,1,0,1:0:0:0:
312,175,229569,2,0,L|314:66,1,99.0000030212403,8|0,2:0|2:0,2:0:0:0:
248,38,229821,1,0,2:0:0:0:
248,38,229906,6,0,L|139:36,1,99.0000030212403,0|0,1:0|1:0,2:0:0:0:
386,151,230243,1,8,2:0:0:0:
492,41,230411,1,0,2:0:0:0:
280,135,230580,2,0,L|278:244,1,99.0000030212403,0|0,1:0|1:0,2:0:0:0:
462,334,230917,1,8,2:0:0:0:
382,188,231085,1,0,2:0:0:0:
242,334,231254,5,4,1:2:0:0:
368,309,231423,1,0,1:0:0:0:
156,245,231591,2,0,P|104:244|37:263,1,99.0000030212403,8|0,2:0|2:0,2:0:0:0:
309,267,231928,1,0,1:0:0:0:
115,326,232097,1,0,1:0:0:0:
234,223,232265,1,12,2:0:0:0:
247,378,232434,1,0,2:0:0:0:
234,223,232602,6,0,L|244:23,1,198.000006042481,4|0,1:0|2:0,2:0:0:0:
323,153,233108,1,0,1:0:0:0:
54,96,233276,2,0,L|159:86,1,99.0000030212403,8|0,2:0|1:0,2:0:0:0:
353,70,233614,1,0,2:0:0:0:
294,236,233782,1,8,2:0:0:0:
248,53,233951,5,0,1:0:0:0:
397,249,234119,2,0,P|409:293|412:360,1,99.0000030212403,8|0,2:0|2:0,2:0:0:0:
192,229,234456,1,0,1:0:0:0:
192,229,234540,1,0,1:0:0:0:
192,229,234625,2,0,L|113:234,1,49.5000015106202,12|0,2:0|2:0,2:0:0:0:
323,153,234793,2,0,L|402:158,1,49.5000015106202,12|0,2:0|2:0,2:0:0:0:
221,306,234962,2,0,L|117:313,1,99.0000030212403,12|0,2:0|1:0,2:0:0:0:
34,195,235299,5,12,2:0:0:0:
34,195,235467,1,0,1:0:0:0:
117,108,235636,1,0,1:0:0:0:
101,293,235805,1,0,1:0:0:0:
212,157,235973,1,0,1:0:0:0:
38,115,236142,1,0,1:0:0:0:
185,315,236310,1,4,1:3:0:0:
162,25,236479,1,4,1:3:0:0:
128,214,236647,5,4,1:3:0:0:
128,214,238333,1,2,2:0:0:0:
266,338,238657,6,0,L|331:326,1,45,8|0,2:3|2:0,2:0:0:0:
405,200,238825,2,0,L|470:212,1,45,0|0,1:0|2:0,2:0:0:0:
469,361,238994,2,0,P|420:341|372:255,1,135,12|0,2:0|2:0,2:0:0:0:
366,192,239351,5,12,2:0:0:0:
480,252,239519,1,0,1:0:0:0:
301,276,239688,1,0,1:0:0:0:
290,72,239856,1,12,2:0:0:0:
432,124,240025,1,0,1:0:0:0:
301,276,240193,1,0,1:0:0:0:
150,131,240362,5,12,2:0:0:0:
345,142,240530,1,0,1:0:0:0:
301,276,240699,1,0,1:0:0:0:
102,202,240867,1,12,2:0:0:0:
236,140,241036,1,0,1:0:0:0:
301,276,241204,1,0,1:0:0:0:
142,275,241373,5,12,2:0:0:0:
301,276,241542,1,0,1:0:0:0:
95,349,241710,2,0,L|-2:357,1,90,12|0,2:0|1:0,2:0:0:0:
193,182,242047,5,12,2:0:0:0:
246,359,242216,1,0,1:0:0:0:
281,219,242384,1,0,1:0:0:0:
142,275,242553,1,12,2:0:0:0:
89,98,242721,1,0,1:0:0:0:
54,238,242890,1,0,1:0:0:0:
275,122,243058,5,12,2:0:0:0:
98,175,243227,1,0,1:0:0:0:
238,210,243395,1,0,1:0:0:0:
137,90,243564,1,12,2:0:0:0:
314,37,243733,1,0,1:0:0:0:
174,2,243901,1,0,1:0:0:0:
238,210,244070,5,12,2:0:0:0:
137,90,244238,1,0,1:0:0:0:
354,167,244407,2,0,L|448:163,1,90,12|0,2:0|1:0,2:0:0:0:
456,355,244744,5,12,2:0:0:0:
280,342,244912,1,0,1:0:0:0:
310,334,244997,1,0,1:0:0:0:
341,327,245081,1,0,1:0:0:0:
421,189,245249,1,12,2:0:0:0:
306,217,245418,1,0,1:0:0:0:
275,210,245502,1,0,1:0:0:0:
245,202,245586,1,0,1:0:0:0:
118,70,245755,5,12,2:0:0:0:
174,253,245924,1,0,1:0:0:0:
175,284,246008,1,0,1:0:0:0:
176,315,246092,1,0,1:0:0:0:
38,168,246250,1,12,2:0:0:0:
235,121,246409,2,0,L|347:117,1,91.134,0|0,1:0|1:0,2:0:0:0:
464,315,246736,6,4,L|352:311,1,90,12|4,2:0|1:0,2:0:0:0:
82,172,247073,2,0,L|194:176,1,90,12|0,2:0|1:0,2:0:0:0:
439,237,247413,5,12,2:0:0:0:
204,265,247590,2,0,L|136:272,2,45,8|8|8,2:3|2:0|2:3,2:0:0:0:
380,69,247945,1,14,2:0:0:0:
362,269,248112,1,8,2:3:0:0:
331,262,248196,1,8,2:0:0:0:
303,245,248280,1,8,2:3:0:0:
256,41,248447,1,12,2:0:0:0:
363,188,248615,1,0,1:0:0:0:
153,110,248782,6,0,L|53:115,1,90,12|0,2:0|2:0,2:0:0:0:
34,229,249119,1,8,2:0:0:0:
37,246,249203,1,8,2:0:0:0:
43,262,249287,1,8,2:0:0:0:
53,276,249371,1,8,2:0:0:0:
77,302,249456,5,8,2:0:0:0:
111,310,249540,1,8,2:0:0:0:
143,295,249624,1,8,2:0:0:0:
168,269,249708,1,8,2:0:0:0:
202,257,249793,1,8,2:3:0:0:
237,257,249877,1,8,2:3:0:0:
271,265,249961,1,8,2:3:0:0:
301,284,250046,1,8,2:3:0:0:
320,314,250130,6,0,B|358:352|358:352|424:360|465:309,1,162,4|0,1:0|2:0,2:0:0:0:
437,193,250635,2,0,L|343:184,1,81.0000000000001,0|8,1:0|2:0,2:0:0:0:
182,325,250973,2,0,P|127:334|93:332,1,81.0000000000001,0|0,1:0|2:0,2:0:0:0:
274,181,251310,2,0,L|282:85,1,81.0000000000001,0|0,2:0|1:0,2:0:0:0:
65,47,251647,6,0,P|68:127|109:195,1,162,8|0,2:0|1:0,2:0:0:0:
279,254,252152,1,12,2:0:0:0:
185,112,252321,1,0,1:0:0:0:
163,280,252489,2,0,L|153:366,1,81.0000000000001,12|0,2:0|2:0,2:0:0:0:
355,161,252826,6,0,P|401:96|416:17,1,162,4|0,1:0|2:0,2:0:0:0:
253,119,253332,1,0,1:0:0:0:
220,223,253501,2,0,L|226:324,2,81.0000000000001,8|0|0,2:0|1:0|2:0,2:0:0:0:
227,193,254175,5,0,1:0:0:0:
0,279,254343,2,0,P|77:296|152:267,1,162,8|0,2:0|1:0,2:0:0:0:
160,275,254765,1,0,1:0:0:0:
160,275,254849,2,0,L|161:210,1,45,12|0,2:0|2:0,2:0:0:0:
94,96,255017,2,0,L|95:160,1,45,12|0,2:0|2:0,2:0:0:0:
239,273,255186,2,0,P|290:281|332:278,1,90,12|0,2:0|1:0,2:0:0:0:
500,316,255523,6,0,P|468:270|451:220,1,99,12|0,2:0|1:0,2:0:0:0:
471,29,255860,1,12,2:0:0:0:
500,161,256029,1,0,1:0:0:0:
273,96,256197,1,12,2:0:0:0:
416,88,256366,1,0,1:0:0:0:
289,206,256534,1,12,2:0:0:0:
227,100,256703,1,0,1:0:0:0:
396,215,256871,6,0,P|412:271|419:322,1,99,12|0,2:0|1:0,2:0:0:0:
119,227,257208,2,0,P|126:178|141:130,1,99,12|0,2:0|1:0,2:0:0:0:
341,29,257546,1,12,2:0:0:0:
289,255,257714,1,0,1:0:0:0:
239,149,257883,1,8,2:0:0:0:
396,215,258051,1,0,1:0:0:0:
188,309,258220,6,4,L|66:317,1,99,12|4,2:0|1:0,2:0:0:0:
302,286,258557,1,0,1:0:0:0:
160,233,258725,1,0,1:0:0:0:
359,223,258894,1,0,1:3:0:0:
159,151,259062,1,8,1:3:0:0:
302,286,259231,1,8,1:2:0:0:
83,195,259399,1,8,1:2:0:0:
416,160,259568,5,10,2:0:0:0:
