osu file format v14

[General]
AudioFilename: audio.mp3
AudioLeadIn: 0
PreviewTime: 108478
Countdown: 0
SampleSet: Soft
StackLeniency: 0.5
Mode: 0
LetterboxInBreaks: 0
WidescreenStoryboard: 0

[Editor]
Bookmarks: 35754,108563,186765,211035,239349
DistanceSpacing: 1
BeatDivisor: 6
GridSize: 32
TimelineZoom: 2.5

[Metadata]
Title:border
TitleUnicode:border
Artist:ClariS
ArtistUnicode:ClariS
Creator:Azu
Version:Kyoukaisen
Source:憑物語
Tags:Tsukimonogatari ending Fairy Castle 10th Anniversary BEST Pink Moon japanese anime pop j-pop jpop full size length version Mayu Sakuma Xexyz Azunyan- Ayana captin1
BeatmapID:3475837
BeatmapSetID:1701031

[Difficulty]
HPDrainRate:5
CircleSize:3.6
OverallDifficulty:8.5
ApproachRate:9.3
SliderMultiplier:1.4
SliderTickRate:1

[Events]
//Background and Video events
0,0,"yotsugi.jpg",0,0
Video,-103,"border.mp4"
//Break Periods
//Storyboard Layer 0 (Background)
//Storyboard Layer 1 (Fail)
//Storyboard Layer 2 (Pass)
//Storyboard Layer 3 (Foreground)
//Storyboard Layer 4 (Overlay)
//Storyboard Sound Samples

[TimingPoints]
690,337.078651685393,4,2,1,50,1,0
1364,-166.666666666667,4,2,1,50,0,0
11391,-166.666666666667,4,2,1,5,0,0
11476,-125,4,2,1,60,0,0
23442,-90.9090909090909,4,2,1,60,0,0
30352,-125,4,2,1,60,0,0
34734,-111.111111111111,4,2,1,60,0,0
35746,-76.9230769230769,4,2,1,80,0,1
42739,-76.9230769230769,4,2,1,5,0,1
42824,-76.9230769230769,4,2,1,80,0,1
51588,-230.769241333008,4,2,1,80,0,1
51840,-230.769241333008,4,2,1,5,0,1
51925,-76.9230769230769,4,2,1,80,0,1
56222,-76.9230769230769,4,2,1,5,0,1
56307,-58.8235294117647,4,2,1,80,0,1
56559,-58.8235294117647,4,2,1,5,0,1
56645,-50,4,2,1,80,0,1
57319,-111.111111111111,4,2,1,80,0,1
58667,-100,4,2,1,80,0,1
62712,-199.999999999999,4,2,1,50,0,0
66757,-133.333333333333,4,2,1,50,0,0
85633,-111.111111111111,4,2,1,50,0,0
96251,-100,4,2,1,50,0,0
108555,-76.9230769230769,4,2,1,80,0,1
115548,-76.9230769230769,4,2,1,5,0,1
115633,-76.9230769230769,4,2,1,80,0,1
124734,-49.4505500793444,4,2,1,80,0,1
124986,-49.4505500793444,4,2,1,5,0,1
125072,-76.9230769230769,4,2,1,80,0,1
129031,-76.9230769230769,4,2,1,5,0,1
129116,-76.9230769230769,4,2,1,80,0,1
129368,-76.9230769230769,4,2,1,5,0,1
129454,-52.6315789473684,4,2,1,80,0,1
130128,-111.111111111111,4,2,1,80,0,1
135521,-149.184152456431,4,2,1,50,0,0
138218,-188.443147358142,4,2,1,50,0,0
143611,-207.407407407408,4,2,1,50,0,0
146307,-105.349792480471,4,2,1,50,0,0
147656,-182.076808403901,4,2,1,50,0,0
149004,-112.047269381012,4,2,1,50,0,0
150352,-182.076808403901,4,2,1,50,0,0
151701,-107.744110107424,4,2,1,50,0,0
155746,-182.076808403901,4,2,1,50,0,0
157094,-133.333333333333,4,2,1,50,0,0
167881,-100,4,2,1,50,0,0
184060,-118.518518518517,4,2,1,50,0,0
186757,-76.9230769230769,4,2,1,80,0,1
191054,-76.9230769230769,4,2,1,5,0,1
191139,-76.9230769230769,4,2,1,80,0,1
199903,-230.769241333002,4,2,1,80,0,1
200155,-230.769241333002,4,2,1,5,0,1
200240,-76.9230769230769,4,2,1,80,0,1
204537,-76.9230769230769,4,2,1,5,0,1
204622,-58.8235294117647,4,2,1,80,0,1
204874,-58.8235294117647,4,2,1,5,0,1
204959,-50,4,2,1,80,0,1
205633,-111.111111111111,4,2,1,80,0,1
209349,317.460317460317,4,2,1,80,1,0
209666,335.195530726257,4,2,1,80,1,0
210336,337.078651685393,4,2,1,80,1,0
211010,338.983050847458,4,2,1,80,1,1
211010,-58.8235294117647,4,2,1,80,0,1
211377,-58.8235294117647,4,2,1,80,0,1
211687,350.877192982456,4,2,1,80,1,1
212037,-76.9230769230769,4,2,1,80,0,1
212388,335.195530726257,4,2,1,80,1,1
213058,331.491712707182,4,2,1,80,1,1
213389,346.820809248555,4,2,1,80,1,1
213735,337.078651685393,4,2,1,80,1,1
213735,-76.9230769230769,4,2,1,80,0,1
216094,329.67032967033,4,2,1,80,1,1
216423,337.078651685393,4,2,1,80,1,1
216423,-76.9230769230769,4,2,1,80,0,1
217771,-76.9230769230769,4,2,1,80,0,1
218024,-76.9230769230769,4,2,1,5,0,1
218108,-76.9230769230769,4,2,1,80,0,1
226872,-230.769241333002,4,2,1,80,0,1
227124,-230.769241333002,4,2,1,5,0,1
227209,-76.9230769230769,4,2,1,80,0,1
231506,-76.9230769230769,4,2,1,5,0,1
231591,-58.8235294117647,4,2,1,80,0,1
231843,-58.8235294117647,4,2,1,5,0,1
231928,-55.5555555555556,4,2,1,80,0,1
232602,-111.111111111111,4,2,1,80,0,1
234962,-76.9230769230769,4,2,1,80,0,1
236647,-76.9230769230769,4,2,1,60,0,0
238333,324.324324324324,4,2,1,40,1,0
238657,337.078651685393,4,2,1,40,1,0
238678,-100,4,2,1,50,0,0
238994,357.142857142857,4,2,1,50,1,0
238994,-153.846153846154,4,2,1,60,0,0
239351,337.078651685393,4,2,1,80,1,1
241710,-230.769241333002,4,2,1,80,0,1
241962,-230.769241333002,4,2,1,5,0,1
242047,-55.5555572509751,4,2,1,80,0,1
246092,317.460317460317,4,2,1,80,1,1
246568,337.078651685393,4,2,1,80,1,1
247073,340.909090909091,4,2,1,80,1,1
247413,355.029585798817,4,2,1,80,1,1
247945,335.195530726257,4,2,1,80,1,1
248782,337.078651685393,4,2,1,60,1,1
250130,-111.111117892789,4,2,1,80,0,0
250635,-111.111117892789,4,2,1,80,0,0
255523,-111.111117892789,4,2,1,80,0,1
258220,-83.3333333333333,4,2,1,80,0,1
259568,-1115.38461538463,4,2,1,80,0,0
259610,-1115.38461538463,4,2,1,25,0,0

[Colours]
Combo1 : 241,215,154
Combo2 : 170,218,135
Combo3 : 137,188,239
Combo4 : 245,137,167

[HitObjects]
180,114,690,5,2,2:0:0:0:
140,98,858,1,0,2:0:0:0:
96,100,1027,1,0,2:0:0:0:
58,120,1195,1,0,2:0:0:0:
211,144,1364,2,0,P|250:158|307:165,1,83.9999999999998,2|0,2:0|2:0,2:0:0:0:
351,105,1869,2,0,P|319:131|284:177,2,83.9999999999998,2|0|0,2:0|2:0|2:0,2:0:0:0:
459,54,2881,1,2,2:0:0:0:
498,168,3218,1,2,2:0:0:0:
498,168,3386,6,0,L|491:266,1,83.9999999999998,2|0,2:0|2:0,2:0:0:0:
366,263,3892,2,0,L|419:246,1,41.9999999999999,2|0,2:0|2:0,2:0:0:0:
449,323,4229,2,0,L|409:335,1,41.9999999999999,2|0,2:0|2:0,2:0:0:0:
339,379,4566,2,0,B|275:386|285:354|216:365,1,126,2|0,2:0|2:0,2:0:0:0:
21,248,5409,2,0,L|72:227,1,41.9999999999999,2|0,2:0|2:0,2:0:0:0:
72,245,5746,2,0,L|33:260,1,41.9999999999999,2|0,2:0|2:0,2:0:0:0:
97,150,6083,5,2,2:0:0:0:
110,171,6251,1,0,2:0:0:0:
199,91,6420,1,2,2:0:0:0:
186,126,6588,1,0,2:0:0:0:
242,203,6757,2,0,P|289:186|328:174,1,83.9999999999998,2|0,2:0|2:0,2:0:0:0:
425,97,7263,2,0,L|412:149,1,41.9999999999999,2|0,2:0|2:0,2:0:0:0:
321,175,7600,2,0,L|331:134,1,41.9999999999999,2|0,2:0|2:0,2:0:0:0:
285,46,7937,2,0,P|239:36|187:36,1,83.9999999999998,2|0,2:0|2:0,2:0:0:0:
85,165,8611,1,2,2:0:0:0:
85,165,8779,6,0,B|58:113|58:113|78:-2,2,168,2|0|0,2:0|2:0|2:0,2:0:0:0:
85,165,10802,1,2,2:0:0:0:
85,165,10970,1,2,2:0:0:0:
119,302,11139,2,0,L|138:361,1,62.9999999999999,2|0,2:0|2:0,2:0:0:0:
138,361,11476,6,0,B|170:338|205:338|205:338|219:358|261:370,1,112,4|0,2:0|2:0,2:0:0:0:
321,249,11982,2,0,P|286:274|265:290,1,56,2|8,2:0|2:1,2:0:0:0:
205,154,12319,2,0,P|240:179|261:195,1,56,2|8,2:0|2:1,2:0:0:0:
321,249,12656,1,2,2:0:0:0:
392,79,12824,6,0,P|332:93|265:118,1,112,6|8,2:3|2:1,2:0:0:0:
412,94,13330,2,0,L|486:113,1,56,2|8,2:0|2:1,2:0:0:0:
490,210,13667,2,0,L|435:196,1,56,2|8,2:0|2:1,2:0:0:0:
358,173,14004,1,2,2:0:0:0:
266,0,14173,6,0,L|286:115,1,112,10|8,2:1|2:1,2:0:0:0:
188,113,14678,2,0,L|172:42,1,56,2|8,2:0|2:1,2:0:0:0:
81,60,15015,2,0,L|94:114,1,56,2|8,2:0|2:1,2:0:0:0:
23,251,15352,6,0,P|103:231|137:243,1,112,2|0,2:0|2:0,2:0:0:0:
124,352,15858,2,0,P|83:313|78:297,1,56,10|0,2:1|2:0,2:0:0:0:
123,184,16195,2,0,L|132:258,1,56,10|0,2:1|2:0,2:0:0:0:
234,274,16532,2,0,L|228:219,1,56,10|0,2:1|2:0,2:0:0:0:
304,103,16869,5,10,2:1:0:0:
228,219,17038,1,2,2:0:0:0:
304,103,17206,1,10,2:1:0:0:
367,227,17375,2,0,P|418:218|484:202,2,112,2|0|0,2:0|2:0|2:0,2:0:0:0:
388,340,18218,6,0,L|442:326,1,56,10|0,2:1|2:0,2:0:0:0:
312,286,18555,1,10,2:1:0:0:
238,335,18723,2,0,P|220:287|212:207,2,112,2|0|2,2:0|2:0|2:0,2:0:0:0:
150,331,19566,2,0,L|94:318,1,56,2|0,2:0|2:0,2:0:0:0:
157,214,19903,1,10,2:1:0:0:
157,214,20072,2,0,L|211:226,1,56,2|8,2:0|2:1,2:0:0:0:
36,213,20409,1,2,2:0:0:0:
95,318,20577,1,10,2:1:0:0:
36,213,20746,1,2,2:0:0:0:
98,110,20914,6,0,L|93:65,3,28,2|0|0|0,3:2|3:0|3:0|3:0,2:0:0:0:
187,135,21251,2,0,L|182:90,3,28,2|0|0|0,3:2|3:0|3:0|3:0,2:0:0:0:
5,57,21588,5,8,2:0:0:0:
272,132,21757,1,8,2:0:0:0:
272,132,22263,5,6,2:3:0:0:
414,50,22431,1,2,2:0:0:0:
347,199,22600,1,2,2:0:0:0:
313,39,22768,1,10,2:1:0:0:
434,149,22937,1,10,2:0:0:0:
434,149,23274,1,10,2:1:0:0:
347,199,23442,6,0,P|378:228|427:254,1,77,10|0,2:1|2:0,2:0:0:0:
247,212,23779,2,0,P|252:254|272:305,1,77,10|0,2:0|2:0,2:0:0:0:
162,157,24116,2,0,P|138:192|121:245,1,77,10|8,2:1|2:0,2:0:0:0:
136,374,24454,1,10,2:1:0:0:
263,287,24622,1,2,2:0:0:0:
263,287,24959,5,6,2:3:0:0:
136,374,25128,1,10,2:1:0:0:
125,224,25296,1,2,2:0:0:0:
263,287,25465,1,10,2:1:0:0:
88,303,25633,2,0,P|47:245|69:154,1,154,10|8,2:0|2:1,2:0:0:0:
124,63,26139,6,0,L|146:150,1,77,10|0,2:1|2:0,2:0:0:0:
282,215,26476,2,0,L|195:190,1,77,10|0,2:0|2:0,2:0:0:0:
207,34,26813,2,0,L|229:121,1,77,10|8,2:1|2:0,2:0:0:0:
282,215,27150,2,0,L|320:199,1,38.5,8|8,2:1|2:1,2:0:0:0:
397,168,27319,1,8,2:0:0:0:
397,168,27656,6,0,L|510:186,1,77,12|0,2:0|2:0,2:0:0:0:
329,114,27993,5,10,2:0:0:0:
385,254,28161,1,10,2:1:0:0:
141,351,28330,1,10,2:0:0:0:
291,373,28498,1,10,2:1:0:0:
179,91,28667,1,10,2:0:0:0:
85,210,28836,5,10,2:1:0:0:
236,232,29004,1,8,2:0:0:0:
179,91,29173,1,10,2:1:0:0:
236,232,29341,1,8,2:0:0:0:
329,114,29510,1,10,2:1:0:0:
236,232,29678,1,8,2:0:0:0:
385,254,29847,5,8,2:3:0:0:
85,210,30015,1,8,2:3:0:0:
376,275,30184,1,8,2:3:0:0:
76,231,30352,6,0,L|92:304,1,56,12|0,2:1|2:0,2:0:0:0:
98,124,30689,2,0,L|26:101,1,56,8|0,2:1|2:0,2:0:0:0:
179,196,31027,2,0,L|234:145,1,56,8|0,2:1|2:0,2:0:0:0:
293,86,31364,1,8,2:1:0:0:
433,205,31532,1,8,2:1:0:0:
433,205,31616,1,8,2:1:0:0:
433,205,31701,6,0,L|308:177,1,112,4|8,2:3|2:1,2:0:0:0:
293,86,32206,2,0,L|364:72,1,56,2|8,2:0|2:1,2:0:0:0:
339,197,32543,2,0,L|284:207,1,56,2|8,2:0|2:1,2:0:0:0:
437,52,32881,1,2,2:0:0:0:
502,262,33049,5,14,2:0:0:0:
288,211,33218,1,8,2:1:0:0:
288,211,33386,1,8,2:1:0:0:
138,336,33555,5,10,2:0:0:0:
352,286,33723,1,8,2:1:0:0:
352,286,33892,1,8,2:1:0:0:
169,64,34060,5,10,2:0:0:0:
219,278,34229,1,8,2:1:0:0:
219,278,34397,1,8,2:1:0:0:
22,179,34566,5,8,2:0:0:0:
22,179,34650,1,8,2:0:0:0:
22,179,34734,2,0,L|72:167,1,31.5,8|8,2:0|2:0,2:0:0:0:
283,191,34903,2,0,L|252:198,1,31.5,8|8,2:0|2:0,2:0:0:0:
38,282,35072,5,10,2:0:0:0:
292,84,35240,1,10,2:0:0:0:
295,87,35746,6,0,P|383:113|480:127,2,182,6|8|8,2:0|2:0|2:1,2:0:0:0:
177,9,36588,1,8,2:1:0:0:
63,181,36757,2,0,L|163:144,1,91,8|0,2:0|2:0,2:0:0:0:
321,173,37094,5,10,2:1:0:0:
234,152,37263,1,0,2:0:0:0:
213,239,37431,1,8,2:0:0:0:
300,260,37600,1,0,2:0:0:0:
295,87,37768,5,10,2:1:0:0:
239,325,37937,1,8,2:1:0:0:
148,178,38105,1,8,2:0:0:0:
386,234,38274,1,8,2:1:0:0:
386,234,38358,1,8,2:1:0:0:
386,234,38442,6,0,L|425:36,1,182,6|8,2:3|2:0,2:0:0:0:
295,87,38948,1,2,2:0:0:0:
473,242,39116,2,0,B|417:225|417:225|372:237,1,91,10|8,2:1|2:1,2:0:0:0:
212,340,39454,1,10,2:0:0:0:
338,349,39622,1,2,2:0:0:0:
182,218,39791,6,0,P|71:241|-10:279,2,182,8|8|8,2:1|2:0|2:1,2:0:0:0:
281,258,40633,1,8,2:1:0:0:
135,27,40802,1,10,2:0:0:0:
69,144,40970,1,2,2:0:0:0:
135,27,41139,6,0,L|248:54,1,91,4|0,2:0|2:0,2:0:0:0:
339,146,41476,1,10,2:0:0:0:
222,320,41645,2,0,P|204:278|194:225,1,91,2|8,2:0|2:1,2:0:0:0:
492,212,41982,2,0,P|464:248|423:283,1,91,10|8,2:1|2:0,2:0:0:0:
223,48,42319,1,8,2:1:0:0:
235,38,42403,1,8,2:1:0:0:
247,28,42487,6,0,L|408:66,1,136.5,6|0,2:3|2:0,2:0:0:0:
424,167,42824,2,0,L|519:189,1,91,10|0,2:0|2:0,2:0:0:0:
278,203,43161,1,10,2:1:0:0:
380,60,43330,1,10,2:1:0:0:
278,203,43498,2,0,L|181:180,1,91,10|0,2:0|2:0,2:0:0:0:
38,26,43836,6,0,B|46:59|59:78|59:78|9:132|33:213,2,182,6|8|8,2:3|2:0|2:1,2:0:0:0:
221,0,44678,1,10,2:1:0:0:
112,158,44847,1,10,2:0:0:0:
221,0,45015,1,2,2:0:0:0:
380,152,45184,5,8,2:1:0:0:
268,93,45352,1,8,2:1:0:0:
294,178,45521,1,10,2:0:0:0:
353,66,45689,1,2,2:0:0:0:
263,301,45858,5,8,2:1:0:0:
448,202,46027,1,8,2:1:0:0:
403,343,46195,1,10,2:0:0:0:
305,157,46364,1,2,2:0:0:0:
143,372,46532,6,0,P|30:303|25:239,1,182,4|8,2:0|2:0,2:0:0:0:
214,202,47038,2,0,P|168:244|130:266,1,91,2|8,2:0|2:1,2:0:0:0:
0,121,47375,2,0,P|59:139|97:161,1,91,10|8,2:1|2:0,2:0:0:0:
300,74,47712,1,8,2:1:0:0:
313,64,47796,1,8,2:1:0:0:
327,52,47881,6,0,L|134:18,2,182,4|8|8,2:3|2:0|2:1,2:0:0:0:
246,2,48723,1,8,2:1:0:0:
408,96,48892,1,10,2:0:0:0:
245,189,49060,1,2,2:0:0:0:
408,96,49229,6,0,L|503:78,1,91,4|0,2:3|2:0,2:0:0:0:
245,189,49566,1,10,2:0:0:0:
511,92,49734,2,0,L|421:108,1,91,2|8,2:0|2:1,2:0:0:0:
249,221,50072,2,0,L|159:237,1,91,2|8,2:0|2:0,2:0:0:0:
406,338,50409,1,8,2:1:0:0:
427,346,50493,1,8,2:1:0:0:
448,354,50577,6,0,P|461:327|466:297,1,45.5,8|8,2:0|2:0,2:0:0:0:
339,163,50746,1,8,2:1:0:0:
160,237,50914,1,8,2:1:0:0:
447,220,51083,6,0,P|450:190|444:160,1,45.5,8|8,2:0|2:0,2:0:0:0:
280,77,51251,1,8,2:1:0:0:
137,208,51420,1,8,2:1:0:0:
217,384,51588,6,0,L|267:376,1,45.4999979171753,12|0,2:0|2:0,2:0:0:0:
237,293,51925,6,0,B|175:303|175:303|154:323|154:323|154:323|154:323|133:343|133:343|72:354,2,182,4|8|8,2:0|2:0|2:1,2:0:0:0:
227,376,52768,1,8,2:1:0:0:
72,263,52937,2,0,L|56:164,1,91,8|0,2:0|2:0,2:0:0:0:
118,16,53274,5,6,2:3:0:0:
224,148,53442,1,0,2:0:0:0:
130,7,53611,1,8,2:0:0:0:
211,156,53779,1,0,2:0:0:0:
304,0,53948,5,10,2:1:0:0:
132,119,54116,1,8,2:1:0:0:
309,18,54285,1,8,2:0:0:0:
459,155,54454,5,8,2:1:0:0:
459,155,54538,1,8,2:1:0:0:
459,155,54622,2,0,L|419:354,1,182,6|8,2:3|2:0,2:0:0:0:
300,224,55128,1,2,2:0:0:0:
266,384,55296,1,10,2:1:0:0:
266,384,55465,1,8,2:1:0:0:
423,333,55633,2,0,L|511:352,1,91,8|0,2:0|2:0,2:0:0:0:
265,135,55970,6,0,P|215:199|220:274,1,136.5,6|0,2:3|2:0,2:0:0:0:
411,124,56307,6,0,P|380:48|297:-3,1,178.5,10|0,2:0|2:0,2:0:0:0:
135,75,56645,6,0,L|426:126,1,280,6|8,2:3|2:0,2:0:0:0:
470,13,57150,1,2,2:0:0:0:
121,54,57319,6,0,L|266:79,1,126,4|0,2:0|2:0,2:0:0:0:
290,198,57824,1,8,2:1:0:0:
290,198,57993,2,0,L|227:187,1,63.0000000000001,8|8,2:0|2:1,2:0:0:0:
138,173,58330,1,2,2:1:0:0:
138,173,58498,1,2,2:1:0:0:
83,358,58667,6,0,P|67:326|61:286,1,70,6|8,2:3|2:0,2:0:0:0:
138,173,59004,1,2,2:0:0:0:
278,311,59173,2,0,L|196:286,1,70,10|8,2:1|2:0,2:0:0:0:
373,275,59510,1,10,2:0:0:0:
468,239,59678,1,8,2:0:0:0:
476,260,60015,5,12,2:0:0:0:
501,17,60184,1,8,2:1:0:0:
373,275,60352,5,10,2:0:0:0:
398,32,60521,1,8,2:1:0:0:
270,290,60689,5,10,2:0:0:0:
295,47,60858,1,8,2:1:0:0:
167,305,61027,5,10,2:0:0:0:
192,62,61195,1,8,2:1:0:0:
382,177,61364,5,8,2:0:0:0:
125,201,61532,1,8,2:1:0:0:
295,47,61701,1,8,2:1:0:0:
295,47,61785,1,8,2:1:0:0:
295,47,61869,1,8,2:1:0:0:
56,306,62038,5,8,3:2:0:0:
0,93,62206,1,8,3:2:0:0:
213,34,62375,1,8,3:2:0:0:
272,248,62543,1,8,3:2:0:0:
136,170,62712,6,0,P|95:161|61:155,3,70.0000000000003,4|8|8|8,2:0|2:1|2:1|2:1,2:0:0:0:
236,173,63892,1,2,2:0:0:0:
290,88,64060,2,0,P|318:56|340:30,3,70.0000000000003,4|8|8|8,2:3|2:1|2:1|2:1,2:0:0:0:
236,173,65240,1,2,2:0:0:0:
284,262,65409,2,0,P|296:302|308:334,3,70.0000000000003,4|8|8|8,2:0|2:1|2:1|2:1,2:0:0:0:
402,362,66588,1,8,2:1:0:0:
402,362,66673,1,8,2:1:0:0:
402,362,66757,6,0,L|508:336,1,105,4|8,2:3|2:1,2:0:0:0:
378,261,67263,2,0,L|479:235,1,105,2|0,2:0|2:0,2:0:0:0:
354,160,67768,1,10,2:1:0:0:
354,160,67937,1,2,2:0:0:0:
417,59,68105,6,0,P|390:46|347:40,1,52.5000000000001,4|0,2:0|2:0,2:0:0:0:
313,193,68442,2,0,P|337:176|364:141,1,52.5000000000001,8|0,2:1|2:0,2:0:0:0:
248,35,68779,2,0,P|250:64|266:105,1,52.5000000000001,8|0,2:1|2:0,2:0:0:0:
417,59,69116,2,0,P|390:46|347:40,1,52.5000000000001,8|0,2:1|2:0,2:0:0:0:
156,117,69454,6,0,L|259:84,1,105,4|8,2:0|2:1,2:0:0:0:
305,222,69959,2,0,L|204:253,1,105,2|0,2:0|2:0,2:0:0:0:
147,143,70465,6,0,L|113:154,2,35.0000000000001,10|2|0,2:1|2:0|2:0,2:0:0:0:
37,252,70802,6,0,L|100:267,1,52.5000000000001,4|0,2:0|2:0,2:0:0:0:
115,372,71139,2,0,L|178:387,1,52.5000000000001,8|0,2:1|2:0,2:0:0:0:
162,224,71476,2,0,L|225:239,1,52.5000000000001,8|0,2:1|2:0,2:0:0:0:
239,344,71813,2,0,L|302:359,1,52.5000000000001,8|0,2:1|2:0,2:0:0:0:
418,201,72150,6,0,P|392:220|376:240,1,52.5000000000001,8|0,2:1|2:0,2:0:0:0:
477,358,72487,1,8,2:1:0:0:
477,358,72656,2,0,P|473:325|464:302,1,52.5000000000001,8|0,2:3|2:0,2:0:0:0:
311,330,72993,1,8,2:3:0:0:
311,330,73161,2,0,P|340:343|365:346,1,52.5000000000001,8|0,2:3|2:0,2:0:0:0:
427,186,73498,5,4,2:0:0:0:
315,144,73667,1,0,2:0:0:0:
418,201,73836,1,8,2:1:0:0:
306,159,74004,1,0,2:0:0:0:
432,83,74173,2,0,L|503:104,1,52.5000000000001,10|0,2:1|2:0,2:0:0:0:
315,144,74510,1,2,2:0:0:0:
315,144,74678,6,0,L|244:123,1,52.5000000000001,2|8,2:0|2:1,2:0:0:0:
166,8,75015,2,0,P|188:43|196:60,1,52.5000000000001,2|8,2:0|2:1,2:0:0:0:
137,198,75352,2,0,P|156:161|167:146,1,52.5000000000001,2|8,2:0|2:1,2:0:0:0:
264,129,75689,2,0,L|315:144,1,52.5000000000001,2|8,2:0|2:1,2:0:0:0:
137,198,76027,1,2,2:0:0:0:
207,267,76195,6,0,L|257:252,1,52.5000000000001,4|0,2:3|2:0,2:0:0:0:
127,216,76532,1,10,2:1:0:0:
58,337,76701,2,0,L|109:323,1,52.5000000000001,2|8,2:0|2:1,2:0:0:0:
219,284,77038,2,0,L|269:269,1,52.5000000000001,2|8,2:0|2:1,2:0:0:0:
419,331,77375,1,8,2:1:0:0:
406,327,77459,1,8,2:1:0:0:
393,322,77543,6,0,L|424:210,1,105,4|8,2:3|2:1,2:0:0:0:
421,220,78049,1,2,2:0:0:0:
269,268,78218,2,0,L|300:156,1,105,8|8,2:1|2:1,2:0:0:0:
297,166,78723,1,2,2:0:0:0:
429,147,78892,6,0,L|445:213,1,52.5000000000001,4|0,2:3|2:0,2:0:0:0:
346,42,79229,1,10,2:1:0:0:
297,166,79397,1,2,2:0:0:0:
346,42,79566,2,0,L|420:56,1,52.5000000000001,10|0,2:1|2:0,2:0:0:0:
308,184,79903,1,10,2:1:0:0:
205,113,80072,6,0,L|153:103,1,52.5000000000001,2|8,2:0|2:1,2:0:0:0:
139,229,80409,2,0,L|190:238,1,52.5000000000001,2|8,2:0|2:1,2:0:0:0:
131,87,80746,2,0,L|79:77,1,52.5000000000001,2|8,2:0|2:1,2:0:0:0:
65,203,81083,2,0,L|116:212,1,52.5000000000001,2|8,2:0|2:1,2:0:0:0:
65,203,81420,1,0,2:0:0:0:
220,262,81588,6,0,L|206:368,1,105,4|8,2:3|2:1,2:0:0:0:
220,262,82094,1,2,2:0:0:0:
350,223,82263,2,0,L|336:329,1,105,8|8,2:1|2:1,2:0:0:0:
350,223,82768,1,2,2:0:0:0:
415,288,82937,1,8,2:1:0:0:
498,177,83105,6,0,L|466:165,1,26.2500000000001,2|2,2:0|2:0,2:0:0:0:
403,142,83274,1,10,2:1:0:0:
489,195,83442,2,0,L|457:183,1,26.2500000000001,2|2,2:0|2:0,2:0:0:0:
394,160,83611,1,2,2:1:0:0:
312,51,83779,5,8,2:1:0:0:
183,96,83948,1,8,2:0:0:0:
183,96,84285,5,6,2:0:0:0:
316,272,84454,1,2,2:0:0:0:
312,51,84622,1,10,2:0:0:0:
186,233,84791,1,2,2:1:0:0:
394,160,84959,1,8,2:1:0:0:
289,128,85128,1,10,2:1:0:0:
183,96,85296,1,8,2:0:0:0:
394,160,85465,1,2,2:0:0:0:
186,233,85633,6,0,L|104:254,1,63.0000000000001,4|0,2:3|2:0,2:0:0:0:
316,272,85970,1,8,2:0:0:0:
105,237,86139,2,0,L|166:221,1,63.0000000000001,2|8,2:0|2:1,2:0:0:0:
316,272,86476,2,0,L|377:256,1,63.0000000000001,10|8,2:1|2:0,2:0:0:0:
191,360,86813,1,8,2:1:0:0:
184,368,86897,1,8,2:1:0:0:
177,376,86982,6,0,L|42:337,1,126,4|8,2:3|2:0,2:0:0:0:
187,206,87487,2,0,L|52:167,1,126,2|8,2:0|2:1,2:0:0:0:
191,360,87993,1,8,2:0:0:0:
165,221,88161,6,0,L|294:258,1,126,2|0,2:0|2:0,2:0:0:0:
445,239,88667,5,10,2:0:0:0:
304,96,88836,1,0,2:0:0:0:
369,284,89004,5,10,2:1:0:0:
392,88,89173,1,8,2:1:0:0:
286,255,89341,5,10,2:0:0:0:
453,150,89510,1,0,2:0:0:0:
257,170,89678,5,4,2:3:0:0:
248,29,89847,1,0,2:0:0:0:
257,170,90015,1,8,2:0:0:0:
168,62,90184,2,0,L|84:41,1,63.0000000000001,2|8,2:0|2:1,2:0:0:0:
304,96,90521,2,0,L|365:111,1,63.0000000000001,10|8,2:1|2:0,2:0:0:0:
248,29,90858,1,2,2:0:0:0:
173,149,91027,6,0,P|161:201|157:240,1,63.0000000000001,4|0,2:3|2:0,2:0:0:0:
194,321,91364,1,8,2:0:0:0:
25,305,91532,2,0,L|96:284,1,63.0000000000001,2|8,2:0|2:1,2:0:0:0:
255,304,91869,2,0,L|194:321,1,63.0000000000001,10|8,2:1|2:0,2:0:0:0:
289,175,92206,1,0,2:0:0:0:
384,269,92375,6,0,P|460:289|514:307,1,126,4|8,2:3|2:0,2:0:0:0:
289,175,92881,1,2,2:0:0:0:
255,304,93049,1,8,2:1:0:0:
255,304,93218,5,10,2:1:0:0:
289,175,93386,1,10,2:0:0:0:
323,46,93555,1,2,2:0:0:0:
446,128,93723,6,0,L|417:139,3,31.5,2|0|0|0,3:2|3:0|3:0|3:0,2:0:0:0:
318,164,94060,2,0,L|289:175,3,31.5,2|0|0|0,3:2|3:0|3:0|3:0,2:0:0:0:
502,194,94397,5,8,2:0:0:0:
223,113,94566,1,8,2:0:0:0:
145,204,94734,1,8,2:0:0:0:
142,211,94819,1,8,2:0:0:0:
140,219,94903,1,8,2:0:0:0:
138,226,94987,1,8,2:0:0:0:
135,234,95072,5,6,2:3:0:0:
364,308,95240,1,2,2:0:0:0:
223,113,95409,1,10,2:0:0:0:
223,354,95577,1,2,2:0:0:0:
365,159,95746,1,10,2:1:0:0:
365,159,96083,1,10,2:0:0:0:
158,136,96251,6,0,P|201:125|233:104,1,70,2|8,2:0|2:1,2:0:0:0:
66,276,96588,2,0,P|42:250|12:231,1,70,2|8,2:0|2:0,2:0:0:0:
222,353,96925,2,0,P|223:318|234:285,1,70,2|8,2:0|2:1,2:0:0:0:
436,158,97263,1,2,2:0:0:0:
436,158,97431,2,0,P|405:174|371:181,1,70,10|0,2:0|2:0,2:0:0:0:
240,119,97768,5,6,2:3:0:0:
390,37,97937,1,2,2:0:0:0:
240,119,98105,2,0,L|263:204,1,70,8|0,2:0|2:0,2:0:0:0:
390,37,98442,2,0,L|304:14,1,70,10|0,2:1|2:0,2:0:0:0:
386,207,98779,1,10,2:0:0:0:
386,207,98948,2,0,L|448:144,1,70,2|8,2:0|2:1,2:0:0:0:
247,276,99285,2,0,L|269:190,1,70,2|8,2:0|2:0,2:0:0:0:
169,18,99622,6,0,L|191:103,1,70,2|8,2:0|2:1,2:0:0:0:
48,183,99959,1,2,2:0:0:0:
48,183,100128,2,0,L|134:229,1,70,10|0,2:0|2:0,2:0:0:0:
186,0,100465,5,4,2:0:0:0:
186,0,102656,6,0,L|201:52,1,35,10|0,2:1|2:0,2:0:0:0:
266,95,102824,2,0,P|300:92|333:79,1,70,4|0,2:0|2:0,2:0:0:0:
124,89,103161,5,4,2:0:0:0:
191,161,103330,1,8,2:0:0:0:
196,172,103414,1,8,2:0:0:0:
201,183,103498,1,8,2:0:0:0:
68,244,103667,1,8,2:0:0:0:
79,239,103751,1,8,2:0:0:0:
90,234,103836,1,8,2:0:0:0:
274,284,104004,1,8,2:0:0:0:
263,289,104088,1,8,2:0:0:0:
252,294,104173,1,8,2:0:0:0:
151,367,104341,1,8,2:0:0:0:
146,356,104425,1,8,2:0:0:0:
141,345,104510,5,8,2:0:0:0:
252,294,104678,1,8,2:0:0:0:
253,281,104763,1,8,2:0:0:0:
254,269,104847,1,8,2:0:0:0:
375,281,105015,1,8,2:0:0:0:
383,270,105100,1,8,2:0:0:0:
390,260,105184,1,8,2:0:0:0:
261,107,105352,5,8,2:0:0:0:
260,124,105437,1,8,2:0:0:0:
263,143,105521,1,8,2:0:0:0:
270,159,105605,1,8,2:0:0:0:
282,174,105689,1,8,2:0:0:0:
297,184,105774,1,8,2:0:0:0:
314,191,105858,5,12,2:0:0:0:
101,117,106027,1,8,2:1:0:0:
314,191,106195,1,8,2:1:0:0:
243,0,106364,5,12,2:0:0:0:
115,251,106532,1,8,2:1:0:0:
243,0,106701,1,8,2:1:0:0:
448,205,106869,5,8,2:0:0:0:
204,89,107038,1,8,2:1:0:0:
448,205,107206,1,8,2:1:0:0:
197,356,107375,5,8,2:0:0:0:
197,356,107459,1,8,2:0:0:0:
197,356,107543,2,0,L|183:308,1,35,8|8,2:0|2:0,2:0:0:0:
353,158,107712,2,0,L|362:191,1,35,8|8,2:0|2:0,2:0:0:0:
149,236,107881,5,10,2:0:0:0:
392,278,108049,1,10,2:0:0:0:
204,89,108218,5,8,2:3:0:0:
194,85,108302,1,8,2:3:0:0:
194,75,108386,1,8,2:3:0:0:
204,72,108470,1,8,2:3:0:0:
209,80,108555,6,0,B|152:116|96:85|96:85|51:91|12:131,2,182,4|8|8,2:0|2:0|2:1,2:0:0:0:
337,0,109397,1,8,2:1:0:0:
435,179,109566,2,0,L|305:147,1,91,8|0,2:0|2:0,2:0:0:0:
90,187,109903,5,10,2:1:0:0:
215,91,110072,1,0,2:0:0:0:
82,175,110240,1,8,2:0:0:0:
222,102,110409,1,0,2:0:0:0:
382,276,110577,5,10,2:1:0:0:
197,208,110746,1,8,2:1:0:0:
389,259,110914,1,8,2:0:0:0:
190,223,111083,1,0,2:0:0:0:
355,80,111251,6,0,L|394:286,1,182,6|8,2:3|2:0,2:0:0:0:
257,0,111757,1,2,2:0:0:0:
239,123,111925,2,0,P|185:133|134:127,1,91,10|8,2:1|2:1,2:0:0:0:
30,88,112263,1,10,2:0:0:0:
113,13,112431,1,2,2:0:0:0:
2,228,112600,6,0,B|-24:113|-24:113|7:48,2,182,4|8|8,2:3|2:0|2:1,2:0:0:0:
28,335,113442,1,8,2:1:0:0:
216,146,113611,1,10,2:0:0:0:
176,295,113779,1,2,2:0:0:0:
216,146,113948,6,0,L|111:122,1,91,4|0,2:0|2:0,2:0:0:0:
325,255,114285,1,10,2:0:0:0:
473,217,114454,2,0,P|509:151|514:105,1,91,2|8,2:0|2:1,2:0:0:0:
320,285,114791,2,0,P|354:341|386:365,1,91,10|8,2:1|2:0,2:0:0:0:
352,102,115128,1,8,2:1:0:0:
348,91,115212,1,8,2:1:0:0:
344,81,115296,6,0,L|210:50,1,136.5,4|0,2:3|2:0,2:0:0:0:
135,109,115633,2,0,L|44:88,1,91,8|0,2:0|2:0,2:0:0:0:
296,211,115970,1,8,2:1:0:0:
128,300,116139,1,8,2:1:0:0:
296,211,116307,2,0,L|384:231,1,91,8|0,2:0|2:0,2:0:0:0:
124,384,116645,6,0,P|54:327|78:230,2,182,4|8|8,2:3|2:0|2:1,2:0:0:0:
313,343,117487,1,10,2:1:0:0:
182,200,117656,1,10,2:0:0:0:
124,384,117824,1,2,2:0:0:0:
418,250,117993,5,8,2:1:0:0:
306,103,118161,1,8,2:1:0:0:
288,233,118330,1,10,2:0:0:0:
436,121,118498,1,2,2:0:0:0:
239,160,118667,5,8,2:1:0:0:
484,193,118836,1,8,2:1:0:0:
378,54,119004,1,10,2:0:0:0:
345,298,119173,1,2,2:0:0:0:
59,132,119341,6,0,L|256:163,1,182,4|8,2:0|2:0,2:0:0:0:
87,156,119847,2,0,L|-19:186,1,91,2|8,2:0|2:1,2:0:0:0:
134,294,120184,2,0,L|28:324,1,91,10|8,2:1|2:0,2:0:0:0:
303,317,120521,1,8,2:1:0:0:
319,320,120605,1,8,2:1:0:0:
335,324,120689,6,0,B|442:327|401:370|533:379,2,182,4|8|8,2:3|2:0|2:1,2:0:0:0:
225,258,121532,1,8,2:1:0:0:
329,123,121701,5,10,2:0:0:0:
225,258,121869,1,2,2:0:0:0:
427,99,122038,2,0,L|222:69,1,182,4|8,2:3|2:0,2:0:0:0:
47,37,122543,5,2,2:0:0:0:
131,9,122712,1,8,2:1:0:0:
95,208,122881,5,10,2:1:0:0:
179,180,123049,1,8,2:0:0:0:
323,300,123218,1,8,2:1:0:0:
323,323,123302,1,8,2:1:0:0:
324,345,123386,6,0,P|294:348|264:343,1,45.5,8|8,2:0|2:0,2:0:0:0:
179,180,123555,1,8,2:1:0:0:
307,35,123723,1,8,2:1:0:0:
198,301,123892,6,0,P|168:294|142:278,1,45.5,8|8,2:0|2:0,2:0:0:0:
113,101,124060,1,8,2:1:0:0:
287,4,124229,2,0,L|352:23,1,45.5,8|8,2:1|2:0,2:0:0:0:
447,103,124397,5,8,2:1:0:0:
457,106,124482,1,8,2:0:0:0:
468,110,124566,1,8,2:1:0:0:
479,113,124650,1,8,2:1:0:0:
489,117,124734,6,0,P|391:136|293:219,1,212.333330633381,4|0,2:0|2:0,2:0:0:0:
303,313,125072,2,0,P|335:362|371:394,1,91,8|0,2:0|2:0,2:0:0:0:
209,258,125409,1,8,2:1:0:0:
398,260,125577,1,8,2:1:0:0:
209,258,125746,2,0,L|83:287,1,91,8|0,2:0|2:0,2:0:0:0:
8,137,126083,6,0,B|70:127|70:127|91:107|91:107|91:107|91:107|112:87|112:87|173:76,2,182,4|8|8,2:0|2:0|2:1,2:0:0:0:
152,187,126925,1,8,2:1:0:0:
28,25,127094,1,8,2:0:0:0:
152,187,127263,1,2,2:0:0:0:
332,121,127431,6,0,L|553:78,1,182,4|8,2:3|2:0,2:0:0:0:
189,2,127937,1,2,2:0:0:0:
152,187,128105,1,10,2:1:0:0:
332,121,128274,1,8,2:1:0:0:
152,187,128442,2,0,L|62:204,1,91,8|0,2:0|2:0,2:0:0:0:
295,306,128779,6,0,L|440:277,1,136.5,6|0,2:3|2:0,2:0:0:0:
144,206,129116,2,0,L|-1:234,1,136.5,10|0,2:0|2:0,2:0:0:0:
280,381,129454,6,0,L|332:121,1,266,6|8,2:3|2:0,2:0:0:0:
189,2,129959,1,2,2:0:0:0:
353,138,130128,6,0,L|380:-3,1,126,4|8,2:0|2:1,2:0:0:0:
468,68,130633,1,8,2:1:0:0:
468,68,130802,2,0,L|456:129,1,63.0000000000001,10|8,2:0|2:1,2:0:0:0:
412,222,131139,1,2,2:0:0:0:
412,222,131307,1,10,2:0:0:0:
250,146,131476,6,0,L|171:132,1,63.0000000000001,4|8,2:3|2:0,2:0:0:0:
412,222,131813,1,2,2:0:0:0:
203,312,131982,1,8,2:1:0:0:
234,317,132066,1,8,2:1:0:0:
265,322,132150,1,8,2:0:0:0:
188,135,132319,1,8,2:0:0:0:
43,237,132487,1,8,2:0:0:0:
43,237,132824,5,12,2:0:0:0:
109,4,132993,1,8,2:1:0:0:
123,274,133161,5,10,2:0:0:0:
189,41,133330,1,8,2:1:0:0:
203,312,133498,5,10,2:0:0:0:
269,79,133667,1,8,2:1:0:0:
283,350,133836,5,10,2:0:0:0:
349,117,134004,1,8,2:1:0:0:
115,177,134173,5,10,2:0:0:0:
383,252,134341,1,8,2:1:0:0:
129,165,134510,5,10,2:0:0:0:
397,240,134678,1,8,2:1:0:0:
397,240,134763,1,8,2:0:0:0:
397,240,134847,5,8,2:1:0:0:
263,202,135015,1,8,2:3:0:0:
223,295,135184,1,8,2:3:0:0:
144,266,135352,1,8,2:3:0:0:
116,294,135521,6,0,B|50:265|63:204|63:204|35:143|90:94|90:94|79:39|79:39|138:43|176:59|176:59|211:90|225:134|225:134|262:115|310:135,1,563.062487649498,4|0,2:0|2:0,2:0:0:0:
302,132,137881,1,2,2:0:0:0:
423,3,138218,6,0,B|391:30|378:71|385:108|385:108|385:108|385:108|393:150|377:190|347:214|347:214|296:194|239:246|266:317|324:330|358:304,1,445.757785186826,2|0,2:0|2:0,2:0:0:0:
353,307,140577,1,2,2:0:0:0:
256,376,140914,6,0,B|211:347|189:298|192:249|192:249|150:283|96:289|50:271,1,297.171856791217,2|0,2:0|2:0,2:0:0:0:
53,272,142600,2,0,L|63:300,3,18.5732410494511,2|0|0|0,2:0|2:0|2:0|2:0,2:0:0:0:
111,202,142937,2,0,L|130:179,3,18.5732410494511,2|0|0|0,2:0|2:0|2:0|2:0,2:0:0:0:
22,187,143274,2,0,L|-7:182,3,18.5732410494511,2|0|0|0,2:0|2:0|2:0|2:0,2:0:0:0:
78,101,143611,6,1,B|182:89|224:143|232:145|239:147|283:201|384:191|384:191|368:151|387:116,1,404.999999999999,4|0,2:0|2:0,2:0:0:0:
387,115,145970,1,2,2:0:0:0:
512,229,146307,6,0,B|485:225|462:207|462:207|442:264|394:270|394:270|333:260|294:316,1,265.781254435698,4|8,2:0|2:1,2:0:0:0:
311,328,147319,1,2,2:0:0:0:
311,328,147487,1,2,2:0:0:0:
229,275,147656,2,0,P|177:290|156:299,2,76.8906272178486,2|0|0,2:0|2:0|2:0,2:0:0:0:
229,275,148667,1,2,2:0:0:0:
49,378,149004,6,0,B|32:340|63:313|63:313|59:266|90:235|90:235|92:182|43:141,1,249.894532501164,4|8,2:3|2:1,2:0:0:0:
56,153,150015,1,2,2:0:0:0:
56,153,150352,2,0,L|36:61,1,76.8906272178486,2|0,2:0|2:0,2:0:0:0:
97,0,151027,1,2,2:0:0:0:
275,79,151701,22,1,B|311:96|311:96|345:73|345:73|380:89|380:89|413:70|413:70|474:105|446:176,1,259.874994299764,4|8,2:3|2:1,2:0:0:0:
452,156,152712,1,2,2:0:0:0:
452,156,152881,1,2,2:0:0:0:
490,262,153049,2,0,B|464:241|433:247|433:247|391:234|371:201|371:201|330:195|302:219|302:219|261:223|232:194,1,259.874994299764,2|0,2:0|2:0,2:0:0:0:
257,212,154060,1,2,2:0:0:0:
94,322,154397,6,0,B|130:292|197:282|197:282|171:257|169:219|169:219|122:214|83:245,1,259.87499429977,4|8,2:3|2:1,2:0:0:0:
95,236,155746,2,0,P|73:200|58:157,2,76.8906272178486,2|0|0,2:0|2:0|2:0,2:0:0:0:
131,18,156757,1,2,2:0:0:0:
279,109,157094,6,0,L|400:81,2,105,4|2|2,2:3|2:0|2:0,2:0:0:0:
279,109,158105,1,10,2:0:0:0:
193,149,158274,1,10,2:1:0:0:
193,149,158358,1,8,2:1:0:0:
193,149,158442,5,4,2:3:0:0:
205,244,158611,1,0,2:0:0:0:
299,260,158779,1,2,2:0:0:0:
343,178,158948,1,0,2:0:0:0:
279,109,159116,5,2,2:0:0:0:
343,178,159285,1,0,2:0:0:0:
299,260,159454,1,2,2:0:0:0:
363,329,159622,1,8,2:1:0:0:
363,329,159706,1,8,2:1:0:0:
363,329,159791,5,4,2:3:0:0:
448,288,159959,1,0,2:0:0:0:
436,193,160128,2,0,L|460:76,1,105,2|2,2:0|2:0,2:0:0:0:
397,24,160633,1,8,2:1:0:0:
369,110,160802,1,2,2:0:0:0:
457,90,160970,1,8,2:1:0:0:
309,44,161139,6,0,L|196:70,1,105,4|0,2:3|2:0,2:0:0:0:
142,107,161645,2,0,L|193:94,1,52.5000000000001,2|0,2:0|2:0,2:0:0:0:
106,12,161982,2,0,L|157:0,1,52.5000000000001,2|0,2:0|2:0,2:0:0:0:
42,89,162319,1,8,2:1:0:0:
42,89,162487,6,0,P|31:133|32:211,2,105,4|0|0,2:3|2:0|2:0,2:0:0:0:
52,283,163330,1,8,2:1:0:0:
52,283,163498,1,2,2:0:0:0:
125,228,163667,1,8,2:1:0:0:
125,228,163751,1,8,2:1:0:0:
125,228,163836,5,4,2:3:0:0:
199,280,164004,1,0,2:0:0:0:
172,367,164173,1,2,2:0:0:0:
81,368,164341,1,0,2:0:0:0:
172,367,164510,5,2,2:0:0:0:
199,280,164678,1,0,2:0:0:0:
290,278,164847,1,2,2:0:0:0:
320,363,165015,1,8,2:1:0:0:
320,363,165100,1,8,2:1:0:0:
320,363,165184,5,4,2:3:0:0:
410,360,165352,2,0,P|441:314|449:244,1,105,2|0,2:0|2:0,2:0:0:0:
418,184,165858,1,2,2:0:0:0:
418,184,166027,1,8,2:1:0:0:
362,255,166195,1,2,2:0:0:0:
451,266,166364,1,8,2:1:0:0:
327,171,166532,6,0,L|211:156,1,105,4|2,2:3|2:0,2:0:0:0:
150,91,167038,2,0,P|135:57|131:19,1,52.5000000000001,2|0,2:0|2:0,2:0:0:0:
132,188,167375,1,8,2:1:0:0:
132,188,167543,2,0,P|110:216|78:239,1,52.5000000000001,10|0,2:0|2:0,2:0:0:0:
244,61,167881,6,0,L|408:23,1,140,4|0,2:0|2:0,2:0:0:0:
380,30,168386,1,8,2:1:0:0:
375,137,168555,2,0,L|306:152,1,70,8|0,2:0|2:0,2:0:0:0:
328,251,168892,1,8,2:1:0:0:
328,251,169060,2,0,L|397:236,1,70,8|0,2:1|2:0,2:0:0:0:
236,209,169397,6,0,P|186:197|154:194,1,70,8|0,2:0|2:0,2:0:0:0:
61,324,169734,1,8,2:1:0:0:
61,324,169819,1,8,2:1:0:0:
61,324,169903,2,0,P|96:286|114:260,1,70,8|0,2:0|2:0,2:0:0:0:
48,114,170240,2,0,P|62:163|76:192,1,70,8|0,2:0|2:0,2:0:0:0:
306,171,170577,6,0,L|161:196,1,140,4|0,2:0|2:0,2:0:0:0:
331,45,171083,1,8,2:1:0:0:
331,45,171251,2,8,P|383:66|421:86,1,70,8|0,2:0|2:0,2:0:0:0:
216,81,171588,1,8,2:1:0:0:
216,81,171757,2,0,P|208:25|206:-17,1,70,8|0,2:1|2:0,2:0:0:0:
306,171,172094,2,0,P|261:205|225:228,1,70,0|0,2:0|2:0,2:0:0:0:
144,274,172431,5,8,2:1:0:0:
158,277,172515,1,8,2:1:0:0:
173,281,172600,1,8,2:0:0:0:
133,185,172768,1,8,2:1:0:0:
275,294,172937,1,8,2:0:0:0:
110,362,173105,1,8,2:1:0:0:
236,199,173274,5,8,2:0:0:0:
70,267,173442,1,8,2:1:0:0:
244,213,173611,1,8,2:0:0:0:
78,281,173779,1,8,2:1:0:0:
199,107,173948,5,8,2:0:0:0:
275,294,174116,1,8,2:1:0:0:
214,97,174285,1,8,2:0:0:0:
291,285,174454,1,8,2:1:0:0:
416,125,174622,5,8,2:0:0:0:
198,213,174791,1,8,2:1:0:0:
414,145,174959,1,8,2:0:0:0:
205,240,175128,1,8,2:1:0:0:
206,239,175212,1,8,2:1:0:0:
206,239,175296,1,8,2:0:0:0:
467,236,175465,5,8,2:3:0:0:
324,198,175633,1,8,2:3:0:0:
362,55,175802,1,8,2:3:0:0:
504,93,175970,1,4,2:0:0:0:
414,145,176139,6,0,L|405:190,2,35,2|0|8,2:0|2:0|2:1,2:0:0:0:
346,34,176476,2,0,L|339:0,2,35,2|0|8,2:0|2:0|2:1,2:0:0:0:
190,83,176813,1,2,2:0:0:0:
219,96,176982,1,10,2:1:0:0:
248,109,177150,1,2,2:0:0:0:
105,156,177319,6,0,P|81:106|77:62,1,70,6|0,2:3|2:0,2:0:0:0:
217,256,177656,1,10,2:1:0:0:
217,256,177824,2,0,P|185:301|149:327,1,70,2|8,2:0|2:1,2:0:0:0:
248,109,178161,2,0,P|303:113|343:131,1,70,2|8,2:0|2:1,2:0:0:0:
105,156,178498,1,8,2:1:0:0:
87,125,178583,1,8,2:1:0:0:
78,92,178667,5,12,2:0:0:0:
63,229,178836,1,8,2:1:0:0:
175,311,179004,1,8,2:1:0:0:
269,101,179173,5,10,2:0:0:0:
169,196,179341,1,8,2:1:0:0:
202,330,179510,1,8,2:1:0:0:
429,216,179678,5,10,2:0:0:0:
291,224,179847,1,8,2:1:0:0:
230,348,180015,1,8,2:1:0:0:
447,233,180184,5,8,2:1:0:0:
442,255,180268,1,8,2:0:0:0:
437,277,180352,1,8,2:1:0:0:
432,298,180437,1,8,2:0:0:0:
429,320,180521,1,8,2:0:0:0:
425,341,180605,1,8,2:0:0:0:
420,362,180689,1,4,2:3:0:0:
386,86,180858,1,8,2:0:0:0:
407,100,181364,5,12,2:0:0:0:
189,30,181532,1,8,2:1:0:0:
204,22,181616,1,8,2:1:0:0:
228,21,181701,1,8,2:1:0:0:
48,200,181869,5,8,2:0:0:0:
297,116,182038,1,8,2:1:0:0:
271,107,182122,1,8,2:1:0:0:
247,108,182206,1,8,2:1:0:0:
442,255,182375,5,8,2:0:0:0:
186,213,182543,1,8,2:1:0:0:
206,199,182628,1,8,2:1:0:0:
232,197,182712,1,8,2:1:0:0:
63,367,182881,5,8,2:0:0:0:
70,370,182965,1,8,2:0:0:0:
77,374,183049,1,8,2:0:0:0:
160,98,183218,1,8,2:0:0:0:
124,102,183302,1,8,2:0:0:0:
92,122,183386,5,10,2:0:0:0:
442,255,183555,1,10,2:0:0:0:
445,258,184060,22,1,B|407:305|325:284|313:203|360:160|407:164|407:164|466:170|509:98|461:33|398:36|368:71,1,472.500000000006,4|0,2:0|2:0,2:0:0:0:
367,72,185746,1,2,2:0:0:0:
284,4,186083,1,8,2:0:0:0:
254,0,186167,1,8,2:0:0:0:
226,5,186251,1,8,2:0:0:0:
201,16,186336,1,8,2:0:0:0:
178,34,186420,1,14,2:0:0:0:
178,34,186757,6,0,P|122:55|-12:66,1,182,4|8,2:0|2:0,2:0:0:0:
248,128,187263,1,0,2:0:0:0:
41,148,187431,2,0,P|3:75|-5:29,1,91,8|8,2:1|2:1,2:0:0:0:
162,318,187768,1,10,2:0:0:0:
52,268,187937,1,2,2:0:0:0:
259,248,188105,6,0,P|296:255|366:272,1,91,4|0,2:3|2:0,2:0:0:0:
286,38,188442,2,0,P|261:66|211:118,1,91,8|0,2:0|2:0,2:0:0:0:
454,166,188779,2,0,P|441:130|421:61,1,91,8|8,2:1|2:1,2:0:0:0:
224,105,189116,1,10,2:0:0:0:
454,166,189285,1,2,2:0:0:0:
162,318,189454,6,0,L|54:294,1,91,4|0,2:3|2:0,2:0:0:0:
224,105,189791,1,8,2:0:0:0:
340,348,189959,2,0,L|448:324,1,91,2|8,2:0|2:1,2:0:0:0:
216,127,190296,2,0,L|304:107,1,91,10|8,2:1|2:0,2:0:0:0:
73,298,190633,1,8,2:1:0:0:
60,306,190718,1,8,2:1:0:0:
47,314,190802,6,0,P|7:237|10:169,1,136.5,4|0,2:3|2:0,2:0:0:0:
53,105,191139,2,0,P|65:67|68:8,1,91,8|0,2:0|2:0,2:0:0:0:
207,239,191476,1,8,2:1:0:0:
6,189,191645,1,8,2:1:0:0:
207,239,191813,2,0,L|299:220,1,91,8|0,2:0|2:0,2:0:0:0:
395,0,192150,6,0,B|372:32|381:81|381:81|411:113|417:162,2,182,4|8|8,2:3|2:0|2:1,2:0:0:0:
296,221,192993,1,8,2:1:0:0:
400,301,193161,1,8,0:0:0:0:
418,169,193330,1,0,0:0:0:0:
256,337,193498,37,8,0:1:0:0:
159,146,193667,1,8,0:1:0:0:
418,169,193836,1,8,0:0:0:0:
178,272,194004,1,0,0:0:0:0:
211,58,194173,1,8,0:1:0:0:
306,252,194341,1,8,0:1:0:0:
46,228,194510,1,8,0:0:0:0:
286,126,194678,1,0,0:0:0:0:
90,280,194847,22,0,P|40:271|1:250,1,91,4|0,2:0|2:0,2:0:0:0:
190,203,195184,1,10,2:0:0:0:
306,252,195352,2,0,P|323:299|324:344,1,91,2|8,2:0|2:1,2:0:0:0:
174,79,195689,2,0,P|206:40|244:16,1,91,10|8,2:1|2:0,2:0:0:0:
506,190,196027,1,8,2:1:0:0:
506,190,196111,1,8,2:1:0:0:
506,190,196195,6,0,L|315:150,2,182,4|8|8,2:3|2:0|2:1,2:0:0:0:
345,178,197038,1,8,2:1:0:0:
290,32,197206,1,10,2:0:0:0:
442,58,197375,1,2,2:0:0:0:
193,152,197543,6,0,P|124:122|96:101,1,91,4|8,2:3|2:1,2:0:0:0:
290,32,197881,1,8,2:0:0:0:
345,178,198049,1,8,2:0:0:0:
348,200,198133,1,8,2:0:0:0:
348,223,198218,1,8,2:1:0:0:
208,323,198386,2,0,P|140:356|106:364,1,91,10|8,2:1|2:0,2:0:0:0:
22,236,198723,1,8,2:1:0:0:
11,216,198807,1,8,2:1:0:0:
0,196,198892,6,0,P|24:179|53:170,1,45.5,8|8,2:0|2:0,2:0:0:0:
238,141,199060,1,8,2:1:0:0:
332,330,199229,1,8,2:1:0:0:
105,103,199397,5,8,2:0:0:0:
101,80,199482,1,8,2:0:0:0:
98,57,199566,2,0,P|126:49|156:51,1,45.5,8|8,2:1|2:1,2:0:0:0:
332,85,199734,1,8,2:1:0:0:
356,301,199903,6,0,L|339:365,1,45.4999979171765,12|0,2:0|2:0,2:0:0:0:
505,270,200240,6,0,B|436:249|436:249|417:216|417:216|335:190,1,182,4|8,2:0|2:0,2:0:0:0:
211,148,200746,1,8,2:1:0:0:
224,144,200830,1,8,2:1:0:0:
238,141,200914,1,8,2:1:0:0:
349,195,201083,1,8,2:1:0:0:
156,243,201251,2,0,L|64:218,1,91,8|0,2:0|2:0,2:0:0:0:
160,12,201588,6,0,B|186:33|197:53|197:53|267:32|330:89,2,182,6|8|8,2:3|2:0|2:1,2:0:0:0:
393,8,202431,1,8,2:1:0:0:
238,141,202600,1,8,2:0:0:0:
393,8,202768,1,0,2:0:0:0:
430,208,202937,6,0,P|431:276|420:318,1,91,4|0,2:3|2:0,2:0:0:0:
238,141,203274,1,8,2:0:0:0:
430,208,203442,1,2,2:0:0:0:
354,120,203611,1,10,2:1:0:0:
354,120,203779,1,8,2:1:0:0:
199,252,203948,2,0,L|92:220,1,91,8|0,2:0|2:0,2:0:0:0:
147,52,204285,6,0,P|235:127|237:177,1,136.5,6|0,2:3|2:0,2:0:0:0:
37,291,204622,6,0,P|33:204|88:137,1,178.5,10|0,2:0|2:0,2:0:0:0:
358,213,204959,6,0,L|89:138,1,280,6|8,2:3|2:0,2:0:0:0:
33,53,205465,1,0,2:0:0:0:
160,326,205633,6,0,L|38:292,1,126,6|0,2:0|2:0,2:0:0:0:
260,278,206139,1,8,2:1:0:0:
260,278,206307,2,0,L|320:294,1,63.0000000000001,8|8,2:0|2:1,2:0:0:0:
417,322,206645,1,2,2:0:0:0:
417,322,206813,1,2,2:0:0:0:
297,196,206982,6,0,L|358:213,1,63.0000000000001,8|8,2:1|2:0,2:0:0:0:
454,240,207319,1,2,2:0:0:0:
333,113,207487,1,8,2:1:0:0:
364,122,207572,1,8,2:1:0:0:
394,130,207656,1,8,2:0:0:0:
228,21,207824,1,8,2:0:0:0:
108,92,207993,1,8,2:0:0:0:
108,92,208330,5,8,2:0:0:0:
232,325,208498,1,8,2:1:0:0:
240,95,208667,5,8,2:0:0:0:
99,320,208836,1,8,2:1:0:0:
302,211,209004,5,8,2:0:0:0:
37,203,209173,1,8,2:1:0:0:
232,325,209349,5,8,2:0:0:0:
108,92,209507,1,8,2:1:0:0:
99,320,209666,5,8,2:1:0:0:
302,211,209833,1,8,2:1:0:0:
170,207,210001,1,8,2:1:0:0:
364,327,210168,5,8,2:0:0:0:
385,331,210252,1,8,2:0:0:0:
411,334,210336,2,8,P|426:310|434:281,1,35,8|8,2:0|2:0,2:0:0:0:
284,180,210504,2,8,P|297:204|318:226,1,35,8|8,2:0|2:0,2:0:0:0:
479,151,210673,2,8,P|451:150|422:157,1,35,8|8,2:0|2:0,2:0:0:0:
420,346,210841,2,8,P|435:322|443:293,1,35,8|8,2:0|2:0,2:0:0:0:
339,50,211010,6,0,B|309:52|277:31|277:31|223:39|189:89|189:89|145:92|123:75,2,238.35105453949,4|8|8,2:0|2:0|2:1,2:0:0:0:
447,150,211862,1,8,2:1:0:0:
447,150,212037,2,0,P|460:195|468:251,1,91,8|0,2:0|2:0,2:0:0:0:
194,279,212388,5,10,2:1:0:0:
281,300,212555,1,0,2:0:0:0:
302,213,212723,1,8,2:0:0:0:
215,192,212890,1,0,2:0:0:0:
220,365,213058,5,10,2:1:0:0:
276,127,213223,1,8,2:1:0:0:
367,274,213389,1,8,2:0:0:0:
129,218,213562,1,8,2:1:0:0:
129,218,213649,1,8,2:1:0:0:
129,218,213735,6,0,P|92:162|83:49,1,181.423220973783,6|8,2:3|2:0,2:0:0:0:
193,0,214240,1,2,2:0:0:0:
1,96,214409,2,0,P|47:45|86:20,1,90.9999958343508,8|8,2:1|2:1,2:0:0:0:
254,107,214746,1,10,2:0:0:0:
193,0,214914,1,2,2:0:0:0:
242,212,215083,6,0,P|332:171|372:96,2,181.999991668702,8|8|8,2:1|2:0|2:1,2:0:0:0:
393,91,215926,1,8,2:1:0:0:
433,286,216094,1,10,2:0:0:0:
393,91,216258,1,2,2:0:0:0:
242,212,216423,6,0,L|129:185,1,90.9999958343508,4|0,2:0|2:0,2:0:0:0:
393,91,216760,1,10,2:0:0:0:
417,310,216928,2,0,L|515:293,1,90.9999958343508,2|8,2:0|2:1,2:0:0:0:
303,106,217265,2,0,L|401:89,1,90.9999958343508,10|8,2:1|2:0,2:0:0:0:
305,308,217602,1,8,2:1:0:0:
293,318,217687,1,8,2:1:0:0:
281,328,217771,6,0,L|120:290,1,136.499993751526,6|0,2:3|2:0,2:0:0:0:
88,364,218108,2,0,L|-7:342,1,91,10|0,2:0|2:0,2:0:0:0:
73,161,218445,1,10,2:1:0:0:
0,342,218614,1,10,2:1:0:0:
73,161,218782,2,0,L|170:184,1,91,10|0,2:0|2:0,2:0:0:0:
402,243,219119,6,0,P|428:145|402:57,2,182,4|8|8,2:3|2:0|2:1,2:0:0:0:
262,327,219962,1,8,2:1:0:0:
402,243,220130,1,8,2:0:0:0:
262,327,220299,1,0,2:0:0:0:
120,127,220467,5,8,2:1:0:0:
301,222,220636,1,8,2:1:0:0:
259,84,220805,1,10,2:0:0:0:
163,266,220973,1,2,2:0:0:0:
351,52,221142,5,8,2:1:0:0:
132,168,221310,1,8,2:1:0:0:
185,2,221479,1,10,2:0:0:0:
301,222,221647,1,2,2:0:0:0:
366,27,221816,6,0,P|440:62|464:169,1,182,4|8,2:0|2:0,2:0:0:0:
282,208,222321,2,0,P|318:157|350:127,1,91,2|8,2:0|2:1,2:0:0:0:
478,301,222658,2,0,P|419:283|381:261,1,91,10|8,2:1|2:0,2:0:0:0:
157,316,222996,1,8,2:1:0:0:
144,326,223080,1,8,2:1:0:0:
130,338,223164,6,0,L|323:372,1,182,4|8,2:3|2:0,2:0:0:0:
267,195,223670,1,8,2:1:0:0:
267,195,223754,1,8,2:1:0:0:
267,195,223838,2,0,L|159:176,1,90.9999958343508,8|0,2:1|2:0,2:0:0:0:
62,139,224175,1,10,2:0:0:0:
256,85,224344,1,2,2:0:0:0:
104,288,224512,6,0,L|9:306,1,91,4|0,2:3|2:0,2:0:0:0:
267,195,224849,1,10,2:0:0:0:
4,289,225018,2,0,L|94:273,1,91,2|8,2:0|2:1,2:0:0:0:
254,180,225355,2,0,L|344:164,1,91,2|8,2:0|2:1,2:0:0:0:
213,293,225692,1,2,2:0:0:0:
446,130,225861,5,8,2:0:0:0:
423,88,225945,1,8,2:3:0:0:
387,60,226029,1,8,2:3:0:0:
344,49,226114,1,8,2:3:0:0:
299,57,226198,1,10,2:3:0:0:
275,71,226282,5,8,2:1:0:0:
263,86,226366,1,8,2:1:0:0:
251,101,226451,1,8,2:1:0:0:
227,113,226535,5,10,2:3:0:0:
183,126,226619,1,8,2:3:0:0:
139,123,226703,1,10,2:3:0:0:
98,102,226788,1,8,2:3:0:0:
71,66,226872,2,0,L|58:11,1,45.4999979171765,4|0,2:0|2:0,2:0:0:0:
2,157,227209,6,0,L|47:341,2,182,4|8|8,2:0|2:0|2:1,2:0:0:0:
39,359,228052,1,8,2:1:0:0:
126,253,228220,2,0,L|248:271,1,91,8|0,2:0|2:0,2:0:0:0:
420,282,228557,5,8,2:1:0:0:
290,316,228726,1,8,2:1:0:0:
257,185,228894,1,8,2:0:0:0:
387,153,229063,1,0,2:0:0:0:
369,358,229231,5,8,2:1:0:0:
307,112,229400,1,8,2:1:0:0:
461,204,229569,1,8,2:0:0:0:
216,266,229737,1,8,2:1:0:0:
216,266,229821,1,8,2:1:0:0:
216,266,229906,5,8,2:1:0:0:
388,153,230074,2,0,P|409:94|411:55,1,91,8|8,2:1|2:0,2:0:0:0:
290,316,230411,1,2,2:0:0:0:
188,151,230580,2,0,L|71:121,1,91,10|8,2:1|2:1,2:0:0:0:
249,0,230917,1,8,2:0:0:0:
388,153,231085,1,0,2:0:0:0:
57,216,231254,6,0,P|7:152|12:77,1,136.5,6|0,2:3|2:0,2:0:0:0:
194,232,231591,6,0,P|163:308|80:359,1,178.5,10|0,2:0|2:0,2:0:0:0:
57,216,231928,6,0,L|339:170,1,252,6|8,2:3|2:0,2:0:0:0:
322,38,232434,1,0,2:0:0:0:
291,324,232602,6,0,L|432:301,1,126,4|0,2:0|2:0,2:0:0:0:
319,199,233108,1,8,2:1:0:0:
319,199,233276,2,0,L|392:187,1,63.0000000000001,8|0,2:0|2:0,2:0:0:0:
476,175,233614,1,2,2:0:0:0:
476,175,233782,1,2,2:0:0:0:
385,36,233951,6,0,L|311:24,1,63.0000000000001,6|8,2:3|2:0,2:0:0:0:
476,175,234288,1,2,2:0:0:0:
237,168,234456,1,8,2:1:0:0:
266,172,234540,1,8,2:1:0:0:
300,179,234625,1,8,2:1:0:0:
90,56,234793,1,10,2:0:0:0:
62,245,234962,2,0,P|51:294|50:337,1,91,8|0,2:0|2:0,2:0:0:0:
205,42,235299,5,4,2:0:0:0:
223,59,235636,1,8,2:1:0:0:
120,153,235805,1,8,2:1:0:0:
358,98,235973,1,8,2:0:0:0:
100,166,236142,1,8,2:0:0:0:
455,208,236310,1,8,2:0:0:0:
81,180,236479,1,8,2:0:0:0:
493,360,236647,1,12,2:0:0:0:
493,360,238333,5,4,2:0:0:0:
270,269,238657,1,8,2:3:0:0:
278,271,238741,1,8,2:3:0:0:
286,273,238825,1,8,2:3:0:0:
294,275,238909,1,8,2:3:0:0:
302,277,238994,2,0,L|361:265,1,45.5,12|0,2:0|2:0,2:0:0:0:
279,33,239351,5,14,2:0:0:0:
251,257,239519,1,8,2:1:0:0:
461,168,239688,1,8,2:1:0:0:
189,49,239856,5,14,2:0:0:0:
204,333,240025,1,8,2:1:0:0:
444,177,240193,1,8,2:1:0:0:
128,178,240362,5,14,2:0:0:0:
337,90,240530,1,8,2:1:0:0:
485,261,240699,1,8,2:1:0:0:
89,109,240867,5,14,2:0:0:0:
314,96,241036,1,8,2:1:0:0:
395,308,241204,1,8,2:1:0:0:
74,33,241373,5,14,2:0:0:0:
290,102,241542,1,8,2:1:0:0:
294,329,241710,2,2,L|280:377,1,45.4999979171765,8|0,2:0|2:0,2:1:0:0:
74,275,242047,6,2,B|110:276|133:239|133:239|173:231|211:260|211:260|242:212|329:215,1,251.999992309577,14|0,2:0|2:0,2:1:0:0:
512,271,242553,5,12,2:0:0:0:
274,225,242721,1,8,2:1:0:0:
431,41,242890,1,8,2:1:0:0:
428,313,243058,5,8,2:0:0:0:
179,175,243227,1,8,2:1:0:0:
357,0,243395,1,8,2:1:0:0:
161,343,243564,5,10,2:0:0:0:
352,280,243733,1,10,2:1:0:0:
352,79,243901,1,10,2:1:0:0:
160,16,244070,1,10,2:0:0:0:
42,179,244238,1,10,2:1:0:0:
352,280,244407,1,10,2:1:0:0:
160,16,244575,1,10,2:1:0:0:
161,343,244744,5,12,2:0:0:0:
451,194,244912,1,8,2:1:0:0:
429,186,244997,1,8,2:1:0:0:
407,178,245081,1,8,2:1:0:0:
64,194,245249,5,12,2:0:0:0:
385,309,245418,1,8,2:1:0:0:
374,288,245502,1,8,2:1:0:0:
362,268,245586,1,8,2:1:0:0:
136,43,245755,5,12,2:0:0:0:
263,376,245924,1,8,2:1:0:0:
268,353,246008,1,8,2:1:0:0:
272,330,246092,1,8,2:1:0:0:
316,0,246250,5,12,2:0:0:0:
181,289,246409,1,8,2:1:0:0:
316,0,246568,1,8,2:1:0:0:
483,228,246736,5,12,2:0:0:0:
140,167,246905,1,8,2:1:0:0:
489,246,247073,1,12,2:0:0:0:
146,185,247243,1,8,2:1:0:0:
393,77,247413,5,12,2:0:0:0:
240,192,247590,1,8,2:3:0:0:
256,192,247679,1,8,2:3:0:0:
272,192,247768,1,8,2:3:0:0:
85,78,247945,5,4,2:0:0:0:
272,274,248112,1,8,2:3:0:0:
256,274,248196,1,8,2:3:0:0:
240,274,248280,1,8,2:3:0:0:
452,166,248447,5,12,2:0:0:0:
240,77,248615,1,0,2:0:0:0:
452,166,248782,1,8,2:0:0:0:
46,328,248950,5,8,2:1:0:0:
92,349,249034,1,8,2:1:0:0:
142,339,249119,1,8,2:1:0:0:
176,299,249203,1,8,2:0:0:0:
179,248,249287,1,8,2:0:0:0:
150,205,249371,1,8,2:0:0:0:
102,188,249456,5,8,2:0:0:0:
116,233,249540,1,8,2:3:0:0:
149,266,249624,1,8,2:3:0:0:
194,281,249708,1,8,2:3:0:0:
240,274,249793,1,8,2:3:0:0:
272,256,249877,1,8,2:3:0:0:
310,255,249961,1,8,2:3:0:0:
343,271,250046,1,8,2:3:0:0:
366,300,250130,6,0,P|417:305|493:281,1,125.999992309578,4|0,2:0|2:0,2:0:0:0:
466,104,250635,1,8,2:1:0:0:
466,104,250804,2,0,L|450:172,1,62.9999961547889,8|0,2:0|2:0,2:0:0:0:
372,40,251141,1,2,2:0:0:0:
372,40,251310,2,0,P|410:5|430:-5,1,62.9999961547889,2|8,2:0|2:1,2:0:0:0:
365,149,251647,1,8,2:0:0:0:
365,149,251815,2,0,P|315:133|297:121,1,62.9999961547889,2|8,2:0|2:1,2:0:0:0:
152,38,252152,5,6,2:0:0:0:
254,15,252321,1,8,2:1:0:0:
147,62,252489,1,10,2:0:0:0:
249,39,252658,1,8,2:1:0:0:
94,147,252826,6,0,P|48:61|52:6,1,125.999992309578,4|0,2:0|2:0,2:0:0:0:
47,34,253332,1,8,2:1:0:0:
94,147,253501,2,0,P|42:229|-7:253,1,125.999992309578,8|0,2:0|2:0,2:0:0:0:
20,243,254006,1,2,2:0:0:0:
94,147,254175,2,0,P|191:150|237:181,1,125.999992309578,4|2,2:3|2:0,2:0:0:0:
303,254,254680,1,8,2:1:0:0:
303,254,254765,1,8,2:1:0:0:
303,254,254849,1,8,2:0:0:0:
214,162,255017,5,8,2:0:0:0:
427,222,255186,1,8,2:0:0:0:
268,376,255355,1,8,2:1:0:0:
485,125,255523,5,12,2:0:0:0:
435,356,255692,1,8,2:1:0:0:
379,97,255860,5,8,2:0:0:0:
330,328,256029,1,8,2:1:0:0:
273,69,256197,5,8,2:0:0:0:
224,300,256366,1,8,2:1:0:0:
167,41,256534,5,8,2:0:0:0:
118,272,256703,1,8,2:1:0:0:
281,58,256871,5,8,2:0:0:0:
227,313,257040,1,8,2:1:0:0:
163,27,257208,5,8,2:0:0:0:
109,282,257377,1,8,2:1:0:0:
329,202,257546,5,8,2:0:0:0:
63,139,257714,1,8,2:1:0:0:
320,216,257883,5,8,2:0:0:0:
54,153,258051,1,8,2:1:0:0:
320,216,258220,6,0,L|406:205,1,84,12|8,2:0|2:1,2:0:0:0:
262,117,258557,37,8,2:1:0:0:
173,316,258725,1,8,2:1:0:0:
341,96,258894,1,8,2:0:0:0:
93,301,259062,1,8,2:0:0:0:
421,111,259231,1,8,2:0:0:0:
19,266,259399,1,8,2:0:0:0:
494,145,259568,6,0,L|508:95,1,51.3333333333333,4|2,0:0|0:0,0:0:0:0:
