osu file format v14

[General]
AudioFilename: audio.mp3
AudioLeadIn: 0
PreviewTime: 108478
Countdown: 0
SampleSet: Soft
StackLeniency: 0.7
Mode: 0
LetterboxInBreaks: 0
WidescreenStoryboard: 1

[Editor]
Bookmarks: 35754,108563,186765,211035,239349
DistanceSpacing: 1
BeatDivisor: 4
GridSize: 32
TimelineZoom: 1.9

[Metadata]
Title:border
TitleUnicode:border
Artist:ClariS
ArtistUnicode:ClariS
Creator:Azu
Version:Insane
Source:憑物語
Tags:Tsukimonogatari ending Fairy Castle 10th Anniversary BEST Pink Moon japanese anime pop j-pop jpop full size length version Mayu Sakuma Xexyz Azunyan- Ayana captin1
BeatmapID:3743317
BeatmapSetID:1701031

[Difficulty]
HPDrainRate:5
CircleSize:3
OverallDifficulty:8
ApproachRate:9
SliderMultiplier:1.6
SliderTickRate:1

[Events]
//Background and Video events
0,0,"yotsugi.jpg",0,0
Video,-103,"border.mp4"
//Break Periods
//Storyboard Layer 0 (Background)
//Storyboard Layer 1 (Fail)
//Storyboard Layer 2 (Pass)
//Storyboard Layer 3 (Foreground)
//Storyboard Layer 4 (Overlay)
//Storyboard Sound Samples

[TimingPoints]
690,337.078651685393,4,2,1,50,1,0
1364,-250.000000000001,4,2,1,50,0,0
11392,-250.000000000001,4,2,1,5,0,0
11476,-142.857142857143,4,2,1,60,0,0
30352,-125,4,2,1,60,0,0
34734,-111.111111111111,4,2,1,60,0,0
35746,-100,4,2,1,80,0,1
42739,-90.9090909090909,4,2,1,5,0,1
42824,-90.9090909090909,4,2,1,80,0,1
51840,-90.9090909090909,4,2,1,5,0,1
51925,-90.9090909090909,4,2,1,80,0,1
56222,-90.9090909090909,4,2,1,5,0,1
56307,-83.3333333333333,4,2,1,80,0,1
56559,-83.3333333333333,4,2,1,5,0,1
56645,-76.9230769230769,4,2,1,80,0,1
57319,-142.857142857143,4,2,1,80,0,1
58667,-100,4,2,1,80,0,1
62712,-249.999999999999,4,2,1,50,0,0
66757,-153.846153846153,4,2,1,50,0,0
84285,-125,4,2,1,50,0,0
85633,-125,4,2,1,50,0,0
108555,-100,4,2,1,80,0,1
115548,-90.9090909090909,4,2,1,5,0,1
115633,-90.9090909090909,4,2,1,80,0,1
124734,-90.9090909090909,4,2,1,80,0,1
124986,-90.9090909090909,4,2,1,5,0,1
125072,-90.9090909090909,4,2,1,80,0,1
129031,-90.9090909090909,4,2,1,5,0,1
129116,-83.3333333333333,4,2,1,80,0,1
129368,-90.9090909090909,4,2,1,5,0,1
129454,-76.9230769230769,4,2,1,80,0,1
130128,-142.857142857143,4,2,1,80,0,1
131476,-100,4,2,1,80,0,1
135521,-162.746354536577,4,2,1,50,0,0
138218,-203.174603174607,4,2,1,50,0,0
143611,-161.522689819336,4,2,1,50,0,0
146307,-133.472364226817,4,2,1,50,0,0
147656,-222.60868780184,4,2,1,50,0,0
149004,-133.472364226817,4,2,1,50,0,0
150352,-182.076808403901,4,2,1,50,0,0
151701,-137.339059633918,4,2,1,50,0,0
153049,-189.349119725002,4,2,1,50,0,0
154397,-133.333333333333,4,2,1,50,0,0
155746,-222.60868780184,4,2,1,50,0,0
157094,-133.333333333333,4,2,1,50,0,0
161139,-153.846153846153,4,2,1,50,0,0
167881,-125,4,2,1,50,0,0
184060,-175.824181189903,4,2,1,50,0,0
186673,-175.824181189903,4,2,1,5,0,0
186757,-100,4,2,1,80,0,1
191054,-76.9230769230769,4,2,1,5,0,1
191139,-90.9090909090909,4,2,1,80,0,1
200155,-90.9090909090909,4,2,1,5,0,1
200240,-90.9090909090909,4,2,1,80,0,1
204537,-76.9230769230769,4,2,1,5,0,1
204622,-83.3333333333333,4,2,1,80,0,1
204874,-83.3333333333333,4,2,1,5,0,1
204959,-76.9230769230769,4,2,1,80,0,1
205633,-142.857142857143,4,2,1,80,0,1
206982,-100,4,2,1,80,0,1
209349,317.460317460317,4,2,1,80,1,0
209666,335.195530726257,4,2,1,80,1,0
210336,337.078651685393,4,2,1,80,1,0
211010,338.983050847458,4,2,1,80,1,1
211010,-90.9090909090909,4,2,1,80,0,1
211264,-90.9090909090909,4,2,1,5,0,1
211348,-90.9090909090909,4,2,1,80,0,1
211687,350.877192982456,4,2,1,80,1,1
212037,-90.9090909090909,4,2,1,80,0,1
212388,335.195530726257,4,2,1,80,1,1
213058,331.491712707182,4,2,1,80,1,1
213389,346.820809248555,4,2,1,80,1,1
213735,337.078651685393,4,2,1,80,1,1
213735,-90.9090909090909,4,2,1,80,0,1
216094,329.67032967033,4,2,1,80,1,1
216423,337.078651685393,4,2,1,80,1,1
216423,-90.9090909090909,4,2,1,80,0,1
217771,-90.9090909090909,4,2,1,80,0,1
218024,-90.9090909090909,4,2,1,5,0,1
218108,-90.9090909090909,4,2,1,80,0,1
226872,-90.9090909090909,4,2,1,80,0,1
227124,-90.9090909090909,4,2,1,5,0,1
227209,-90.9090909090909,4,2,1,80,0,1
231506,-90.9090909090909,4,2,1,5,0,1
231591,-90.9090909090909,4,2,1,80,0,1
231843,-90.9090909090909,4,2,1,5,0,1
231928,-90.9090909090909,4,2,1,80,0,1
232602,-142.857142857143,4,2,1,80,0,1
234962,-90.9090909090909,4,2,1,80,0,1
236647,-90.9090909090909,4,2,1,60,0,0
238333,324.324324324324,4,2,1,40,1,0
238657,337.078651685393,4,2,1,40,1,0
238657,-133.333333333333,4,2,1,40,0,0
238678,-133.333333333333,4,2,1,50,0,0
238994,357.142857142857,4,2,1,60,1,0
238994,-100,4,2,1,60,0,0
239351,337.078651685393,4,2,1,80,1,1
239351,-90.9090909090909,4,2,1,80,0,1
246092,317.460317460317,4,2,1,80,1,1
246568,337.078651685393,4,2,1,80,1,1
247073,340.909090909091,4,2,1,80,1,1
247413,355.029585798817,4,2,1,80,1,1
247945,335.195530726257,4,2,1,80,1,1
248782,337.078651685393,4,2,1,60,1,1
250130,-142.857154067672,4,2,1,80,0,0
250635,-111.111117892789,4,2,1,80,0,0
255523,-90.9090954488918,4,2,1,80,0,1
258220,-90.9090909090909,4,2,1,80,0,1
259568,-83.3333333333333,4,2,1,80,0,0

[Colours]
Combo1 : 241,215,154
Combo2 : 170,218,135
Combo3 : 137,188,239
Combo4 : 245,137,167

[HitObjects]
349,137,690,5,2,2:0:0:0:
389,153,858,1,0,2:0:0:0:
433,151,1027,1,0,2:0:0:0:
471,131,1195,1,0,2:0:0:0:
318,107,1364,2,0,P|279:108|243:116,1,64,2|0,2:0|2:0,2:0:0:0:
260,252,1869,2,0,P|278:217|289:182,2,64,2|0|0,2:0|2:0|2:0,2:0:0:0:
260,252,2881,1,2,2:0:0:0:
163,291,3218,1,2,2:0:0:0:
163,291,3386,6,0,L|92:277,1,64,2|0,2:0|2:0,2:0:0:0:
186,200,3892,2,0,L|117:186,1,64,2|2,2:0|2:0,2:0:0:0:
0,99,4566,2,0,B|24:81|24:81|98:94,1,96,2|2,2:0|2:0,2:0:0:0:
223,40,5409,2,0,L|192:33,1,32,2|0,2:0|2:0,2:0:0:0:
230,56,5746,2,0,L|199:48,1,32,2|0,2:0|2:0,2:0:0:0:
315,24,6083,5,2,2:0:0:0:
315,24,6251,1,0,2:0:0:0:
399,64,6420,1,2,2:0:0:0:
399,64,6588,1,0,2:0:0:0:
483,105,6757,2,0,L|492:176,1,64,2|0,2:0|2:0,2:0:0:0:
408,216,7263,2,0,L|399:152,1,64,2|2,2:0|2:0,2:0:0:0:
322,254,7937,2,0,P|290:252|254:243,1,64,2|0,2:0|2:0,2:0:0:0:
140,164,8611,1,2,2:0:0:0:
139,164,8779,6,0,B|118:203|118:203|133:290,2,128,2|0|0,2:0|2:0|2:0,2:0:0:0:
139,164,10802,1,2,2:0:0:0:
139,164,10970,1,2,2:0:0:0:
61,199,11139,2,0,L|7:183,1,48,2|0,2:0|2:0,2:0:0:0:
17,188,11476,6,0,P|1:134|10:79,1,111.999996582031,4|0,2:0|2:0,2:0:0:0:
81,15,11982,2,0,L|143:-3,1,55.9999982910157,2|8,2:0|2:1,2:0:0:0:
220,72,12319,2,0,L|166:87,1,55.9999982910157,2|8,2:0|2:1,2:0:0:0:
134,0,12656,1,2,2:0:0:0:
205,97,12824,6,0,P|265:83|332:58,1,111.999996582031,6|8,2:3|2:1,2:0:0:0:
420,164,13330,2,0,L|359:153,1,55.9999982910157,2|8,2:0|2:1,2:0:0:0:
322,47,13667,2,0,L|377:57,1,55.9999982910157,2|8,2:0|2:1,2:0:0:0:
464,75,14004,1,2,2:0:0:0:
345,141,14173,6,0,L|364:251,1,112,10|8,2:1|2:1,2:0:0:0:
262,228,14678,2,0,L|274:299,1,55.9999982910157,2|8,2:0|2:1,2:0:0:0:
354,269,15015,2,0,L|363:325,1,55.9999982910157,2|8,2:0|2:1,2:0:0:0:
228,359,15352,6,0,P|148:379|114:367,1,112,2|0,2:0|2:0,2:0:0:0:
124,246,15858,2,0,P|165:285|170:301,1,56,10|0,2:1|2:0,2:0:0:0:
102,355,16195,2,0,L|36:342,1,55.9999982910157,10|0,2:1|2:0,2:0:0:0:
69,233,16532,2,0,L|124:246,1,55.9999982910157,10|0,2:1|2:0,2:0:0:0:
250,217,16869,5,10,2:1:0:0:
162,121,17038,1,2,2:0:0:0:
124,246,17206,1,10,2:1:0:0:
250,217,17375,2,0,P|301:226|367:242,2,112,2|0|0,2:0|2:0|2:0,2:0:0:0:
348,217,18218,6,0,L|402:203,1,56,10|0,2:1|2:0,2:0:0:0:
478,135,18555,1,10,2:1:0:0:
392,68,18723,2,0,L|378:201,2,111.999996582031,2|0|2,2:0|2:0|2:0,2:0:0:0:
301,16,19566,2,0,L|245:7,1,55.9999982910157,2|0,2:0|2:0,2:0:0:0:
211,113,19903,1,10,2:1:0:0:
211,113,20072,2,0,L|270:123,1,55.9999982910157,2|8,2:0|2:1,2:0:0:0:
129,23,20409,1,2,2:0:0:0:
88,136,20577,1,10,2:1:0:0:
129,23,20746,1,2,2:0:0:0:
189,194,20914,6,0,L|194:239,3,28,2|0|0|0,3:2|3:0|3:0|3:0,2:0:0:0:
100,169,21251,2,0,L|105:214,3,28,2|0|0|0,3:2|3:0|3:0|3:0,2:0:0:0:
278,219,21588,5,8,2:0:0:0:
278,219,21757,1,8,2:0:0:0:
11,144,22263,5,6,2:3:0:0:
11,249,22431,1,2,2:0:0:0:
110,281,22600,1,2,2:0:0:0:
172,197,22768,1,10,2:1:0:0:
110,112,22937,1,10,2:0:0:0:
110,112,23274,1,10,2:1:0:0:
172,197,23442,6,0,P|230:183|305:164,2,111.999996582031,10|10|10,2:1|2:0|2:1,2:0:0:0:
271,200,24454,1,10,2:1:0:0:
271,200,24622,2,0,L|348:180,1,55.9999982910157,2|0,2:0|0:0,0:0:0:0:
500,132,24959,5,6,2:3:0:0:
394,108,25128,1,10,2:1:0:0:
463,31,25296,1,2,2:0:0:0:
500,132,25465,1,10,2:1:0:0:
440,248,25633,2,0,L|406:115,1,111.999996582031,10|8,2:0|2:1,2:0:0:0:
323,29,26139,6,0,L|301:116,1,55.9999982910157,10|0,2:1|2:0,2:0:0:0:
221,43,26476,2,0,L|207:97,1,55.9999982910157,10|0,2:0|2:0,2:0:0:0:
119,57,26813,2,0,L|105:111,1,55.9999982910157,10|8,2:1|2:0,2:0:0:0:
116,208,27150,2,0,L|83:201,1,27.9999991455078,8|8,2:1|2:1,2:0:0:0:
4,188,27319,1,8,2:0:0:0:
4,188,27656,6,0,L|23:265,1,55.9999982910157,12|0,2:0|2:0,2:0:0:0:
149,295,27993,5,10,2:0:0:0:
119,371,28161,1,10,2:1:0:0:
17,242,28330,1,10,2:0:0:0:
98,230,28498,1,10,2:1:0:0:
37,383,28667,1,10,2:0:0:0:
280,314,28836,5,10,2:1:0:0:
149,295,29004,1,8,2:0:0:0:
284,332,29173,1,10,2:1:0:0:
154,313,29341,1,8,2:0:0:0:
288,350,29510,1,10,2:1:0:0:
158,331,29678,1,8,2:0:0:0:
369,246,29847,5,8,2:3:0:0:
319,124,30015,1,8,2:3:0:0:
239,228,30184,1,8,2:3:0:0:
450,143,30352,6,0,L|463:69,1,64,12|0,2:1|2:0,2:0:0:0:
360,116,30689,2,0,L|373:42,1,64,8|0,2:1|2:0,2:0:0:0:
270,89,31027,2,0,L|283:15,1,64,8|0,2:1|2:0,2:0:0:0:
360,116,31364,1,8,2:1:0:0:
145,116,31532,1,8,2:1:0:0:
145,116,31616,1,8,2:1:0:0:
145,116,31701,6,0,L|270:88,1,128,4|8,2:3|2:1,2:0:0:0:
258,182,32206,2,0,L|195:195,1,64,2|8,2:0|2:1,2:0:0:0:
215,283,32543,2,0,L|278:270,1,64,2|8,2:0|2:1,2:0:0:0:
277,270,32881,1,2,2:0:0:0:
439,241,33049,5,14,2:0:0:0:
350,215,33218,1,8,2:1:0:0:
350,215,33386,1,8,2:1:0:0:
373,122,33555,5,10,2:0:0:0:
465,148,33723,1,8,2:1:0:0:
465,148,33892,1,8,2:1:0:0:
493,51,34060,5,10,2:0:0:0:
397,26,34229,1,8,2:1:0:0:
397,26,34397,1,8,2:1:0:0:
342,129,34566,5,8,2:0:0:0:
342,129,34650,1,8,2:0:0:0:
342,129,34734,2,0,L|392:117,3,35.9999989013672,8|8|8|8,2:0|2:0|2:0|2:0,2:0:0:0:
291,1,35072,5,10,2:0:0:0:
205,109,35240,1,10,2:0:0:0:
205,109,35746,6,0,P|117:83|18:69,2,160,6|8|8,2:0|2:0|2:1,2:0:0:0:
296,169,36588,1,8,2:1:0:0:
200,219,36757,2,0,L|115:245,1,80,8|0,2:0|2:0,2:0:0:0:
0,196,37094,5,10,2:1:0:0:
68,153,37263,1,0,2:0:0:0:
110,222,37431,1,8,2:0:0:0:
41,264,37600,1,0,2:0:0:0:
175,330,37768,2,0,L|266:347,1,80,10|8,2:1|2:1,0:0:0:0:
371,291,38105,1,8,2:0:0:0:
450,377,38274,1,8,2:1:0:0:
450,377,38358,1,8,2:1:0:0:
450,377,38442,6,0,P|482:290|470:193,1,160,6|8,2:3|2:0,2:0:0:0:
476,96,38948,1,2,2:0:0:0:
295,135,39116,2,0,B|381:148,1,80,10|8,2:1|2:1,2:0:0:0:
476,96,39454,1,10,2:0:0:0:
476,96,39622,1,2,2:0:0:0:
300,11,39791,6,0,B|278:57|278:57|317:170,1,160,8|8,2:1|2:0,2:0:0:0:
361,358,40465,1,8,2:1:0:0:
361,358,40633,1,8,2:1:0:0:
236,227,40802,1,10,2:0:0:0:
297,293,40970,1,2,2:0:0:0:
180,366,41139,6,0,L|102:347,1,80,4|0,2:0|2:0,2:0:0:0:
0,324,41476,1,10,2:0:0:0:
52,167,41645,2,0,L|69:268,1,80,2|8,2:0|2:1,2:0:0:0:
151,92,41982,2,0,L|168:193,1,80,10|8,2:1|2:0,2:0:0:0:
245,290,42319,1,8,2:1:0:0:
245,290,42403,1,8,2:1:0:0:
245,290,42487,6,0,L|365:261,1,120,6|0,2:3|2:0,2:0:0:0:
384,283,42824,2,0,L|479:261,1,88.000002685547,10|0,2:0|2:0,2:0:0:0:
476,80,43161,1,10,2:1:0:0:
473,176,43330,1,10,2:1:0:0:
476,80,43498,2,0,L|379:103,1,88.000002685547,10|0,2:0|2:0,2:0:0:0:
269,92,43836,6,0,B|246:147|246:147|271:260,2,176.000005371094,6|8|8,2:3|2:0|2:1,2:0:0:0:
336,0,44678,1,10,2:1:0:0:
387,100,44847,1,10,2:0:0:0:
336,0,45015,1,2,2:0:0:0:
157,33,45184,5,8,2:1:0:0:
269,92,45352,1,8,2:1:0:0:
243,7,45521,1,10,2:0:0:0:
184,119,45689,1,2,2:0:0:0:
11,68,45858,2,0,L|98:95,1,88.000002685547,8|8,2:1|2:1,0:0:0:0:
111,201,46195,2,0,L|26:174,1,88.000002685547,10|2,2:0|2:0,0:0:0:0:
283,117,46532,6,0,L|249:306,1,176.000005371094,4|8,2:0|2:0,2:0:0:0:
77,370,47038,2,0,P|123:328|161:306,1,88.000002685547,2|8,2:0|2:1,2:0:0:0:
272,263,47375,2,0,L|362:284,1,88.000002685547,10|8,2:1|2:0,2:0:0:0:
485,353,47712,1,8,2:1:0:0:
485,353,47796,1,8,2:1:0:0:
485,353,47881,6,0,L|292:387,2,176.000005371094,4|8|8,2:3|2:0|2:1,2:0:0:0:
422,202,48723,1,8,2:1:0:0:
457,282,48892,1,10,2:0:0:0:
457,282,49060,1,2,2:0:0:0:
386,128,49229,6,0,L|291:146,1,88.000002685547,4|0,2:3|2:0,2:0:0:0:
299,144,49566,1,10,2:0:0:0:
162,56,49734,2,0,P|184:90|209:139,1,88.000002685547,2|8,2:0|2:1,2:0:0:0:
44,56,50072,2,0,P|67:93|87:132,1,88.000002685547,2|8,2:0|2:0,2:0:0:0:
145,238,50409,1,8,2:1:0:0:
43,292,50577,5,8,2:0:0:0:
43,292,50661,1,8,2:0:0:0:
43,292,50746,2,0,P|84:272|144:267,1,88.000002685547,8|8,2:1|2:1,0:0:0:0:
281,356,51083,1,8,2:0:0:0:
281,356,51167,1,8,2:0:0:0:
281,356,51251,2,0,P|246:326|218:272,1,88.000002685547,8|8,2:1|2:1,0:0:0:0:
196,116,51588,1,12,2:0:0:0:
196,116,51925,6,0,B|226:303,2,176.000005371094,4|8|8,2:0|2:0|2:1,2:0:0:0:
218,0,52768,1,8,2:1:0:0:
315,74,52937,2,0,L|420:94,1,88.000002685547,8|0,2:0|2:0,2:0:0:0:
502,112,53274,5,6,2:3:0:0:
502,112,53442,1,0,2:0:0:0:
462,18,53611,1,8,2:0:0:0:
462,18,53779,1,0,2:0:0:0:
387,114,53948,2,0,P|392:163|412:223,1,88.000002685547,10|8,2:1|2:1,0:0:0:0:
454,286,54285,1,8,2:0:0:0:
299,350,54454,1,8,2:1:0:0:
299,350,54538,1,8,2:1:0:0:
299,350,54622,6,0,L|479:307,1,176.000005371094,6|8,2:3|2:0,2:0:0:0:
402,200,55128,1,2,2:0:0:0:
330,328,55296,2,0,L|233:358,1,88.000002685547,10|8,2:1|2:1,0:0:0:0:
122,180,55633,2,0,P|172:235|181:266,1,88.000002685547,8|0,2:0|2:0,2:0:0:0:
109,368,55970,6,0,P|36:349|-9:275,1,132.00000402832,6|0,2:3|2:0,2:0:0:0:
68,241,56307,6,0,L|99:65,1,143.999995605469,10|0,2:0|2:0,2:0:0:0:
134,0,56645,6,0,B|181:16|196:77|196:77|250:111|336:84,1,207.999990478516,6|8,2:3|2:0,2:0:0:0:
355,0,57150,1,2,2:0:0:0:
476,100,57319,6,0,L|453:222,1,111.999996582031,4|0,2:0|2:0,2:0:0:0:
474,310,57824,1,8,2:1:0:0:
474,310,57993,2,0,L|463:373,1,55.9999982910157,8|8,2:0|2:1,2:0:0:0:
388,273,58330,1,2,2:1:0:0:
388,273,58498,1,2,2:1:0:0:
260,384,58667,6,0,L|333:353,1,80,6|8,2:3|2:0,2:0:0:0:
388,273,59004,1,2,2:0:0:0:
295,181,59173,2,0,L|278:288,1,80,10|8,2:1|2:0,2:0:0:0:
213,136,59510,1,10,2:0:0:0:
127,98,59678,2,0,L|40:60,1,80,8|0,2:0|0:0,0:0:0:0:
11,268,60015,5,12,2:0:0:0:
130,196,60184,1,8,2:1:0:0:
83,366,60352,5,10,2:0:0:0:
141,179,60521,1,8,2:1:0:0:
274,328,60689,6,0,L|181:305,1,80,10|8,2:0|2:1,0:0:0:0:
240,137,61027,2,0,L|317:156,1,80,10|8,2:0|2:1,0:0:0:0:
494,244,61364,5,8,2:0:0:0:
317,156,61532,1,8,2:1:0:0:
420,79,61701,1,8,2:1:0:0:
420,79,61785,1,8,2:1:0:0:
420,79,61869,1,8,2:1:0:0:
225,162,62038,5,8,3:2:0:0:
195,46,62206,1,8,3:2:0:0:
312,13,62375,1,8,3:2:0:0:
344,131,62543,1,8,3:2:0:0:
225,162,62712,6,0,L|156:146,3,64,4|8|8|8,2:0|2:1|2:1|2:1,2:0:0:0:
225,162,63892,1,2,2:0:0:0:
406,145,64060,2,0,L|337:129,3,64,4|8|8|8,2:3|2:1|2:1|2:1,2:0:0:0:
343,130,65240,1,2,2:0:0:0:
407,251,65409,2,0,L|469:236,3,64,4|8|8|8,2:0|2:1|2:1|2:1,2:0:0:0:
374,338,66588,1,8,2:1:0:0:
374,338,66673,1,8,2:1:0:0:
374,338,66757,6,0,L|255:367,1,103.999995239258,4|8,2:3|2:1,2:0:0:0:
315,251,67263,2,0,L|214:277,1,103.999995239258,2|0,2:0|2:0,2:0:0:0:
134,301,67768,1,10,2:1:0:0:
134,301,67937,1,2,2:0:0:0:
29,226,68105,6,0,L|17:175,1,51.999997619629,4|0,2:0|2:0,2:0:0:0:
107,181,68442,2,0,L|95:130,1,51.999997619629,8|0,2:1|2:0,2:0:0:0:
176,63,68779,2,0,L|188:12,1,51.999997619629,8|0,2:1|2:0,2:0:0:0:
254,108,69116,2,0,L|266:57,1,51.999997619629,8|0,2:1|2:0,2:0:0:0:
365,26,69454,6,0,L|262:59,1,103.999995239258,4|8,2:0|2:1,2:0:0:0:
330,146,69959,2,0,L|431:115,1,103.999995239258,2|0,2:0|2:0,2:0:0:0:
470,18,70465,6,0,L|516:2,2,34.6666650797527,10|2|2,2:1|2:0|2:0,0:0:0:0:
395,75,70802,6,0,L|410:138,1,51.999997619629,4|0,2:0|2:0,2:0:0:0:
484,197,71139,2,0,L|499:260,1,51.999997619629,8|0,2:1|2:0,2:0:0:0:
455,347,71476,2,0,P|436:330|402:322,1,51.999997619629,8|0,2:1|2:0,2:0:0:0:
327,253,71813,2,0,P|346:236|380:228,1,51.999997619629,8|0,2:1|2:0,2:0:0:0:
245,313,72150,6,0,P|226:287|206:271,1,52.5000000000001,8|0,2:1|2:0,2:0:0:0:
88,372,72487,1,8,2:1:0:0:
88,372,72656,2,0,P|121:368|144:359,1,51.999997619629,8|0,2:3|2:0,2:0:0:0:
116,206,72993,1,8,2:3:0:0:
116,206,73161,2,0,P|103:235|100:260,1,52.5000000000001,8|0,2:3|2:0,2:0:0:0:
210,274,73498,6,0,L|273:288,2,51.999997619629,4|0|8,2:0|2:0|2:1,0:0:0:0:
116,206,74004,1,0,2:0:0:0:
265,169,74173,2,0,L|215:154,1,51.999997619629,10|0,2:1|2:0,2:0:0:0:
108,43,74510,1,2,2:0:0:0:
108,43,74678,6,0,L|129:114,1,52.5000000000001,2|8,2:0|2:1,2:0:0:0:
201,6,75015,2,0,L|215:56,1,51.999997619629,2|8,2:0|2:1,2:0:0:0:
337,79,75352,2,0,L|322:129,1,51.999997619629,2|8,2:0|2:1,2:0:0:0:
430,116,75689,2,0,L|409:187,1,52.5000000000001,2|8,2:0|2:1,2:0:0:0:
415,166,76027,1,2,2:0:0:0:
342,232,76195,6,0,L|292:247,1,52.5000000000001,4|0,2:3|2:0,2:0:0:0:
352,329,76532,1,10,2:1:0:0:
352,329,76701,2,0,L|403:315,1,51.999997619629,2|8,2:0|2:1,2:0:0:0:
497,261,77038,2,0,L|512:211,1,51.999997619629,2|8,2:0|2:1,2:0:0:0:
439,89,77375,1,8,2:1:0:0:
439,89,77459,1,8,2:1:0:0:
439,89,77543,6,0,L|408:201,1,103.999995239258,4|8,2:3|2:1,2:0:0:0:
410,190,78049,1,2,2:0:0:0:
390,291,78218,2,0,P|336:291|282:269,1,103.999995239258,8|8,2:1|2:1,2:0:0:0:
289,273,78723,1,2,2:0:0:0:
215,214,78892,6,0,L|149:230,1,51.999997619629,4|0,2:3|2:0,2:0:0:0:
77,247,79229,1,10,2:1:0:0:
77,247,79397,1,2,2:0:0:0:
205,319,79566,2,0,L|134:337,1,51.999997619629,10|0,2:1|2:0,2:0:0:0:
67,354,79903,1,10,2:1:0:0:
86,195,80072,6,0,L|76:247,1,51.999997619629,2|8,2:0|2:1,2:0:0:0:
172,211,80409,2,0,L|181:160,1,51.999997619629,2|8,2:0|2:1,2:0:0:0:
81,177,80746,2,0,L|71:229,1,51.999997619629,2|8,2:0|2:1,2:0:0:0:
167,193,81083,2,0,L|176:142,1,51.999997619629,2|8,2:0|2:1,2:0:0:0:
192,51,81420,1,0,2:0:0:0:
264,108,81588,6,0,L|382:84,1,103.999995239258,4|8,2:3|2:1,2:0:0:0:
366,88,82094,1,2,2:0:0:0:
440,29,82263,2,0,P|456:69|463:147,1,103.999995239258,8|8,2:1|2:1,2:0:0:0:
463,129,82768,1,2,2:0:0:0:
443,214,82937,1,8,2:1:0:0:
412,297,83105,6,0,L|380:285,1,26.2500000000001,2|2,2:0|2:0,2:0:0:0:
308,257,83274,1,10,2:1:0:0:
403,319,83442,2,0,L|371:307,1,26.2500000000001,2|2,2:0|2:0,2:0:0:0:
299,279,83611,1,2,2:1:0:0:
321,132,83779,5,8,2:1:0:0:
443,214,83948,1,8,2:0:0:0:
443,214,84285,2,0,P|462:170|468:137,1,64,6|2,2:0|2:0,0:0:0:0:
424,58,84622,1,10,2:0:0:0:
339,117,84791,2,0,L|253:93,1,64,2|8,2:1|2:1,0:0:0:0:
159,3,85128,2,0,P|191:56|198:79,1,64,10|8,2:1|2:0,0:0:0:0:
201,150,85465,1,2,2:0:0:0:
201,150,85633,6,0,L|192:214,1,64,4|0,2:3|2:0,2:0:0:0:
118,107,85970,1,8,2:0:0:0:
118,107,86139,2,0,L|107:187,1,64,2|8,2:0|2:1,2:0:0:0:
113,264,86476,2,0,L|30:285,1,64,10|8,2:1|2:0,2:0:0:0:
199,312,86813,1,8,2:1:0:0:
199,312,86897,1,8,2:1:0:0:
199,312,86982,6,0,L|339:352,1,128,4|8,2:3|2:0,2:0:0:0:
434,258,87487,2,0,L|310:222,1,128,2|8,2:0|2:1,2:0:0:0:
310,222,87993,1,8,2:0:0:0:
224,136,88161,2,0,P|207:87|206:7,1,128,2|0,2:0|2:0,2:0:0:0:
293,39,88667,5,10,2:0:0:0:
205,11,88836,1,0,2:0:0:0:
292,64,89004,5,10,2:1:0:0:
204,36,89173,1,8,2:1:0:0:
380,92,89341,2,0,L|466:65,1,64,10|0,2:0|2:0,0:0:0:0:
471,183,89678,6,0,L|409:202,2,64,4|0|8,2:3|2:0|2:0,0:0:0:0:
307,174,90184,2,0,P|287:222|282:255,1,64,2|8,2:0|2:1,2:0:0:0:
420,358,90521,2,0,P|388:316|362:295,1,64,10|8,2:1|2:0,2:0:0:0:
284,233,90858,1,2,2:0:0:0:
265,349,91027,6,0,L|188:328,1,64,4|0,2:3|2:0,2:0:0:0:
196,194,91364,1,8,2:0:0:0:
196,194,91532,2,0,L|267:215,1,64,2|8,2:0|2:1,2:0:0:0:
173,309,91869,2,0,L|112:326,1,64,10|8,2:1|2:0,2:0:0:0:
112,325,92206,1,0,2:0:0:0:
0,231,92375,6,0,L|41:379,1,128,4|8,2:3|2:0,2:0:0:0:
17,208,92881,2,0,L|0:146,1,64,2|8,2:0|2:1,0:0:0:0:
42,24,93218,5,10,2:1:0:0:
117,55,93386,1,10,2:0:0:0:
193,87,93555,1,2,2:0:0:0:
115,172,93723,6,0,L|144:161,3,32,2|0|0|0,3:2|3:0|3:0|3:0,2:0:0:0:
229,211,94060,2,0,L|258:200,3,32,2|0|0|0,3:2|3:0|3:0|3:0,2:0:0:0:
193,87,94397,5,8,2:0:0:0:
193,87,94566,1,8,2:0:0:0:
326,115,94734,1,8,2:0:0:0:
326,115,94819,1,8,2:0:0:0:
326,115,94903,2,0,L|365:128,1,32,8|8,2:0|2:0,0:0:0:0:
436,284,95072,5,6,2:3:0:0:
338,252,95240,1,2,2:0:0:0:
338,149,95409,1,10,2:0:0:0:
436,118,95577,1,2,2:0:0:0:
496,201,95746,1,10,2:1:0:0:
496,201,96083,1,10,2:0:0:0:
355,276,96251,6,0,P|312:287|286:303,1,64,2|8,2:0|2:1,2:0:0:0:
181,163,96588,2,0,P|212:194|238:209,1,64,2|8,2:0|2:0,2:0:0:0:
171,371,96925,2,0,P|182:328|182:297,1,64,2|8,2:0|2:1,2:0:0:0:
228,204,97263,1,2,2:0:0:0:
228,204,97431,1,10,2:0:0:0:
18,266,97768,5,6,2:3:0:0:
119,235,97937,1,2,2:0:0:0:
18,266,98105,2,0,L|-5:181,1,64,8|0,2:0|2:0,2:0:0:0:
66,86,98442,2,0,L|152:109,1,64,10|0,2:1|2:0,2:0:0:0:
167,225,98779,1,10,2:0:0:0:
167,225,98948,2,0,L|99:206,1,64,2|8,2:0|2:1,2:0:0:0:
177,16,99285,6,0,P|218:59|228:80,1,64,2|8,2:0|2:0,2:0:0:0:
332,175,99622,2,0,P|348:117|361:98,1,64,2|8,2:0|2:1,2:0:0:0:
420,0,99959,1,2,2:0:0:0:
491,114,100128,1,10,2:0:0:0:
491,114,100465,5,4,2:0:0:0:
491,114,102656,6,0,L|483:145,1,32,10|0,2:1|2:0,2:0:0:0:
429,208,102824,2,0,L|409:293,1,64,4|0,2:0|2:0,2:0:0:0:
389,384,103161,5,4,2:0:0:0:
304,303,103330,2,0,L|318:254,2,32,8|8|8,2:0|2:0|2:0,0:0:0:0:
199,335,103667,1,8,2:0:0:0:
188,340,103751,1,8,2:0:0:0:
177,345,103836,1,8,2:0:0:0:
213,217,104004,2,0,L|182:208,2,32,8|8|8,2:0|2:0|2:0,0:0:0:0:
100,270,104341,1,8,2:0:0:0:
89,275,104425,1,8,2:0:0:0:
78,280,104510,5,8,2:0:0:0:
88,154,104678,2,0,L|94:119,2,32,8|8|8,2:0|2:0|2:0,0:0:0:0:
211,90,105015,1,8,2:0:0:0:
199,89,105100,1,8,2:0:0:0:
186,89,105184,1,8,2:0:0:0:
318,153,105352,5,8,2:0:0:0:
333,156,105437,1,8,2:0:0:0:
349,159,105521,1,8,2:0:0:0:
364,163,105605,1,8,2:0:0:0:
381,166,105689,2,0,L|402:200,1,32,8|8,2:0|2:0,0:0:0:0:
440,302,105858,5,12,2:0:0:0:
507,217,106027,1,8,2:1:0:0:
440,302,106195,1,8,2:1:0:0:
471,108,106364,5,12,2:0:0:0:
397,193,106532,1,8,2:1:0:0:
471,108,106701,1,8,2:1:0:0:
246,75,106869,5,8,2:0:0:0:
351,91,107038,1,8,2:1:0:0:
246,75,107206,1,8,2:1:0:0:
397,193,107375,5,8,2:0:0:0:
397,193,107459,1,8,2:0:0:0:
397,193,107543,2,0,L|349:207,1,32,8|8,2:0|2:0,2:0:0:0:
229,186,107712,2,0,L|198:194,1,32,8|8,2:0|2:0,2:0:0:0:
167,349,107881,5,10,2:0:0:0:
243,168,108049,1,10,2:0:0:0:
361,324,108218,2,0,B|372:311|372:311|375:294,3,32,8|8|8|8,2:3|2:3|2:3|2:3,0:0:0:0:
297,384,108555,6,0,P|385:358|484:344,2,160,4|8|8,2:0|2:0|2:1,2:0:0:0:
253,286,109397,1,8,2:1:0:0:
167,349,109566,2,0,L|82:375,1,80,8|0,2:0|2:0,2:0:0:0:
0,220,109903,5,10,2:1:0:0:
74,190,110072,1,0,2:0:0:0:
102,266,110240,1,8,2:0:0:0:
26,293,110409,1,0,2:0:0:0:
87,171,110577,2,0,L|179:187,1,80,10|8,2:1|2:1,0:0:0:0:
255,199,110914,1,8,2:0:0:0:
378,349,111083,1,8,0:1:0:0:
378,349,111167,1,8,0:1:0:0:
378,349,111251,6,0,P|330:283|348:202,1,160,6|8,2:3|2:0,2:0:0:0:
370,110,111757,1,2,2:0:0:0:
512,200,111925,2,0,B|432:188,1,80,10|8,2:1|2:1,2:0:0:0:
342,209,112263,1,10,2:0:0:0:
432,188,112431,1,2,2:0:0:0:
314,35,112600,6,0,B|219:22|257:71|157:63,1,160,4|8,2:3|2:0,2:0:0:0:
160,63,113274,1,8,2:1:0:0:
160,63,113442,1,8,2:1:0:0:
82,129,113611,1,10,2:0:0:0:
63,28,113779,1,2,2:0:0:0:
101,230,113948,6,0,L|189:251,1,80,4|0,2:0|2:0,2:0:0:0:
82,129,114285,1,10,2:0:0:0:
5,196,114454,2,0,P|-2:240|7:293,1,80,2|8,2:0|2:1,2:0:0:0:
187,269,114791,2,0,L|98:247,1,80,10|8,2:1|2:0,2:0:0:0:
261,159,115128,1,8,2:1:0:0:
261,159,115212,1,8,2:1:0:0:
261,159,115296,6,0,B|347:135|347:135|379:146,1,120,4|0,2:3|2:0,2:0:0:0:
472,170,115633,2,0,L|491:264,1,88.000002685547,8|0,2:0|2:0,2:0:0:0:
475,358,115970,1,8,2:1:0:0:
404,286,116139,1,8,2:1:0:0:
475,358,116307,2,0,L|367:389,1,88.000002685547,8|0,2:0|2:0,2:0:0:0:
284,183,116645,6,0,B|308:240|308:240|278:352,2,176.000005371094,4|8|8,2:3|2:0|2:1,2:0:0:0:
178,132,117487,1,10,2:1:0:0:
78,81,117656,1,10,2:0:0:0:
178,132,117824,1,2,2:0:0:0:
7,134,117993,5,8,2:1:0:0:
116,195,118161,1,8,2:1:0:0:
93,110,118330,1,10,2:0:0:0:
30,220,118498,1,2,2:0:0:0:
178,132,118667,2,0,L|266:108,1,88.000002685547,8|8,2:1|2:1,0:0:0:0:
409,231,119004,2,0,P|366:176|356:150,1,88.000002685547,10|2,2:0|2:0,0:0:0:0:
363,0,119341,6,0,L|342:192,1,176.000005371094,4|8,2:0|2:0,2:0:0:0:
301,289,119847,2,0,L|289:376,1,88.000002685547,2|8,2:0|2:1,2:0:0:0:
142,219,120184,2,0,P|192:199|253:194,1,88.000002685547,10|8,2:1|2:0,2:0:0:0:
95,378,120521,1,8,2:1:0:0:
95,378,120605,1,8,2:1:0:0:
95,378,120689,6,0,P|24:323|0:228,2,176.000005371094,4|8|8,2:3|2:0|2:1,2:0:0:0:
227,334,121532,1,8,2:1:0:0:
122,242,121701,1,10,2:0:0:0:
95,378,121869,1,2,2:0:0:0:
201,257,122038,6,0,L|296:220,1,88.000002685547,4|0,2:3|0:0,2:0:0:0:
323,116,122375,1,8,2:0:0:0:
482,239,122543,2,0,L|387:202,1,88.000002685547,2|8,2:0|2:1,0:0:0:0:
417,54,122881,2,0,L|500:86,1,88.000002685547,10|8,2:1|2:0,0:0:0:0:
323,116,123218,1,8,2:1:0:0:
182,0,123386,5,8,2:0:0:0:
182,0,123470,1,8,2:0:0:0:
182,0,123555,2,0,P|202:45|216:87,1,88.000002685547,8|8,2:1|2:1,0:0:0:0:
244,187,123892,1,8,2:0:0:0:
56,140,124060,1,8,2:1:0:0:
77,142,124145,1,8,0:1:0:0:
99,145,124229,1,8,2:1:0:0:
121,148,124313,1,8,2:1:0:0:
143,151,124397,2,0,L|161:202,3,44.0000013427735,8|8|8|8,2:1|0:1|2:1|2:1,0:0:0:0:
0,297,124734,6,0,B|38:248|84:245|84:245|115:287|188:287,1,176.000005371094,4|8,2:0|2:0,2:0:0:0:
449,352,125409,1,8,2:1:0:0:
336,375,125577,1,8,2:1:0:0:
449,352,125746,2,0,L|469:247,1,88.000002685547,8|0,2:0|2:0,2:0:0:0:
403,120,126083,5,4,2:0:0:0:
379,213,126251,1,0,0:0:0:0:
473,236,126420,1,8,2:0:0:0:
496,142,126588,1,0,0:0:0:0:
367,233,126757,2,0,L|270:208,1,88.000002685547,8|8,2:1|2:1,0:0:0:0:
164,183,127094,1,8,2:0:0:0:
86,263,127263,1,8,0:1:0:0:
86,263,127347,1,8,0:1:0:0:
86,263,127431,6,0,P|23:210|29:108,1,176.000005371094,4|8,2:3|2:0,2:0:0:0:
63,10,127937,1,2,2:0:0:0:
221,65,128105,2,0,L|124:95,1,88.000002685547,10|8,2:1|2:1,0:0:0:0:
267,192,128442,2,0,L|351:165,1,88.000002685547,8|0,2:0|2:0,2:0:0:0:
485,0,128779,6,0,B|509:41|509:41|486:151,1,132.00000402832,6|0,2:3|2:0,2:0:0:0:
476,233,129116,6,0,P|416:196|329:190,1,143.999995605469,10|0,2:0|2:0,2:0:0:0:
278,273,129454,6,0,B|157:316|201:237|44:314,1,207.999990478516,6|8,2:3|2:0,2:0:0:0:
75,299,129959,1,2,2:0:0:0:
20,194,130128,6,0,L|-3:72,1,111.999996582031,4|8,2:0|2:1,2:0:0:0:
96,64,130633,1,8,2:1:0:0:
96,64,130802,2,0,L|107:127,1,55.9999982910157,10|8,2:0|2:1,2:0:0:0:
177,194,131139,1,2,2:0:0:0:
177,194,131307,1,10,2:0:0:0:
311,76,131476,6,0,L|238:107,1,80,4|8,2:3|2:0,2:0:0:0:
237,107,131813,1,2,2:0:0:0:
389,0,131982,2,0,L|432:99,1,80,8|8,2:1|2:0,0:0:0:0:
511,167,132319,1,8,2:0:0:0:
411,257,132487,2,0,L|324:219,1,80,8|0,2:0|0:0,0:0:0:0:
237,107,132824,5,12,2:0:0:0:
211,278,132993,1,8,2:1:0:0:
232,77,133161,5,10,2:0:0:0:
326,245,133330,1,8,2:1:0:0:
139,165,133498,6,0,L|46:142,1,80,10|8,2:0|2:1,0:0:0:0:
187,312,133836,2,0,L|264:331,1,80,10|8,2:0|2:1,0:0:0:0:
512,308,134173,5,10,2:0:0:0:
326,245,134341,1,8,2:1:0:0:
467,205,134510,1,10,2:0:0:0:
467,205,134594,1,0,0:0:0:0:
467,205,134678,1,8,2:1:0:0:
371,343,134847,5,8,2:1:0:0:
326,245,135015,1,8,2:3:0:0:
209,131,135184,1,8,2:3:0:0:
188,213,135352,1,8,2:3:0:0:
73,289,135521,6,0,P|47:165|405:106,1,589.874963856252,4|0,2:0|2:0,2:0:0:0:
393,86,137881,1,2,2:0:0:0:
472,283,138218,54,0,B|530:266|544:182|472:140|415:167|401:211|401:211|383:268|300:280|259:210|286:153|330:139,1,472.499999999991,2|0,2:0|2:0,2:0:0:0:
472,283,140577,1,2,2:0:0:0:
330,137,140914,6,0,B|389:121|445:185|406:258|343:266|309:236|309:236|263:198|186:232|188:313|241:347|287:334,1,472.500000000003,2|2,2:0|2:0,2:0:0:0:
286,334,143274,1,2,2:0:0:0:
129,295,143611,2,1,B|131:153|202:209|215:58|215:58|181:60|134:20|134:20|142:111|122:108|79:148|48:188|55:278,1,594.343742711173,4|0,2:0|2:0,2:0:0:0:
55,244,145970,1,2,2:0:0:0:
215,59,146307,6,0,B|373:11|373:11|452:65,1,239.750001286119,4|8,2:0|2:1,2:0:0:0:
434,53,147319,1,2,2:0:0:0:
434,53,147487,1,2,2:0:0:0:
383,142,147656,2,0,P|342:139|294:123,2,71.8750023562462,2|0|0,2:0|2:0|2:0,2:0:0:0:
383,142,148667,1,2,2:0:0:0:
512,244,149004,6,0,B|475:210|432:218|432:218|391:241|346:220|346:220|322:268|254:288,1,239.750001286119,4|8,2:3|2:1,2:0:0:0:
263,186,150015,1,2,2:0:0:0:
263,186,150352,2,0,P|214:197|160:215,1,87.8750004399717,2|0,2:0|2:0,2:0:0:0:
78,296,151027,1,2,2:0:0:0:
78,296,151701,6,1,B|72:248|95:218|95:218|49:182|59:116|59:116|35:92|41:41,1,232.999983445646,4|8,2:3|2:1,2:0:0:0:
146,144,152712,1,2,2:0:0:0:
146,144,152881,1,2,2:0:0:0:
192,63,153049,6,0,L|293:40,2,84.4999961318971,2|0|0,2:0|0:0|2:0,2:0:0:0:
192,63,154060,1,2,2:0:0:0:
370,0,154397,6,0,B|395:54|395:54|348:257,1,240.000009155274,4|8,2:3|2:1,2:0:0:0:
335,253,155746,2,0,L|317:337,2,71.8750023562462,2|0|0,2:0|2:0|2:0,2:0:0:0:
319,323,156757,1,2,2:0:0:0:
150,265,157094,6,0,L|29:293,2,120.000004577637,4|2|2,2:3|2:0|2:0,2:0:0:0:
283,120,158105,1,10,2:0:0:0:
295,215,158274,1,10,2:1:0:0:
295,215,158358,1,8,2:1:0:0:
295,215,158442,5,4,2:3:0:0:
209,255,158611,2,0,P|172:263|136:264,2,60.0000022888184,0|2|0,2:0|2:0|2:0,0:0:0:0:
145,186,159116,1,2,2:0:0:0:
189,104,159285,1,0,2:0:0:0:
283,120,159454,1,2,2:0:0:0:
327,38,159622,1,8,2:1:0:0:
421,54,159791,6,0,L|506:71,1,60.0000022888184,4|0,2:3|2:0,0:0:0:0:
386,166,160128,2,0,L|268:142,1,120.000004577637,2|2,2:0|2:0,2:0:0:0:
414,149,160633,2,0,L|499:166,2,60.0000022888184,8|2|8,2:1|2:0|2:1,0:0:0:0:
355,260,161139,6,0,L|253:284,1,103.999995239258,4|0,2:3|2:0,2:0:0:0:
165,242,161645,2,0,L|216:255,1,51.999997619629,2|0,2:0|2:0,2:0:0:0:
124,335,161982,2,0,L|175:347,1,51.999997619629,2|0,2:0|2:0,2:0:0:0:
175,347,162319,1,8,2:1:0:0:
37,281,162487,6,0,P|37:333|49:384,2,103.999995239258,4|0|0,2:3|2:0|2:0,2:0:0:0:
49,191,163330,1,8,2:1:0:0:
49,191,163498,1,2,2:0:0:0:
142,138,163667,1,8,2:1:0:0:
142,138,163751,1,8,2:1:0:0:
142,138,163836,5,4,2:3:0:0:
203,214,164004,2,0,P|238:209|261:198,2,51.999997619629,0|2|0,2:0|2:0|2:0,0:0:0:0:
290,107,164510,2,0,L|305:54,1,51.999997619629,2|0,2:0|2:0,0:0:0:0:
384,131,164847,1,2,2:0:0:0:
384,131,165015,2,0,L|369:181,1,51.999997619629,8|4,2:1|2:3,0:0:0:0:
275,221,165352,6,0,P|321:190|391:182,1,103.999995239258,2|0,2:0|2:0,2:0:0:0:
465,203,165858,1,2,2:0:0:0:
465,203,166027,1,8,2:1:0:0:
408,272,166195,1,2,2:0:0:0:
368,180,166364,1,8,2:1:0:0:
408,272,166532,6,0,L|426:388,1,103.999995239258,4|2,2:3|2:0,2:0:0:0:
314,317,167038,2,0,L|306:265,1,51.999997619629,2|0,2:0|2:0,2:0:0:0:
203,214,167375,1,8,2:1:0:0:
203,214,167543,2,0,L|195:162,1,51.999997619629,10|0,2:0|2:0,2:0:0:0:
124,326,167881,6,0,P|67:307|28:226,1,128,4|0,2:0|2:0,2:0:0:0:
30,252,168386,1,8,2:1:0:0:
55,153,168555,2,0,L|36:88,1,64,8|0,2:0|2:0,2:0:0:0:
154,88,168892,1,8,2:1:0:0:
154,88,169060,2,0,L|174:157,1,64,8|0,2:1|2:0,2:0:0:0:
254,21,169397,6,0,P|304:9|336:6,1,64,8|0,2:0|2:0,2:0:0:0:
443,58,169734,1,8,2:1:0:0:
443,58,169819,1,8,2:1:0:0:
443,58,169903,2,0,L|429:142,1,64,8|0,2:0|2:0,2:0:0:0:
332,173,170240,2,0,L|322:241,1,64,8|0,2:0|2:0,2:0:0:0:
462,384,170577,6,0,P|410:342|324:351,1,128,4|0,2:0|2:0,2:0:0:0:
238,384,171083,1,8,2:1:0:0:
238,384,171251,2,8,L|165:370,1,64,8|0,2:0|2:0,2:0:0:0:
163,245,171588,1,8,2:1:0:0:
163,245,171757,2,0,L|252:265,1,64,8|0,2:1|2:0,2:0:0:0:
36,317,172094,2,0,P|16:284|3:251,1,64,0|0,2:0|2:0,2:0:0:0:
70,126,172431,5,8,2:1:0:0:
70,122,172515,1,8,2:1:0:0:
71,118,172600,1,8,2:0:0:0:
80,207,172768,1,8,2:1:0:0:
0,171,172937,1,8,2:0:0:0:
0,171,173105,1,8,2:1:0:0:
154,156,173274,5,8,2:0:0:0:
154,156,173442,1,8,2:1:0:0:
308,141,173611,1,8,2:0:0:0:
308,141,173779,1,8,2:1:0:0:
223,71,173948,5,8,2:0:0:0:
223,71,174116,1,8,2:1:0:0:
238,225,174285,1,8,2:0:0:0:
238,225,174454,1,8,2:1:0:0:
452,81,174622,5,8,2:0:0:0:
308,141,174791,1,8,2:1:0:0:
459,176,174959,1,8,2:0:0:0:
357,59,175128,1,8,2:1:0:0:
371,214,175296,1,8,2:0:0:0:
452,81,175465,2,0,L|475:-5,2,64,8|8|8,2:3|2:3|2:3,0:0:0:0:
456,282,175970,5,4,2:0:0:0:
355,232,176139,2,0,L|363:262,2,32,2|0|8,2:0|2:0|2:1,2:0:0:0:
279,264,176476,2,0,L|287:294,2,32,2|0|8,2:0|2:0|2:1,2:0:0:0:
203,296,176813,2,0,L|221:366,2,64,2|10|2,2:0|2:1|2:0,0:0:0:0:
88,185,177319,6,0,P|121:226|152:244,1,64,6|0,2:3|2:0,2:0:0:0:
181,69,177656,1,10,2:1:0:0:
181,69,177824,2,0,P|179:121|192:155,1,64,2|8,2:0|2:1,2:0:0:0:
326,39,178161,2,0,P|291:78|279:112,1,64,2|8,2:0|2:1,2:0:0:0:
346,177,178498,1,8,2:1:0:0:
353,180,178583,1,8,2:1:0:0:
360,183,178667,5,12,2:0:0:0:
447,134,178836,1,8,2:1:0:0:
445,233,179004,1,8,2:1:0:0:
169,154,179173,5,10,2:0:0:0:
254,205,179341,1,8,2:1:0:0:
256,105,179510,1,8,2:1:0:0:
167,254,179678,5,10,2:0:0:0:
84,103,179847,1,8,2:1:0:0:
167,254,180015,1,8,2:1:0:0:
81,202,180184,1,8,2:1:0:0:
81,202,180268,1,8,2:0:0:0:
81,202,180352,2,0,L|33:221,3,32,8|8|8|8,2:1|2:0|2:0|2:0,0:0:0:0:
256,105,180689,1,4,2:3:0:0:
80,98,180858,1,8,2:0:0:0:
103,115,181364,5,12,2:0:0:0:
190,33,181532,2,0,L|236:13,2,32,8|8|8,2:1|2:1|2:1,0:0:0:0:
346,101,181869,5,8,2:0:0:0:
232,122,182038,2,0,L|186:102,2,32,8|8|8,2:1|2:1|2:1,0:0:0:0:
363,81,182375,5,8,2:0:0:0:
404,212,182543,2,0,L|390:263,2,32,8|8|8,2:1|2:1|2:1,0:0:0:0:
264,283,182881,2,0,L|273:253,2,32,8|8|8,2:0|2:0|2:0,0:0:0:0:
133,324,183218,1,8,2:0:0:0:
133,324,183302,1,8,2:0:0:0:
133,324,183386,1,10,2:0:0:0:
366,376,183555,1,10,2:0:0:0:
377,384,184060,6,1,P|489:268|466:79,1,363.99997431183,4|0,2:0|2:0,2:0:0:0:
465,78,185746,1,2,2:0:0:0:
364,196,186083,1,8,2:0:0:0:
349,198,186167,1,8,2:0:0:0:
335,195,186251,1,8,2:0:0:0:
324,186,186336,1,8,2:0:0:0:
317,172,186420,2,0,P|313:125|338:100,1,68.2499951834682,14|0,2:0|0:0,0:0:0:0:
383,35,186757,6,0,P|288:76|210:66,1,160,4|8,2:0|2:0,2:0:0:0:
147,15,187263,1,0,2:0:0:0:
63,130,187431,2,0,B|143:118,1,80,8|8,2:1|2:1,2:0:0:0:
230,182,187768,1,10,2:0:0:0:
233,72,187937,1,2,2:0:0:0:
61,153,188105,6,0,B|49:197|49:197|89:310,1,160,4|8,2:3|2:0,2:0:0:0:
87,304,188779,1,8,2:1:0:0:
87,304,188948,1,8,2:1:0:0:
313,217,189116,1,10,2:0:0:0:
212,198,189285,1,2,2:0:0:0:
414,235,189454,6,0,L|511:209,1,80,4|0,2:3|2:0,2:0:0:0:
313,217,189791,1,8,2:0:0:0:
379,139,189959,2,0,L|476:113,1,80,2|8,2:0|2:1,2:0:0:0:
221,173,190296,2,0,L|143:193,1,80,10|8,2:1|2:0,2:0:0:0:
165,30,190633,1,8,2:1:0:0:
165,30,190718,1,8,2:1:0:0:
165,30,190802,6,0,P|235:8|301:15,1,120,4|0,2:3|2:0,2:0:0:0:
376,55,191139,2,0,B|390:80|390:80|376:150,1,88.000002685547,8|0,2:0|2:0,2:0:0:0:
366,231,191476,1,8,2:1:0:0:
378,138,191645,1,8,2:1:0:0:
350,326,191813,2,0,P|302:329|239:301,1,88.000002685547,8|0,2:0|2:0,2:0:0:0:
163,187,192150,6,0,P|236:210|276:306,2,176.000005371094,4|8|8,2:3|2:0|2:1,2:0:0:0:
108,279,192993,1,8,2:1:0:0:
54,185,193161,1,8,2:0:0:0:
108,279,193330,1,0,2:0:0:0:
31,99,193498,5,8,2:1:0:0:
140,160,193667,1,8,2:1:0:0:
117,75,193836,1,8,2:0:0:0:
54,185,194004,1,0,2:0:0:0:
200,58,194173,2,0,B|235:50|235:50|294:63,1,88.000002685547,8|8,2:1|2:1,0:0:0:0:
336,186,194510,2,0,B|301:194|301:194|242:181,1,88.000002685547,8|0,2:0|2:0,0:0:0:0:
466,17,194847,6,0,B|497:60|497:60|477:196,1,176.000005371094,4|10,2:0|2:0,2:0:0:0:
407,311,195352,2,0,L|320:324,1,88.000002685547,2|8,2:0|2:1,2:0:0:0:
240,198,195689,2,0,P|205:141|197:105,1,88.000002685547,10|8,2:1|2:0,2:0:0:0:
176,328,196027,1,8,2:1:0:0:
176,328,196111,1,8,2:1:0:0:
176,328,196195,6,0,B|118:349|70:317|70:317|52:350|6:360,2,176.000005371094,4|8|8,2:3|2:0|2:1,2:0:0:0:
176,328,197038,1,8,2:1:0:0:
240,198,197206,1,10,2:0:0:0:
131,249,197375,1,2,2:0:0:0:
240,198,197543,6,0,L|338:218,1,88.000002685547,4|8,2:3|2:1,2:0:0:0:
456,198,197881,1,8,2:0:0:0:
344,301,198049,2,0,L|326:214,1,88.000002685547,8|8,2:0|2:1,0:0:0:0:
358,8,198386,2,0,L|377:95,1,88.000002685547,10|8,2:1|2:0,2:0:0:0:
326,214,198723,1,8,2:1:0:0:
254,111,198892,5,8,2:0:0:0:
254,111,198976,1,8,2:0:0:0:
254,111,199060,2,0,B|192:102|192:102|153:125,1,88.000002685547,8|8,2:1|2:1,0:0:0:0:
59,165,199397,1,8,2:0:0:0:
75,43,199566,1,8,2:1:0:0:
75,43,199650,1,8,2:1:0:0:
75,43,199734,1,8,2:1:0:0:
170,114,199903,2,0,L|152:212,1,88.000002685547,12|0,2:0|0:0,2:0:0:0:
17,316,200240,6,0,B|120:276|89:350|205:311,1,176.000005371094,4|8,2:0|2:0,2:0:0:0:
381,236,200914,1,8,2:1:0:0:
381,236,201083,1,8,2:1:0:0:
426,336,201251,2,0,L|531:316,1,88.000002685547,8|0,2:0|2:0,2:0:0:0:
474,165,201588,2,0,P|410:130|292:147,1,176.000005371094,6|8,2:3|2:0,2:0:0:0:
213,89,202094,1,0,0:0:0:0:
141,219,202263,2,0,L|238:194,1,88.000002685547,8|8,2:1|2:1,0:0:0:0:
309,137,202600,1,8,2:0:0:0:
122,57,202768,1,8,2:1:0:0:
122,57,202852,1,8,0:1:0:0:
122,57,202937,6,0,L|164:237,1,176.000005371094,4|8,2:3|2:0,2:0:0:0:
161,228,203442,1,2,2:0:0:0:
96,342,203611,2,0,L|2:313,1,88.000002685547,10|8,2:1|2:1,0:0:0:0:
161,228,203948,2,0,L|245:253,1,88.000002685547,8|0,2:0|2:0,2:0:0:0:
411,356,204285,6,0,P|459:309|482:217,1,132.00000402832,6|0,2:3|2:0,2:0:0:0:
456,151,204622,6,0,B|366:123|366:123|322:155,1,143.999995605469,10|0,2:0|2:0,2:0:0:0:
264,228,204959,6,0,P|156:230|72:131,1,207.999990478516,6|8,2:3|2:0,2:0:0:0:
85,167,205465,1,0,2:0:0:0:
183,24,205633,6,0,L|206:146,1,111.999996582031,6|0,2:0|2:0,2:0:0:0:
315,173,206139,1,8,2:1:0:0:
315,173,206307,2,0,L|304:110,1,55.9999982910157,8|8,2:0|2:1,2:0:0:0:
288,7,206645,1,2,2:0:0:0:
288,7,206813,1,2,2:0:0:0:
454,28,206982,6,0,L|370:55,1,80,8|8,2:1|2:0,2:0:0:0:
377,52,207319,1,2,2:0:0:0:
409,150,207487,2,0,L|485:125,1,80,8|8,2:1|2:0,0:0:0:0:
512,220,207824,1,8,2:0:0:0:
512,220,207993,2,0,L|435:244,1,80,8|0,2:0|0:0,0:0:0:0:
257,229,208330,5,8,2:0:0:0:
409,150,208498,1,8,2:1:0:0:
238,237,208667,5,8,2:0:0:0:
435,244,208836,1,8,2:1:0:0:
264,331,209004,6,0,L|168:311,1,80,8|8,2:0|2:1,0:0:0:0:
229,134,209349,2,0,L|321:154,1,80,8|8,2:0|2:1,0:0:0:0:
51,195,209666,2,0,B|23:146|23:146|48:33,1,160,8|8,2:1|2:1,0:0:0:0:
149,62,210168,1,8,2:0:0:0:
149,62,210252,1,8,2:0:0:0:
149,62,210336,6,8,L|139:111,1,40,8|8,2:0|2:0,2:0:0:0:
236,94,210504,2,8,L|229:134,1,40,8|8,2:0|2:0,2:0:0:0:
357,39,210673,2,8,L|364:0,1,40,8|8,2:0|2:0,2:0:0:0:
444,71,210841,2,8,L|451:31,1,40,8|8,2:0|2:0,2:0:0:0:
245,68,211010,6,0,L|273:216,1,132.00000402832,4|0,2:0|0:0,2:0:0:0:
325,280,211348,2,0,L|344:384,1,88.000002685547,8|0,2:0|0:0,0:0:0:0:
368,190,211687,1,8,2:1:0:0:
226,287,211862,1,8,2:1:0:0:
368,190,212037,2,0,L|468:209,1,88.000002685547,8|0,2:0|2:0,2:0:0:0:
226,287,212388,6,0,P|144:296|93:218,1,160,10|8,2:1|2:0,0:0:0:0:
170,12,213058,1,10,2:1:0:0:
133,101,213223,1,8,2:1:0:0:
170,12,213389,2,0,L|269:-3,1,80,8|8,2:0|2:1,0:0:0:0:
381,77,213735,6,0,P|253:18|247:-22,1,176.000005371094,6|8,2:3|2:0,2:0:0:0:
387,47,214240,1,2,2:0:0:0:
468,130,214409,2,0,P|442:161|371:172,1,88.000002685547,8|8,2:1|2:1,2:0:0:0:
312,160,214746,1,10,2:0:0:0:
397,175,214914,1,2,2:0:0:0:
227,145,215083,6,0,L|135:168,1,88.000002685547,8|0,2:1|0:0,2:0:0:0:
255,262,215420,2,0,L|340:240,1,88.000002685547,8|0,2:0|0:0,0:0:0:0:
111,340,215757,2,0,L|145:151,1,176.000005371094,8|10,2:1|2:0,0:0:0:0:
166,38,216258,1,2,2:0:0:0:
26,172,216423,6,0,L|134:137,1,88.000002685547,4|0,2:0|2:0,2:0:0:0:
166,38,216760,1,10,2:0:0:0:
322,156,216928,2,0,P|261:149|229:137,1,88.000002685547,2|8,2:0|2:1,2:0:0:0:
400,0,217265,2,0,P|424:56|430:90,1,88.000002685547,10|8,2:1|2:0,2:0:0:0:
348,187,217602,1,8,2:1:0:0:
348,187,217687,1,8,2:1:0:0:
348,187,217771,6,0,P|352:101|436:84,2,176.000005371094,6|10|10,2:3|2:0|2:1,2:0:0:0:
450,248,218614,1,10,2:1:0:0:
347,313,218782,2,0,L|243:292,1,88.000002685547,10|0,2:0|2:0,2:0:0:0:
180,185,219119,6,0,B|226:162|226:162|359:189,2,176.000005371094,4|8|8,2:3|2:0|2:1,2:0:0:0:
0,261,219962,1,8,2:1:0:0:
90,223,220130,1,8,2:0:0:0:
0,261,220299,1,0,2:0:0:0:
42,79,220467,5,8,2:1:0:0:
94,191,220636,1,8,2:1:0:0:
124,109,220805,1,10,2:0:0:0:
11,161,220973,1,2,2:0:0:0:
148,93,221142,2,0,L|248:120,1,88.000002685547,8|8,2:1|2:1,0:0:0:0:
421,197,221479,2,0,P|350:180|322:141,1,88.000002685547,10|2,2:0|2:0,0:0:0:0:
379,0,221816,6,0,L|336:192,1,176.000005371094,4|8,2:0|2:0,2:0:0:0:
471,265,222321,2,0,L|458:173,1,88.000002685547,2|8,2:0|2:1,2:0:0:0:
318,164,222658,2,0,L|331:252,1,88.000002685547,10|8,2:1|2:0,2:0:0:0:
401,382,222996,1,8,2:1:0:0:
401,382,223080,1,8,2:1:0:0:
401,382,223164,5,4,2:3:0:0:
330,251,223333,1,0,0:0:0:0:
256,373,223501,2,0,L|159:346,1,88.000002685547,8|8,2:0|2:1,0:0:0:0:
144,359,223754,1,8,2:1:0:0:
144,359,223838,2,0,L|47:332,1,88.000002685547,8|0,2:1|2:0,2:0:0:0:
91,204,224175,1,10,2:0:0:0:
174,234,224344,1,2,2:0:0:0:
44,349,224512,6,0,L|17:246,1,88.000002685547,4|0,2:3|2:0,2:0:0:0:
8,174,224849,1,10,2:0:0:0:
113,192,225018,1,2,2:0:0:0:
113,192,225102,1,0,0:0:0:0:
113,192,225187,1,8,2:1:0:0:
176,83,225355,2,0,L|145:-13,1,88.000002685547,2|8,2:0|2:1,2:0:0:0:
216,208,225692,1,2,2:0:0:0:
304,110,225861,5,8,2:0:0:0:
332,94,225945,1,8,2:3:0:0:
364,84,226029,1,8,2:3:0:0:
397,80,226113,1,8,2:3:0:0:
429,84,226198,2,0,L|490:101,3,44.0000013427735,10|8|8|8,2:3|2:1|2:1|2:1,0:0:0:0:
389,179,226535,2,0,L|328:196,1,44.0000013427735,10|8,2:3|2:3,0:0:0:0:
496,220,226703,1,10,2:3:0:0:
496,220,226788,1,8,2:3:0:0:
496,220,226872,2,0,L|463:358,1,132.00000402832,4|0,2:0|2:0,2:0:0:0:
445,364,227209,6,0,B|343:382|380:308|245:335,2,176.000005371094,4|8|8,2:0|2:0|2:1,2:0:0:0:
469,221,228052,1,8,2:1:0:0:
469,221,228220,2,0,L|489:135,1,88.000002685547,8|0,2:0|2:0,2:0:0:0:
363,25,228557,5,8,2:1:0:0:
443,40,228726,1,8,2:1:0:0:
389,130,228894,1,8,2:0:0:0:
469,145,229063,1,0,2:0:0:0:
309,115,229231,2,0,L|204:139,1,88.000002685547,8|8,2:1|2:1,0:0:0:0:
73,0,229569,2,0,P|110:53|116:80,1,88.000002685547,8|8,2:0|2:1,0:0:0:0:
64,238,229906,6,0,P|114:172|210:164,1,176.000005371094,8|8,2:1|2:0,0:0:0:0:
201,161,230411,1,2,2:0:0:0:
284,247,230580,1,10,2:1:0:0:
191,273,230748,1,8,2:1:0:0:
284,247,230917,2,0,L|372:224,1,88.000002685547,8|0,2:0|2:0,0:0:0:0:
476,342,231254,6,0,P|411:303|388:220,1,132.00000402832,6|0,2:3|2:0,2:0:0:0:
468,197,231591,6,0,B|492:156|492:156|470:74,1,132.00000402832,10|0,2:0|2:0,2:0:0:0:
393,25,231929,6,0,P|314:14|218:60,1,176.000005371094,6|8,2:3|2:0,2:0:0:0:
227,51,232434,1,0,2:0:0:0:
67,0,232602,2,0,B|103:42|103:42|85:172,1,167.999994873047,4|8,2:0|2:1,2:0:0:0:
0,259,233276,2,0,P|29:240|52:234,1,55.9999982910157,8|0,2:0|2:0,2:0:0:0:
140,231,233614,1,2,2:0:0:0:
140,231,233782,1,2,2:0:0:0:
122,367,233951,6,0,L|98:289,1,55.9999982910157,6|8,2:3|2:0,2:0:0:0:
158,207,234288,1,2,2:0:0:0:
224,305,234456,1,8,2:1:0:0:
224,305,234540,1,8,2:1:0:0:
224,305,234625,1,8,2:1:0:0:
276,199,234793,1,10,2:0:0:0:
419,332,234962,2,0,P|376:321|340:296,1,88.000002685547,8|0,2:0|2:0,2:0:0:0:
329,93,235299,5,4,2:0:0:0:
347,107,235636,5,8,2:1:0:0:
276,199,235805,1,8,2:1:0:0:
169,42,235973,1,8,2:0:0:0:
347,107,236142,1,8,2:0:0:0:
166,159,236310,1,8,2:0:0:0:
281,10,236478,1,8,2:0:0:0:
276,199,236647,1,12,2:0:0:0:
276,199,238333,5,4,2:0:0:0:
457,254,238657,2,0,L|511:239,3,30.0000011444092,8|8|8|8,2:3|2:3|2:3|2:3,0:0:0:0:
406,327,238994,2,0,L|418:224,1,80,12|0,2:0|2:0,2:0:0:0:
512,116,239351,6,0,B|493:139|493:139|421:130,1,88.000002685547,14|8,2:0|2:1,0:0:0:0:
318,43,239688,1,8,2:1:0:0:
252,213,239856,2,0,B|228:194|228:194|237:122,1,88.000002685547,14|8,2:0|2:1,0:0:0:0:
325,21,240193,1,8,2:1:0:0:
235,136,240362,5,14,2:0:0:0:
180,0,240530,1,8,2:1:0:0:
235,136,240699,1,8,2:1:0:0:
14,141,240867,5,14,2:0:0:0:
150,86,241035,1,8,2:1:0:0:
14,141,241204,1,8,2:1:0:0:
108,319,241373,2,0,L|124:233,1,88.000002685547,14|8,2:0|2:1,0:0:0:0:
150,86,241710,1,8,2:0:0:0:
271,176,241879,1,0,0:0:0:0:
271,176,241963,1,0,2:0:0:0:
271,176,242047,6,2,B|371:193|342:137|459:169,1,176.000005371094,14|0,2:0|2:0,2:1:0:0:
375,36,242553,2,0,P|306:95|304:112,1,88.000002685547,12|8,2:0|2:1,0:0:0:0:
400,249,242890,1,8,2:1:0:0:
207,228,243058,2,0,L|291:202,1,88.000002685547,8|8,2:0|2:1,0:0:0:0:
422,263,243395,1,8,2:1:0:0:
291,202,243564,1,10,2:0:0:0:
236,335,243733,5,10,2:1:0:0:
314,226,243901,1,10,2:1:0:0:
235,118,244070,1,10,2:0:0:0:
109,160,244238,1,10,2:1:0:0:
109,293,244407,2,0,L|84:380,1,88.000002685547,10|10,2:1|2:1,0:0:0:0:
123,133,244744,5,12,2:0:0:0:
249,217,244912,2,0,L|307:195,2,44.0000013427735,8|8|8,2:1|2:1|2:1,0:0:0:0:
207,7,245249,5,12,2:0:0:0:
123,133,245417,2,0,L|145:191,2,44.0000013427735,8|8|8,2:1|2:1|2:1,0:0:0:0:
188,0,245755,5,12,2:0:0:0:
302,101,245924,1,8,2:1:0:0:
302,101,246008,1,8,2:1:0:0:
302,101,246092,1,8,2:1:0:0:
480,28,246250,6,0,P|434:22|397:24,1,80,12|8,2:0|2:1,0:0:0:0:
277,124,246568,1,8,2:1:0:0:
425,179,246736,5,12,2:0:0:0:
400,23,246904,1,8,2:1:0:0:
425,179,247073,2,0,L|406:280,1,80,12|8,2:0|2:1,0:0:0:0:
321,343,247413,5,12,2:0:0:0:
434,277,247590,2,0,L|483:294,2,40,8|8|8,2:3|2:3|2:3,0:0:0:0:
270,215,247945,5,4,2:0:0:0:
336,328,248112,2,0,L|319:377,2,40,8|8|8,2:3|2:3|2:3,0:0:0:0:
201,321,248447,6,0,L|113:353,1,80,12|0,2:0|2:0,0:0:0:0:
24,280,248782,1,8,2:0:0:0:
17,260,248866,1,8,0:1:0:0:
11,241,248950,1,8,2:1:0:0:
5,222,249034,1,8,2:1:0:0:
0,203,249119,2,0,L|13:145,1,40,8|8,2:1|2:0,0:0:0:0:
78,36,249287,1,8,2:0:0:0:
106,22,249371,1,8,2:0:0:0:
138,22,249455,1,8,2:0:0:0:
167,35,249539,1,8,2:3:0:0:
188,59,249624,1,8,2:3:0:0:
197,90,249708,1,8,2:3:0:0:
206,120,249793,1,8,2:3:0:0:
227,144,249878,1,8,2:3:0:0:
256,157,249962,1,8,2:3:0:0:
287,157,250046,1,8,2:3:0:0:
316,144,250130,6,0,B|393:119|393:119|442:143,1,111.999996582031,4|0,2:0|2:0,2:0:0:0:
421,18,250635,1,8,2:1:0:0:
421,18,250804,2,0,L|332:46,1,71.9999978027344,8|0,2:0|2:0,2:0:0:0:
185,25,251141,1,2,2:0:0:0:
185,25,251310,6,0,L|274:-3,1,71.9999978027344,2|8,2:0|2:1,2:0:0:0:
253,3,251647,1,8,2:0:0:0:
135,127,251815,2,0,P|80:64|77:5,2,143.999995605469,2|6|10,2:0|2:0|2:0,2:0:0:0:
135,127,252658,1,8,2:1:0:0:
0,245,252826,6,0,B|30:207|75:202|75:202|104:228|148:232,1,143.999995605469,4|0,2:0|2:0,2:0:0:0:
123,227,253332,1,8,2:1:0:0:
215,182,253501,2,0,L|360:216,1,143.999995605469,8|0,2:0|2:0,2:0:0:0:
355,214,254006,1,2,2:0:0:0:
435,144,254175,5,4,2:3:0:0:
435,144,254343,2,0,L|454:60,1,71.9999978027344,8|2,0:0|2:0,0:0:0:0:
477,257,254680,1,8,2:1:0:0:
477,257,254765,1,8,2:1:0:0:
477,257,254849,1,8,2:0:0:0:
355,214,255017,1,8,2:0:0:0:
275,350,255186,2,0,L|204:334,1,71.9999978027344,8|8,2:0|2:1,0:0:0:0:
73,257,255523,5,12,2:0:0:0:
206,301,255692,1,8,2:1:0:0:
123,187,255860,5,8,2:0:0:0:
123,327,256029,1,8,2:1:0:0:
206,214,256197,5,8,2:0:0:0:
40,160,256366,1,8,2:1:0:0:
217,191,256534,1,8,2:0:0:0:
117,17,256703,6,0,L|134:104,1,87.9999953002932,10|8,2:1|2:0,0:0:0:0:
206,214,257040,2,0,L|229:332,1,87.9999953002932,10|8,2:1|2:0,0:0:0:0:
269,90,257377,2,0,P|323:69|355:66,1,87.9999953002932,10|8,2:1|2:0,0:0:0:0:
512,196,257714,2,0,L|413:176,1,87.9999953002932,10|8,2:1|2:0,0:0:0:0:
425,178,258051,1,10,2:1:0:0:
358,337,258220,6,0,L|469:359,1,88.000002685547,12|8,2:0|2:1,2:0:0:0:
258,188,258557,5,8,2:1:0:0:
358,337,258725,1,8,2:1:0:0:
193,245,258894,5,8,2:0:0:0:
394,256,259062,1,8,2:0:0:0:
133,305,259231,5,8,2:0:0:0:
306,119,259399,1,8,2:0:0:0:
380,361,259568,5,4,2:0:0:0:
