osu file format v14

[General]
AudioFilename: eromangaHitorigoto [Soliloquy] x1.2 by Doormat.mp3
AudioLeadIn: 0
PreviewTime: 45294
Countdown: 0
SampleSet: None
StackLeniency: 0.7
Mode: 0
LetterboxInBreaks: 0
WidescreenStoryboard: 1

[Editor]
DistanceSpacing: 1
BeatDivisor: 4
GridSize: 4
TimelineZoom: 1.5

[Metadata]
Title:Speedup map pack
TitleUnicode:ヒトリゴト -TV MIX-
Artist:ClariS
ArtistUnicode:ClariS
Creator:TTL
Version:Hitorigoto [Soliloquy] x1.2 by Doormat
Source:エロマンガ先生
Tags:
BeatmapID:1845955
BeatmapSetID:882966

[Difficulty]
HPDrainRate:6
CircleSize:4
OverallDifficulty:8.5
ApproachRate:9.7
SliderMultiplier:1.7
SliderTickRate:1

[Events]
//Background and Video events
0,0,"eromanga.png",0,0
//Break Periods
//Storyboard Layer 0 (Background)
//Storyboard Layer 1 (Fail)
//Storyboard Layer 2 (Pass)
//Storyboard Layer 3 (Foreground)
//Storyboard Sound Samples

[TimingPoints]
446,303.0303,4,2,1,80,1,0
19840,-100,4,2,1,60,0,0
29537,-125,4,2,1,50,0,0
34385,-100,4,2,1,60,0,0
45295,-90.90909,4,2,1,80,0,1
54915,-90.90909,4,2,1,80,0,0
54991,-90.90909,4,2,1,80,0,1
71961,-100,4,2,1,70,0,0

[HitObjects]
44,136,446,5,4,0:0:0:0:
315,196,597,1,0,0:0:0:0:
152,304,749,6,0,P|187:281|229:272,1,85
315,196,1052,2,0,P|277:176|248:145,1,85
139,108,1355,2,0,P|140:150|128:191,1,85
52,304,1658,5,0,0:0:0:0:
32,36,1810,1,0,0:0:0:0:
222,89,1961,6,0,L|139:108,1,85
44,172,2264,2,0,L|102:233,1,85
204,284,2567,2,0,L|227:203,1,85
340,60,2870,5,0,0:0:0:0:
376,328,3021,1,0,0:0:0:0:
436,152,3173,5,0,0:0:0:0:
284,259,3325,1,0,0:0:0:0:
469,261,3476,1,0,0:0:0:0:
320,150,3628,1,0,0:0:0:0:
376,328,3780,1,0,0:0:0:0:
436,152,3930,1,0,0:0:0:0:
220,316,4082,5,4,0:0:0:0:
308,253,4234,2,0,P|239:208|159:227,1,170
56,184,4688,6,0,B|38:147|38:147|41:98,1,85
108,49,4890,2,0,B|147:51|147:51|187:79,1,85
199,162,5092,2,0,B|176:194|176:194|132:216,1,85
120,131,5295,5,4,0:0:0:0:
396,172,5446,1,0,0:0:0:0:
260,280,5597,6,0,L|271:364,1,85
160,376,5900,2,0,L|82:343,1,85
126,241,6204,2,0,L|193:189,1,85
384,204,6506,5,0,0:0:0:0:
108,144,6658,1,0,0:0:0:0:
262,252,6810,6,0,P|270:210|269:167,1,85
310,64,7113,2,0,P|342:91|380:112,1,85
448,199,7416,2,0,P|408:214|372:236,1,85
268,372,7719,5,0,0:0:0:0:
380,112,7870,1,0,0:0:0:0:
304,276,8021,5,0,0:0:0:0:
269,98,8173,1,0,0:0:0:0:
401,220,8325,1,0,0:0:0:0:
221,198,8476,1,0,0:0:0:0:
380,112,8628,1,0,0:0:0:0:
304,276,8779,1,0,0:0:0:0:
177,43,8930,5,4,0:0:0:0:
119,132,9082,2,0,P|201:146|268:97,1,170
372,140,9536,6,0,B|389:176|389:176|386:225,1,85
320,275,9739,2,0,B|280:272|280:272|240:244,1,85
229,162,9940,2,0,B|251:129|251:129|295:107,1,85
308,193,10143,6,0,P|321:233|320:275,1,85
72,252,10446,2,0,P|70:209|82:169,1,85
230,38,10749,1,2,0:0:0:0:
196,224,10900,1,0,0:0:0:0:
48,48,11052,1,8,0:0:0:0:
232,136,11204,6,0,L|147:126,1,85
300,284,11506,2,0,L|412:272,1,85
180,243,11810,2,0,P|171:285|180:326,1,85
328,184,12113,1,0,0:0:0:0:
124,108,12264,1,8,0:0:0:0:
324,16,12415,1,0,0:0:0:0:
324,16,12491,1,0,0:0:0:0:
324,16,12567,6,0,L|232:28,1,85
408,168,12870,2,0,L|492:157,1,85
400,296,13173,1,2,0:0:0:0:
304,180,13325,1,0,0:0:0:0:
512,184,13476,1,8,0:0:0:0:
296,292,13628,6,0,P|254:301|212:294,1,85
260,100,13930,2,0,P|301:91|343:98,1,85
512,184,14234,1,0,0:0:0:0:
512,184,14310,1,0,0:0:0:0:
512,184,14385,1,2,0:0:0:0:
496,0,14537,1,0,0:0:0:0:
304,180,14688,1,8,0:0:0:0:
316,0,14840,1,0,0:0:0:0:
492,156,14991,6,0,L|392:172,1,85
200,268,15295,2,0,L|300:284,1,85
448,312,15597,1,2,0:0:0:0:
296,172,15749,1,0,0:0:0:0:
216,376,15900,1,8,0:0:0:0:
402,209,16052,6,0,P|447:198|486:205,1,85
300,76,16355,2,0,P|255:87|216:80,1,85
132,256,16659,2,0,L|240:232,1,85
144,380,16961,1,0,0:0:0:0:
44,192,17113,1,8,0:0:0:0:
296,184,17264,1,0,0:0:0:0:
296,184,17340,1,0,0:0:0:0:
296,184,17415,6,0,P|311:223|306:265,1,85
52,308,17719,2,0,P|36:268|41:226,1,85
108,32,18021,1,2,0:0:0:0:
260,104,18173,1,0,0:0:0:0:
16,148,18325,1,8,0:0:0:0:
188,276,18476,6,0,L|272:265,1,85
184,128,18780,2,0,L|99:138,1,85
240,8,19082,1,0,0:0:0:0:
240,8,19158,1,0,0:0:0:0:
240,8,19234,1,4,0:0:0:0:
352,120,19385,1,0,0:0:0:0:
352,120,19461,1,0,0:0:0:0:
352,120,19537,2,0,L|344:180,1,42.5
448,204,19688,2,0,L|442:161,1,42.5
347,261,19840,6,0,P|342:303|345:345,1,85
164,248,20143,2,0,P|166:205|162:163,1,85
280,16,20446,2,0,L|363:30,1,85
428,182,20749,2,0,L|344:197,1,85
116,96,21052,6,0,P|129:136|133:178,1,85
248,324,21355,2,0,P|251:281|264:241,1,85
452,300,21659,2,0,L|368:308,1,85
412,96,21961,2,0,L|496:103,1,85
256,220,22264,5,2,0:0:0:0:
344,384,22415,1,0,0:0:0:0:
372,192,22567,1,8,0:0:0:0:
244,336,22719,1,0,0:0:0:0:
432,360,22870,1,2,0:0:0:0:
284,244,23021,1,0,0:0:0:0:
472,272,23173,1,8,0:0:0:0:
336,360,23325,1,0,0:0:0:0:
388,140,23476,5,2,0:0:0:0:
184,252,23628,2,0,L|172:168,1,85
320,24,23930,2,0,L|308:108,1,85
204,0,24234,1,0,0:0:0:0:
440,40,24385,1,8,0:0:0:0:
291,224,24537,1,8,0:0:0:0:
291,224,24613,1,8,0:0:0:0:
291,224,24688,6,0,P|286:181|295:140,1,85
119,235,24991,2,0,P|127:276|123:319,1,85
88,138,25295,2,0,L|172:152,1,85
355,306,25597,2,0,L|272:320,1,85
416,124,25900,6,0,L|429:207,1,85
252,88,26204,2,0,L|265:5,1,85
280,196,26506,2,0,P|237:200|196:190,1,85
380,16,26810,2,0,P|422:11|463:21,1,85
512,188,27113,5,2,0:0:0:0:
312,204,27264,1,0,0:0:0:0:
480,280,27415,1,8,0:0:0:0:
404,108,27567,1,0,0:0:0:0:
360,300,27719,1,2,0:0:0:0:
488,176,27870,1,0,0:0:0:0:
288,224,28021,1,8,0:0:0:0:
472,312,28173,1,0,0:0:0:0:
268,348,28325,5,2,0:0:0:0:
396,144,28476,2,0,L|388:228,1,85
172,168,28780,2,0,L|164:83,1,85
304,160,29082,1,0,0:0:0:0:
68,232,29234,1,8,0:0:0:0:
236,56,29385,1,8,0:0:0:0:
236,56,29461,1,8,0:0:0:0:
236,56,29537,6,0,P|272:36|376:60,1,136
372,264,30143,2,0,P|336:284|232:260,1,136
168,208,30597,1,0,0:0:0:0:
116,296,30749,6,0,L|124:376,1,68
168,208,31051,2,0,P|128:192|40:228,2,136
245,270,31810,1,0,0:0:0:0:
312,192,31961,6,0,L|308:124,1,68
404,160,32264,2,0,L|408:228,1,68
329,294,32567,2,0,L|261:298,1,68
316,384,32870,2,0,L|384:380,1,68
484,349,33173,5,2,0:0:0:0:
404,279,33325,1,8,0:0:0:0:
383,380,33476,1,2,0:0:0:0:
260,160,33780,6,0,L|304:171,2,45.33333
264,62,34082,2,0,L|307:49,2,45.33333
176,108,34385,6,0,P|174:192|168:277,1,170
84,336,34840,1,0,0:0:0:0:
204,384,34991,2,0,L|300:364,1,85
400,264,35295,2,0,L|304:244,1,85
444,351,35598,6,0,P|495:287|478:207,1,170
380,140,36052,1,0,0:0:0:0:
315,274,36204,1,2,0:0:0:0:
315,274,36355,2,0,L|407:262,1,85
244,176,36658,1,0,0:0:0:0:
112,374,36810,6,0,P|108:289|101:204,1,170
8,128,37264,1,0,0:0:0:0:
120,64,37415,2,0,L|204:74,1,85
352,164,37719,2,0,L|267:174,1,85
396,76,38021,6,0,P|444:124|428:224,1,170
348,304,38476,1,0,0:0:0:0:
267,174,38628,1,2,0:0:0:0:
267,174,38780,2,0,L|352:164,1,85
224,56,39082,1,0,0:0:0:0:
80,163,39234,6,0,P|85:247|95:332,1,170
212,376,39688,1,0,0:0:0:0:
305,253,39840,2,0,L|220:264,1,85
372,156,40143,2,0,L|456:167,1,85
220,264,40446,6,0,P|201:183|248:115,1,170
400,96,40900,1,0,0:0:0:0:
296,204,41051,1,2,0:0:0:0:
484,148,41204,1,0,0:0:0:0:
328,39,41355,2,0,P|312:79|315:121,1,85
408,316,41658,6,0,P|328:287|246:305,1,170
136,368,42113,1,0,0:0:0:0:
52,272,42264,2,0,L|63:187,1,85
228,140,42567,2,0,L|239:224,1,85
256,48,42870,6,0,P|214:43|174:58,1,85
360,164,43173,2,0,P|401:168|441:153,1,85
228,28,43476,2,0,P|186:24|146:38,1,85
388,184,43780,2,0,P|429:188|469:173,1,85
512,100,44006,1,8,0:0:0:0:
512,100,44082,5,2,0:0:0:0:
244,148,44234,2,0,L|256:232,1,85
420,352,44537,2,0,L|432:268,1,85
304,73,44840,6,0,P|210:55|148:148,1,212.5
244,148,45295,6,0,L|338:152,1,93.5
136,336,45597,2,0,L|42:332,1,93.5
160,172,45900,1,2,0:0:0:0:
300,384,46052,1,0,0:0:0:0:
316,176,46204,1,8,0:0:0:0:
136,336,46355,1,0,0:0:0:0:
396,276,46506,5,4,0:0:0:0:
204,156,46658,2,0,L|220:256,1,93.5
360,96,46961,1,0,0:0:0:0:
148,24,47113,1,4,0:0:0:0:
408,8,47264,1,0,0:0:0:0:
120,124,47415,1,8,0:0:0:0:
428,168,47567,1,0,0:0:0:0:
148,24,47719,5,4,0:0:0:0:
288,220,47870,1,0,0:0:0:0:
304,24,48021,1,8,0:0:0:0:
172,192,48173,1,0,0:0:0:0:
380,120,48325,1,2,0:0:0:0:
228,44,48476,1,0,0:0:0:0:
368,252,48628,1,8,0:0:0:0:
384,40,48780,1,0,0:0:0:0:
120,124,48930,5,4,0:0:0:0:
236,304,49082,2,0,L|242:210,1,93.5
108,364,49385,1,0,0:0:0:0:
340,304,49537,1,4,0:0:0:0:
120,124,49688,1,0,0:0:0:0:
404,204,49840,1,8,0:0:0:0:
60,296,49991,1,0,0:0:0:0:
304,120,50143,5,4,0:0:0:0:
156,272,50295,1,0,0:0:0:0:
364,372,50446,2,0,P|375:326|365:281,1,93.5
304,120,50749,1,2,0:0:0:0:
488,92,50900,1,0,0:0:0:0:
284,232,51052,1,8,0:0:0:0:
324,20,51204,1,0,0:0:0:0:
472,180,51355,5,4,0:0:0:0:
304,120,51506,1,0,0:0:0:0:
460,268,51658,1,8,0:0:0:0:
388,88,51810,1,0,0:0:0:0:
204,188,51961,2,0,P|194:233|204:278,1,93.5
432,368,52264,2,0,P|442:322|432:277,1,93.5
340,112,52567,6,0,L|441:119,1,93.5
220,204,52870,2,0,L|127:197,1,93.5
360,84,53173,2,0,L|461:91,1,93.5
192,224,53476,2,0,L|99:217,1,93.5
192,52,53780,5,4,0:0:0:0:
304,216,53930,1,0,0:0:0:0:
336,48,54082,1,12,0:0:0:0:
168,232,54234,1,0,0:0:0:0:
384,144,54385,5,4,0:0:0:0:
104,132,54537,1,4,0:0:0:0:
356,296,54688,1,12,0:0:0:0:
204,8,54840,1,4,0:0:0:0:
160,272,54991,5,4,0:0:0:0:
244,88,55143,1,0,0:0:0:0:
328,308,55295,1,8,0:0:0:0:
200,176,55445,1,0,0:0:0:0:
440,140,55597,1,2,0:0:0:0:
268,240,55749,1,0,0:0:0:0:
328,16,55900,1,8,0:0:0:0:
352,188,56052,1,0,0:0:0:0:
108,92,56204,5,4,0:0:0:0:
92,288,56355,1,0,0:0:0:0:
264,124,56506,1,8,0:0:0:0:
276,308,56658,2,0,L|180:284,1,93.5
288,112,56961,1,0,0:0:0:0:
60,284,57113,1,8,0:0:0:0:
384,320,57264,1,0,0:0:0:0:
384,320,57340,1,0,0:0:0:0:
384,320,57415,5,4,0:0:0:0:
224,168,57567,1,0,0:0:0:0:
176,384,57719,1,8,0:0:0:0:
312,244,57870,1,0,0:0:0:0:
56,184,58021,1,2,0:0:0:0:
200,280,58173,1,0,0:0:0:0:
132,72,58325,1,8,0:0:0:0:
129,234,58476,1,0,0:0:0:0:
352,48,58628,5,4,0:0:0:0:
332,228,58780,1,0,0:0:0:0:
124,96,58930,1,8,0:0:0:0:
140,276,59082,2,0,L|144:376,1,93.5
296,100,59385,1,0,0:0:0:0:
16,208,59537,1,8,0:0:0:0:
344,264,59688,1,0,0:0:0:0:
344,264,59764,1,0,0:0:0:0:
344,264,59840,5,4,0:0:0:0:
44,320,59991,2,0,P|37:273|50:229,1,93.5
240,104,60295,1,0,0:0:0:0:
188,260,60446,1,2,0:0:0:0:
72,108,60596,1,0,0:0:0:0:
320,164,60749,1,8,0:0:0:0:
76,28,60900,1,0,0:0:0:0:
331,64,61052,5,4,0:0:0:0:
68,184,61204,2,0,L|160:195,1,93.5
416,284,61506,2,0,L|323:295,1,93.5
400,156,61810,1,0,0:0:0:0:
448,372,61961,1,8,0:0:0:0:
236,305,62113,1,0,0:0:0:0:
500,205,62264,6,0,P|508:118|441:51,1,187
300,107,62719,1,0,0:0:0:0:
300,107,62870,2,0,P|292:194|359:261,1,187
400,156,63325,1,0,0:0:0:0:
276,24,63476,6,0,L|183:33,1,93.5
240,236,63780,2,0,L|333:226,1,93.5
160,112,64082,1,2,0:0:0:0:
160,112,64158,1,2,0:0:0:0:
160,112,64234,1,2,0:0:0:0:
128,348,64385,1,8,0:0:0:0:
260,164,64537,1,0,0:0:0:0:
52,28,64688,6,0,P|15:111|48:200,1,187
192,256,65143,1,0,0:0:0:0:
252,93,65295,2,0,L|160:112,1,93.5
280,4,65597,1,8,0:0:0:0:
360,204,65749,1,0,0:0:0:0:
483,43,65900,6,0,P|437:47|392:60,1,93.5
424,288,66204,2,0,P|444:246|455:200,1,93.5
242,114,66506,2,0,P|267:152|301:185,1,93.5
392,60,66810,1,8,0:0:0:0:
208,0,66961,1,0,0:0:0:0:
115,207,67113,6,0,L|301:185,1,187
128,92,67567,1,0,0:0:0:0:
36,247,67719,2,0,P|27:293|36:339,1,93.5
301,276,68021,2,0,P|309:230|300:184,1,93.5
200,20,68325,6,0,L|291:37,1,93.5
