osu file format v14

[General]
AudioFilename: audio.mp3
AudioLeadIn: 0
PreviewTime: 53332
Countdown: 0
SampleSet: Soft
StackLeniency: 0.7
Mode: 2
LetterboxInBreaks: 0
WidescreenStoryboard: 0

[Editor]
DistanceSpacing: 1.6
BeatDivisor: 4
GridSize: 8
TimelineZoom: 1.5

[Metadata]
Title:STEP (TV Size)
TitleUnicode:STEP (TV Size)
Artist:ClariS
ArtistUnicode:ClariS
Creator:Dapuluous
Version:Rain
Source:ニセコイ
Tags:Nisekoi shaft 一条楽 Ichijo Raku 小野寺小咲 Onodera Kosaki 桐崎千棘 Kirisaki Chitoge 橘万里花 Tachibara Marika 鶫誠士郎 Tsugumi Seishiro false love fake tv size op opening -hex- -luminate ascendance greaper yumeno himiko
BeatmapID:2058609
BeatmapSetID:983846

[Difficulty]
HPDrainRate:5
CircleSize:4
OverallDifficulty:8.5
ApproachRate:8.5
SliderMultiplier:1.9
SliderTickRate:2

[Events]
//Background and Video events
0,0,"52.jpg",0,0
//Break Periods
//Storyboard Layer 0 (Background)
//Storyboard Layer 1 (Fail)
//Storyboard Layer 2 (Pass)
//Storyboard Layer 3 (Foreground)
//Storyboard Layer 4 (Overlay)
//Storyboard Sound Samples

[TimingPoints]
422,410.958904109589,4,2,1,50,1,0
422,-100,4,2,1,50,0,0
5353,-100,4,2,44,60,0,0
6997,-100,4,2,1,65,0,0
12545,-100,4,2,44,55,0,0
13572,-100,4,2,1,60,0,0
13778,-100,4,2,1,45,0,0
25079,-100,4,2,44,55,0,0
26723,-100,4,2,1,60,0,0
38435,-100,4,2,44,55,0,0
39874,-100,4,2,44,65,0,0
41723,-100,4,2,44,45,0,0
42237,-100,4,2,44,65,0,0
45011,-100,4,2,44,45,0,0
45525,-100,4,2,44,65,0,0
45832,-100,4,2,44,45,0,0
46346,-100,4,2,44,65,0,0
51380,-100,4,2,44,70,0,0
53435,-100,4,2,44,45,0,0
54668,-100,4,2,44,75,0,1
55079,-100,4,2,1,75,0,1
66791,-100,4,2,44,60,0,0
67819,-100,4,2,1,75,0,1
79326,-100,4,2,1,60,0,0
80558,-100,4,2,44,60,0,0
86517,-100,4,2,44,45,0,0
87031,-100,4,2,1,60,0,0
87339,-100,4,2,44,55,0,0
87545,-100,4,2,1,5,0,0

[Colours]
Combo1 : 10,130,225
Combo2 : 240,145,40
Combo3 : 250,240,80

[HitObjects]
208,224,422,6,0,L|66:224,2,142.5,2|0|0,0:3|0:0|0:0,0:0:0:0:
450,224,1449,2,0,L|346:224,1,95,0|0,0:0|0:0,0:0:0:0:
482,152,1860,2,0,L|426:152,1,47.5,0|0,0:0|0:0,0:0:0:0:
312,152,2065,6,0,L|168:152,2,142.5,2|0|0,0:3|0:0|0:0,0:0:0:0:
80,96,3093,2,0,L|192:96,1,95,0|0,0:0|0:0,0:0:0:0:
48,192,3504,2,0,L|120:192,1,47.5,0|0,0:0|0:0,0:0:0:0:
216,192,3709,6,0,L|360:192,2,142.5,2|0|0,0:3|0:0|0:0,0:0:0:0:
16,328,4737,2,0,L|111:328,2,95,0|0|0,0:0|0:0|0:0,0:0:0:0:
344,328,5353,6,0,L|456:328,1,95,8|8,0:0|0:0,0:0:0:0:
208,256,5764,2,0,L|113:256,1,95,8|2,0:0|0:0,0:0:0:0:
248,256,6072,2,0,L|400:256,1,142.5,8|8,0:0|0:0,0:0:0:0:
88,256,6586,1,8,1:1:0:0:
32,176,6688,1,2,0:0:0:0:
32,216,6791,1,2,0:0:0:0:
88,136,6894,1,2,0:0:0:0:
328,136,6997,6,0,B|432:136|432:136|432:222,1,190,4|8,0:0|0:0,0:0:0:0:
208,224,7613,2,0,L|303:224,2,95,2|0|2,0:0|0:0|0:3,0:0:0:0:
496,224,8230,2,0,L|496:320,1,95,8|0,0:0|0:0,0:0:0:0:
368,152,8641,6,0,L|463:152,1,95,2|0,0:0|0:0,0:0:0:0:
240,80,9052,2,0,L|136:80,1,95,8|0,0:0|0:0,0:0:0:0:
368,240,9463,1,2,0:0:0:0:
464,240,9668,1,2,0:3:0:0:
464,240,9874,1,8,0:0:0:0:
368,240,10079,1,2,0:0:0:0:
48,320,10285,6,0,L|240:320,1,190,4|8,0:0|0:0,0:0:0:0:
112,320,10901,1,2,0:0:0:0:
336,192,11106,1,10,0:0:0:0:
302,225,11208,1,10,0:0:0:0:
268,259,11311,1,2,0:0:0:0:
48,256,11517,1,8,0:0:0:0:
336,96,11723,6,0,L|431:96,1,95,4|0,0:0|0:0,0:0:0:0:
112,96,12134,1,2,0:0:0:0:
360,56,12545,1,2,0:0:0:0:
416,56,12647,1,2,0:0:0:0:
416,56,12750,1,10,0:0:0:0:
360,56,12853,1,2,0:0:0:0:
248,56,12956,1,2,0:0:0:0:
192,56,13058,1,2,0:0:0:0:
384,248,13161,2,0,L|479:248,1,95,8|8,0:1|0:0,0:0:0:0:
168,248,13572,5,4,0:0:0:0:
80,192,14394,1,0,0:0:0:0:
376,192,15011,1,0,0:0:0:0:
152,192,15216,6,0,P|88:248|168:296,1,190,2|0,0:3|0:0,0:0:0:0:
368,192,16038,1,2,0:3:0:0:
152,192,16449,1,0,0:0:0:0:
480,32,16860,6,0,B|480:128|480:128|384:128,1,190,2|0,0:3|0:0,0:0:0:0:
64,120,17682,1,2,0:3:0:0:
360,120,18298,1,0,0:0:0:0:
136,192,18504,6,0,P|76:250|144:312,1,190,2|0,0:3|0:0,0:0:0:0:
432,96,19326,1,2,0:3:0:0:
288,96,19531,1,0,0:0:0:0:
144,96,19737,2,0,L|144:208,1,95,0|0,0:0|0:0,0:0:0:0:
368,192,20148,5,2,0:3:0:0:
168,296,20969,2,0,L|264:296,2,95,2|0|0,0:3|0:0|0:0,0:0:0:0:
56,296,21586,1,0,0:0:0:0:
280,192,21791,5,2,0:3:0:0:
56,192,22202,1,0,0:0:0:0:
360,192,22613,1,2,0:3:0:0:
40,192,23024,1,0,0:0:0:0:
368,56,23435,6,0,L|72:56,1,285,2|0,0:3|0:0,0:0:0:0:
304,192,24257,1,2,0:3:0:0:
176,192,24874,1,0,0:0:0:0:
464,192,25079,5,2,0:3:0:0:
320,192,25285,1,8,0:0:0:0:
176,192,25490,1,8,0:0:0:0:
400,280,25695,2,0,L|464:280,1,47.5,8|8,0:0|0:0,0:0:0:0:
312,280,25901,2,0,L|176:280,1,95,8|8,0:0|0:0,0:0:0:0:
440,48,26312,2,0,L|440:160,1,95,8|0,0:1|0:0,0:0:0:0:
120,40,26723,6,0,L|120:144,1,95,4|0,0:0|0:0,0:0:0:0:
343,263,27134,2,0,L|231:263,1,95,2|0,0:0|0:0,0:0:0:0:
376,336,27545,2,0,L|471:336,1,95,2|0,0:0|0:0,0:0:0:0:
248,80,27956,2,0,L|360:80,1,95,2|0,0:0|0:0,0:0:0:0:
232,144,28264,1,0,0:0:0:0:
120,144,28367,6,0,L|215:144,1,95,2|0,0:3|0:0,0:0:0:0:
440,192,28778,2,0,L|336:192,1,95,2|0,0:0|0:0,0:0:0:0:
120,256,29189,2,0,L|120:360,1,95,2|0,0:0|0:0,0:0:0:0:
344,328,29600,2,0,L|240:328,1,95,2|0,0:0|0:0,0:0:0:0:
360,192,29908,1,0,0:0:0:0:
472,192,30011,6,0,L|472:88,1,95,2|0,0:3|0:1,0:0:0:0:
248,48,30421,2,0,L|352:48,1,95,2|0,0:0|0:1,0:0:0:0:
216,128,30832,2,0,L|312:128,1,95,2|0,0:0|0:1,0:0:0:0:
88,232,31243,2,0,L|88:344,1,95,2|0,0:0|0:0,0:0:0:0:
200,232,31552,1,0,0:0:0:0:
312,344,31654,6,0,L|200:344,1,95,2|0,0:3|0:1,0:0:0:0:
440,192,32065,2,0,L|345:192,1,95,2|0,0:0|0:1,0:0:0:0:
120,72,32476,2,0,L|224:72,1,95,2|0,0:0|0:0,0:0:0:0:
88,152,32887,2,0,L|183:152,1,95,2|0,0:0|0:0,0:0:0:0:
296,152,33195,1,0,0:0:0:0:
408,248,33298,6,0,L|304:248,1,95,2|0,0:3|0:0,0:0:0:0:
88,336,33709,2,0,L|208:336,1,95,2|0,0:0|0:0,0:0:0:0:
56,240,34120,1,2,0:0:0:0:
184,240,34326,1,0,0:0:0:0:
312,240,34531,2,0,L|424:240,1,95,2|0,0:0|0:0,0:0:0:0:
296,128,34839,1,0,0:0:0:0:
184,128,34942,6,0,L|89:128,1,95,2|0,0:3|0:0,0:0:0:0:
312,320,35353,2,0,L|416:320,1,95,2|0,0:0|0:0,0:0:0:0:
184,280,35764,2,0,L|72:280,1,95,2|0,0:0|0:0,0:0:0:0:
312,192,36175,2,0,L|424:192,1,95,2|0,0:0|0:0,0:0:0:0:
352,128,36483,1,0,0:0:0:0:
152,192,36586,6,0,L|40:192,1,95,2|0,0:3|0:0,0:0:0:0:
224,304,36997,2,0,L|120:304,1,95,2|0,0:0|0:0,0:0:0:0:
416,336,37408,2,0,L|416:224,1,95,2|0,0:0|0:0,0:0:0:0:
96,128,37819,1,2,0:0:0:0:
384,128,38024,6,0,L|480:128,1,95,2|2,0:3|0:0,0:0:0:0:
256,192,38435,1,8,0:0:0:0:
104,192,38641,1,8,0:0:0:0:
368,272,38846,2,0,L|424:272,1,47.5,8|8,0:0|0:0,0:0:0:0:
296,272,39052,2,0,L|184:272,1,95,8|8,0:0|0:0,0:0:0:0:
384,152,39463,2,0,L|496:152,1,95,8|0,0:0|0:0,0:0:0:0:
160,48,39874,6,0,P|72:88|112:152,1,190,12|0,0:1|0:0,0:0:0:0:
400,328,40490,2,0,L|192:328,1,190,8|0,0:0|0:0,0:0:0:0:
80,328,41106,1,2,0:0:0:0:
304,192,41312,1,2,0:3:0:0:
352,192,41414,1,2,0:3:0:0:
400,192,41517,5,2,0:3:0:0:
176,40,41723,1,2,0:0:0:0:
232,80,41826,1,2,0:0:0:0:
232,136,41928,1,2,0:0:0:0:
176,176,42031,1,2,0:0:0:0:
80,248,42134,2,0,L|24:248,1,47.5,2|2,0:0|0:3,0:0:0:0:
224,352,42339,6,0,L|336:352,2,95,8|0|0,0:0|0:0|0:0,0:0:0:0:
96,288,42956,2,0,L|32:288,1,47.5,2|2,0:3|0:3,0:0:0:0:
240,160,43161,6,0,L|440:160,1,190,2|0,0:3|0:0,0:0:0:0:
136,224,43778,2,0,L|312:312,1,190,8|2,0:0|0:3,0:0:0:0:
432,208,44394,1,2,0:0:0:0:
152,248,44600,1,2,0:3:0:0:
178,287,44702,1,2,0:3:0:0:
204,327,44805,5,2,0:3:0:0:
424,192,45011,1,2,0:0:0:0:
488,232,45113,1,2,0:0:0:0:
488,288,45216,1,2,0:0:0:0:
424,328,45319,1,2,0:0:0:0:
232,120,45421,2,0,L|176:120,1,47.5,2|2,0:0|0:3,0:0:0:0:
368,120,45627,5,8,0:0:0:0:
496,240,45832,2,0,L|424:240,1,47.5,2|2,0:0|0:3,0:0:0:0:
381,240,46038,1,0,0:0:0:0:
192,240,46243,2,0,L|264:240,1,47.5,2|2,0:0|0:3,0:0:0:0:
432,40,46449,6,0,P|480:80|400:144,1,190,2|0,0:3|0:3,0:0:0:0:
296,280,47065,2,0,L|360:280,1,47.5,2|2,0:3|0:3,0:0:0:0:
144,48,47271,2,0,P|80:88|144:160,1,190,8|0,0:0|0:0,0:0:0:0:
264,160,47887,2,0,L|216:160,1,47.5,2|2,0:3|0:3,0:0:0:0:
80,192,48093,6,0,B|80:288|80:288|184:288,1,190,2|0,0:0|0:0,0:0:0:0:
296,240,48709,2,0,L|343:240,1,47.5,2|2,0:3|0:3,0:0:0:0:
144,136,48915,2,0,L|48:136,1,95,8|0,0:0|0:0,0:0:0:0:
240,56,49326,2,0,L|136:56,1,95,2|0,0:0|0:0,0:0:0:0:
464,128,49737,6,0,L|369:128,2,95,6|0|2,0:3|0:0|0:3,0:0:0:0:
128,320,50353,2,0,L|328:320,1,190,6|2,0:3|0:3,0:0:0:0:
416,320,50969,1,2,0:0:0:0:
128,192,51175,6,0,L|24:192,1,95,12|0,0:1|0:0,0:0:0:0:
224,104,51586,2,0,L|120:104,1,95,8|8,0:0|0:0,0:0:0:0:
320,192,51997,2,0,L|384:192,1,47.5,8|8,0:0|0:0,0:0:0:0:
416,192,52202,1,8,0:0:0:0:
232,192,52408,1,8,0:0:0:0:
496,192,52613,1,8,0:0:0:0:
152,200,52819,5,2,0:0:0:0:
376,40,53435,2,0,P|416:96|328:144,1,190,0|0,0:0|0:0,0:0:0:0:
16,192,54257,1,0,0:0:0:0:
496,264,54668,6,0,L|392:264,1,95,8|0,0:1|0:0,0:0:0:0:
176,112,55079,2,0,L|280:112,1,95,8|0,0:0|0:0,0:0:0:0:
144,192,55490,2,0,L|48:192,1,95,2|0,0:0|0:0,0:0:0:0:
272,224,55901,2,0,L|400:224,1,95,8|0,0:0|0:0,0:0:0:0:
312,160,56209,1,2,0:0:0:0:
96,112,56312,6,0,P|40:144|72:248,1,190,2|8,0:0|0:0,0:0:0:0:
200,232,56928,1,0,0:0:0:0:
488,304,57134,2,0,L|393:304,1,95,2|0,0:0|0:0,0:0:0:0:
168,304,57545,2,0,L|64:304,1,95,8|0,0:0|0:0,0:0:0:0:
128,248,57853,1,2,0:0:0:0:
344,192,57956,6,0,L|448:192,1,95,2|0,0:0|0:0,0:0:0:0:
120,192,58367,2,0,L|216:192,1,95,8|0,0:0|0:0,0:0:0:0:
440,80,58778,2,0,L|336:80,1,95,2|0,0:0|0:0,0:0:0:0:
40,120,59189,2,0,L|160:120,1,95,8|0,0:0|0:0,0:0:0:0:
192,120,59497,1,2,0:0:0:0:
408,304,59600,6,0,L|312:304,1,95,2|0,0:0|0:0,0:0:0:0:
88,72,60011,2,0,L|88:176,1,95,8|0,0:0|0:0,0:0:0:0:
384,88,60421,2,0,L|488:88,1,95,2|0,0:0|0:0,0:0:0:0:
296,240,60832,2,0,L|400:240,1,95,8|0,0:0|0:0,0:0:0:0:
72,192,61243,6,0,P|48:272|136:304,1,190,2|8,0:3|0:0,0:0:0:0:
352,104,61860,2,0,L|248:104,2,95,2|0|2,0:3|0:0|0:0,0:0:0:0:
64,192,62476,1,8,0:0:0:0:
352,304,62682,6,0,L|256:304,1,95,2|0,0:3|0:0,0:0:0:0:
128,192,63093,1,2,0:0:0:0:
416,192,63298,1,8,0:0:0:0:
104,64,63504,2,0,L|216:64,2,95,2|2|0,0:3|0:0|0:0,0:0:0:0:
328,192,64120,2,0,L|328:304,1,95,8|0,0:0|0:0,0:0:0:0:
40,192,64531,6,0,L|144:192,2,95,2|0|8,0:0|0:0|0:0,0:0:0:0:
264,232,65148,2,0,L|168:232,1,95,2|0,0:0|0:0,0:0:0:0:
392,56,65558,2,0,L|487:56,1,95,2|8,0:0|0:0,0:0:0:0:
168,264,65969,6,0,L|64:264,1,95,2|0,0:3|0:0,0:0:0:0:
360,192,66380,1,2,0:0:0:0:
391,229,66482,1,2,0:0:0:0:
423,266,66585,1,8,0:0:0:0:
112,192,66791,6,0,P|48:224|112:288,1,190,10|2,0:0|0:0,0:0:0:0:
336,128,67408,2,0,L|432:128,1,95,8|0,0:1|0:0,0:0:0:0:
96,264,67819,6,0,L|192:264,1,95,4|0,0:0|0:0,0:0:0:0:
416,248,68230,2,0,L|416:352,1,95,8|0,0:0|0:0,0:0:0:0:
192,64,68641,2,0,L|287:64,1,95,2|0,0:0|0:0,0:0:0:0:
16,192,69052,2,0,L|16:288,1,95,8|0,0:0|0:0,0:0:0:0:
80,192,69360,1,2,0:0:0:0:
296,192,69463,6,0,P|392:192|464:256,1,190,2|8,0:0|0:0,0:0:0:0:
336,296,70079,1,0,0:0:0:0:
24,224,70285,1,2,0:0:0:0:
168,224,70490,1,0,0:0:0:0:
312,80,70695,1,8,0:0:0:0:
456,80,70901,1,0,0:0:0:0:
144,304,71106,6,0,L|32:304,1,95,2|0,0:0|0:0,0:0:0:0:
240,248,71518,2,0,L|344:248,1,95,8|0,0:0|0:0,0:0:0:0:
32,104,71929,2,0,L|32:200,1,95,2|0,0:0|0:0,0:0:0:0:
336,192,72339,2,0,L|448:192,1,95,8|0,0:0|0:0,0:0:0:0:
376,136,72648,1,2,0:0:0:0:
160,304,72751,6,0,L|64:304,1,95,2|0,0:0|0:0,0:0:0:0:
288,304,73162,2,0,L|288:200,1,95,8|0,0:0|0:0,0:0:0:0:
64,80,73572,2,0,L|64:176,1,95,2|0,0:0|0:0,0:0:0:0:
288,80,73983,2,0,L|184:80,1,95,8|0,0:0|0:0,0:0:0:0:
464,192,74394,6,0,P|480:280|384:320,1,190,2|8,0:3|0:0,0:0:0:0:
176,104,75011,2,0,L|280:104,2,95,2|2|0,0:3|0:0|0:0,0:0:0:0:
464,192,75627,1,8,0:0:0:0:
176,192,75833,6,0,L|288:192,1,95,2|2,0:3|0:0,0:0:0:0:
400,192,76244,1,0,0:0:0:0:
112,192,76449,1,8,0:0:0:0:
408,64,76655,2,0,L|296:64,2,95,2|0|2,0:3|0:0|0:0,0:0:0:0:
184,296,77271,2,0,L|88:296,1,95,8|2,0:0|0:0,0:0:0:0:
401,192,77682,6,0,L|496:192,2,95,4|2|8,0:0|0:0|0:0,0:0:0:0:
176,120,78299,2,0,L|72:120,1,95,2|0,0:0|0:0,0:0:0:0:
208,48,78709,2,0,L|112:48,1,95,2|8,0:0|0:0,0:0:0:0:
400,192,79120,1,2,0:0:0:0:
88,192,79326,5,4,0:0:0:0:
408,192,80558,1,10,0:0:0:0:
464,240,80660,1,2,0:0:0:0:
464,296,80763,1,2,0:0:0:0:
408,336,80866,1,2,0:0:0:0:
200,192,80969,6,0,P|144:256|216:320,1,190,8|8,0:1|0:0,0:0:0:0:
432,72,81586,2,0,L|328:72,2,95,2|2|2,0:3|0:0|0:3,0:0:0:0:
144,192,82202,2,0,L|144:288,1,95,8|0,0:0|0:0,0:0:0:0:
432,192,82613,6,0,L|337:192,1,95,2|0,0:0|0:0,0:0:0:0:
136,192,83024,1,8,0:0:0:0:
432,192,83230,2,0,L|320:192,2,95,2|2|2,0:3|0:0|0:3,0:0:0:0:
215,96,83846,2,0,L|111:96,1,95,8|0,0:0|0:0,0:0:0:0:
400,192,84257,6,0,P|448:240|360:288,1,190,2|8,0:3|0:0,0:0:0:0:
216,280,84873,1,2,0:0:0:0:
440,56,85078,1,8,0:0:0:0:
406,89,85182,1,8,0:0:0:0:
372,123,85285,1,2,0:3:0:0:
152,128,85489,1,8,0:0:0:0:
472,48,85695,6,0,L|377:48,1,95,4|0,0:0|0:0,0:0:0:0:
72,192,86106,1,2,0:0:0:0:
352,192,86517,5,10,0:0:0:0:
296,232,86619,1,2,0:0:0:0:
296,280,86722,1,10,0:0:0:0:
352,320,86825,1,2,0:0:0:0:
440,256,86928,1,2,0:0:0:0:
168,192,87134,1,0,1:0:0:0:
472,192,87339,1,8,0:1:0:0:
256,192,87545,12,0,89189,0:0:0:0:
