osu file format v14

[General]
AudioFilename: SHIORI vs. Hitorigoto.mp3
AudioLeadIn: 0
PreviewTime: 56358
Countdown: 0
SampleSet: Soft
StackLeniency: 0.7
Mode: 0
LetterboxInBreaks: 0
WidescreenStoryboard: 1

[Editor]
Bookmarks: 876,6330,11784,17238,22693,28147,33602,39056,44511,49965,55420,60874,69443,75261,81079,86897,92715,98534
DistanceSpacing: 1.94
BeatDivisor: 4
GridSize: 8
TimelineZoom: 1.76

[Metadata]
Title:SHIORI vs. Hitorigoto
TitleUnicode:SHIORI vs. ヒトリゴト
Artist:ClariS
ArtistUnicode:ClariS
Creator:Sotarks
Version:Kencho's Insane
Source:
Tags:エロマンガ先生 eromanga sensei ero manga eromanga-sensei opening tv size eromangasensei 終物語 ending owarimonogatari shitorigoto shiorigoto lit120 kencho akitoshi corinn ayyri -Hakurei-
BeatmapID:1503470
BeatmapSetID:707380

[Difficulty]
HPDrainRate:5.4
CircleSize:3.6
OverallDifficulty:8.2
ApproachRate:9
SliderMultiplier:1.6
SliderTickRate:1

[Events]
//Background and Video events
0,0,"BG.jpg",0,0
//Break Periods
//Storyboard Layer 0 (Background)
//Storyboard Layer 1 (Fail)
//Storyboard Layer 2 (Pass)
//Storyboard Layer 3 (Foreground)
//Storyboard Sound Samples

[TimingPoints]
876,340.909090909091,4,2,22,52,1,0
876,-166.666666666667,4,2,22,52,0,0
6330,-125,4,2,22,52,0,0
10902,340.909090909091,4,2,22,52,1,0
11103,340.909090909091,4,2,22,52,1,0
11103,-125,4,2,22,52,0,0
11784,340.909090909091,4,2,22,52,1,0
12465,-100,4,2,22,62,0,0
12806,-100,4,2,22,72,0,0
13147,-100,4,2,22,82,0,0
14171,-100,4,2,22,52,0,0
15534,-100,4,2,22,62,0,0
16045,-100,4,2,22,72,0,0
16556,-100,4,2,22,82,0,0
17239,-100,4,2,22,52,0,0
39056,-125,4,2,22,52,0,0
54739,-100,4,2,22,52,0,0
55421,-200,4,2,22,52,0,0
56444,-200,4,2,22,42,0,0
58147,-100,4,2,22,52,0,0
59170,-100,4,2,22,62,0,0
60193,-100,4,2,22,72,0,0
62238,-200,4,2,22,72,0,0
63602,340.909090909091,4,2,22,82,1,8
63625,363.636363636364,4,2,22,82,1,1
63625,-83.3333333333333,4,2,22,82,0,1
75170,-83.3333333333333,4,2,22,82,0,0
75261,-83.3333333333333,4,2,22,82,0,1
95625,-100,4,2,22,52,0,0

[Colours]
Combo1 : 141,155,203
Combo2 : 135,156,175
Combo3 : 249,202,214
Combo4 : 169,46,95

[HitObjects]
99,259,705,5,0,0:0:0:0:
178,199,876,6,0,L|226:206,1,47.9999985351563,2|0,0:0|0:0,0:0:0:0:
242,288,1216,2,0,L|284:265,1,47.9999985351563,2|0,0:0|0:0,0:0:0:0:
346,322,1557,2,0,L|367:278,1,47.9999985351563,2|0,0:0|0:0,0:0:0:0:
450,288,1898,2,0,L|441:240,1,47.9999985351563,2|0,0:0|0:0,0:0:0:0:
424,146,2239,5,2,0:0:0:0:
357,197,2410,1,2,0:0:0:0:
443,155,2580,1,2,0:0:0:0:
324,172,2751,2,0,L|276:179,1,47.9999985351563,2|0,0:0|0:0,0:0:0:0:
224,244,3091,2,0,L|176:237,1,47.9999985351563,2|0,0:0|0:0,0:0:0:0:
100,200,3432,1,2,0:0:0:0:
86,295,3603,6,0,L|79:343,1,47.9999985351563,2|0,0:0|0:0,0:0:0:0:
170,284,3944,2,0,L|177:236,1,47.9999985351563,2|0,0:0|0:0,0:0:0:0:
254,273,4285,2,0,L|247:321,1,47.9999985351563,2|0,0:0|0:0,0:0:0:0:
338,262,4626,2,0,L|345:214,1,47.9999985351563,2|0,0:0|0:0,0:0:0:0:
357,119,4966,5,2,0:0:0:0:
432,178,5137,1,0,0:0:0:0:
322,128,5307,1,2,0:0:0:0:
441,145,5478,2,0,L|489:152,1,47.9999985351563,2|0,0:0|0:0,0:0:0:0:
366,244,5819,2,0,L|373:196,1,47.9999985351563,2|0,0:0|0:0,0:0:0:0:
390,77,6160,1,0,0:0:0:0:
272,191,6330,6,0,P|171:188|244:118,1,256,6|2,1:0|0:0,0:0:0:0:
322,128,7182,1,0,0:0:0:0:
293,55,7353,1,0,0:0:0:0:
214,44,7523,1,0,0:0:0:0:
155,120,7694,6,0,P|94:135|39:106,1,128,6|0,1:0|0:0,0:0:0:0:
9,14,8205,1,8,0:0:0:0:
32,169,8546,1,4,3:0:0:0:
32,169,8716,2,0,L|39:106,1,64,12|0,3:0|0:0,0:0:0:0:
168,180,9057,6,0,P|269:177|196:107,1,256,6|2,1:0|0:0,0:0:0:0:
118,117,9910,1,0,0:0:0:0:
147,44,10080,1,0,0:0:0:0:
226,33,10251,1,0,0:0:0:0:
285,109,10421,6,0,P|346:124|401:95,1,128,6|0,1:0|0:0,0:0:0:0:
431,3,10890,1,0,0:0:0:0:
408,158,11273,1,4,3:0:0:0:
408,158,11443,2,0,L|401:95,1,64,4|0,3:0|0:0,0:0:0:0:
483,218,11784,5,6,1:0:0:0:
348,233,11954,1,0,0:0:0:0:
408,158,12124,1,0,1:0:0:0:
423,293,12295,1,0,1:0:0:0:
145,255,12465,5,0,1:0:0:0:
348,233,12636,1,0,1:0:0:0:
258,346,12806,1,0,1:0:0:0:
235,143,12977,1,0,1:0:0:0:
483,218,13147,5,8,0:0:0:0:
483,218,14170,2,0,L|488:177,3,40,2|2|2|2,0:0|0:0|0:0|0:0,0:0:0:0:
442,348,14511,5,10,0:0:0:0:
237,247,14681,1,0,1:0:0:0:
372,232,14852,1,0,1:0:0:0:
196,377,15022,5,10,0:0:0:0:
297,172,15193,1,0,1:0:0:0:
312,307,15363,1,0,1:0:0:0:
167,131,15534,5,10,0:0:0:0:
372,232,15704,1,0,1:0:0:0:
237,247,15874,1,0,1:0:0:0:
413,102,16045,5,10,0:0:0:0:
312,307,16215,1,8,0:0:0:0:
282,37,16386,1,0,1:0:0:0:
483,218,16556,5,10,0:0:0:0:
237,247,16727,1,0,1:0:0:0:
413,102,16897,2,0,L|408:143,3,40,8|8|8|8,0:0|0:0|0:0|0:0,0:0:0:0:
422,19,17238,5,4,1:0:0:0:
422,19,17579,2,0,P|383:23|351:46,1,80,0|0,1:0|0:0,0:0:0:0:
333,128,17920,2,0,B|345:90|334:49|334:49|294:42|255:55,1,160,2|2,1:0|1:0,0:0:0:0:
239,150,18431,1,8,0:0:0:0:
324,211,18602,6,0,P|363:207|395:184,1,80,2|0,1:0|0:0,0:0:0:0:
422,19,18943,2,0,P|383:23|351:46,1,80,2|0,1:0|0:0,0:0:0:0:
333,128,19284,1,2,1:0:0:0:
413,102,19454,1,4,3:0:0:0:
271,72,19624,2,0,P|252:107|251:146,1,80,10|4,3:0|3:0,0:0:0:0:
315,264,19965,6,0,P|359:201|333:128,1,160,2|0,1:0|1:0,0:0:0:0:
271,72,20477,1,0,0:0:0:0:
141,172,20647,2,0,P|204:215|277:189,1,160,2|0,1:0|1:0,0:0:0:0:
333,128,21159,1,8,0:0:0:0:
147,92,21329,6,0,L|67:86,1,80,2|0,1:0|0:0,0:0:0:0:
67,257,21670,2,0,L|146:251,1,80,2|0,1:0|0:0,0:0:0:0:
141,172,22011,1,6,3:0:0:0:
57,172,22181,1,4,3:0:0:0:
216,210,22352,2,0,P|226:172|216:134,1,80,14|6,3:0|3:0,0:0:0:0:
174,47,22693,5,0,1:0:0:0:
174,47,23034,2,0,L|252:31,1,80,0|0,1:0|0:0,0:0:0:0:
356,73,23374,2,0,L|513:41,1,160,2|2,1:0|1:0,0:0:0:0:
474,184,23886,1,8,0:0:0:0:
408,237,24056,6,0,P|390:200|392:163,1,80,2|0,1:0|0:0,0:0:0:0:
422,20,24397,2,0,P|440:57|438:94,1,80,2|0,1:0|0:0,0:0:0:0:
278,89,24738,1,2,1:0:0:0:
356,73,24909,1,4,3:0:0:0:
328,206,25079,2,0,L|312:284,1,80,10|4,3:0|3:0,0:0:0:0:
158,289,25420,6,0,B|270:266|270:266|312:284,1,160,2|0,1:0|1:0,0:0:0:0:
261,366,25931,2,0,L|183:382,1,80,0|0,0:0|1:0,0:0:0:0:
65,264,26272,1,2,0:0:0:0:
158,289,26443,1,2,1:0:0:0:
90,357,26613,1,10,0:0:0:0:
133,196,26784,6,0,B|173:191|173:191|209:207,1,80,2|0,1:0|0:0,0:0:0:0:
330,303,27124,2,0,B|290:308|290:308|254:292,1,80,0|0,1:0|0:0,0:0:0:0:
305,210,27465,1,2,1:0:0:0:
158,289,27636,1,8,0:0:0:0:
163,121,27806,1,8,3:0:0:0:
209,207,27977,1,4,3:0:0:0:
209,207,28062,1,4,3:0:0:0:
209,207,28147,6,0,B|157:220|157:220|108:202|108:202|56:215,1,160,6|0,1:0|1:0,0:0:0:0:
101,301,28659,1,0,0:0:0:0:
163,121,28829,2,0,P|165:82|148:45,1,80,2|0,1:0|0:0,0:0:0:0:
82,98,29170,1,2,1:0:0:0:
238,64,29340,1,8,0:0:0:0:
61,16,29511,6,0,P|26:33|2:66,1,80,2|0,1:0|0:0,0:0:0:0:
163,121,29852,2,0,P|165:82|148:45,1,80,2|0,1:0|0:0,0:0:0:0:
19,156,30193,1,2,1:0:0:0:
95,181,30363,1,0,0:0:0:0:
239,96,30534,2,0,L|163:121,1,80,6|4,3:0|3:0,0:0:0:0:
263,251,30874,6,0,B|274:213|264:172|264:172|188:197,1,160,2|0,1:0|1:0,0:0:0:0:
213,314,31386,2,0,P|288:328|340:272,1,160,0|0,0:0|0:0,0:0:0:0:
329,139,31897,1,2,1:0:0:0:
263,251,32068,1,8,0:0:0:0:
384,197,32238,6,0,P|406:163|408:125,1,80,2|0,1:0|0:0,0:0:0:0:
278,82,32579,2,0,P|296:118|329:139,1,80,2|0,1:0|0:0,0:0:0:0:
434,48,32920,1,2,1:0:0:0:
356,63,33090,1,4,3:0:0:0:
384,197,33261,2,0,L|462:182,1,80,14|4,3:0|3:0,0:0:0:0:
322,260,33602,6,0,L|165:229,1,160,2|0,1:0|1:0,0:0:0:0:
111,295,34113,1,2,0:0:0:0:
219,165,34284,2,0,L|297:180,1,80,2|0,1:0|0:0,0:0:0:0:
347,340,34624,1,2,1:0:0:0:
298,180,34795,1,8,0:0:0:0:
165,230,34965,6,0,P|140:197|134:158,1,80,2|0,1:0|0:0,0:0:0:0:
249,244,35306,2,0,P|232:282|202:306,1,80,2|0,1:0|0:0,0:0:0:0:
219,165,35647,1,2,1:0:0:0:
298,180,35818,1,8,0:0:0:0:
165,230,35988,2,0,L|90:257,1,80,10|4,3:0|3:0,0:0:0:0:
219,165,36329,6,0,B|220:122|190:93|190:93|114:120,1,160,2|0,1:0|1:0,0:0:0:0:
249,244,36840,2,0,B|285:266|325:254|325:254|339:176,1,160,0|0,0:0|0:0,0:0:0:0:
309,93,37352,1,2,1:0:0:0:
427,191,37522,1,10,0:0:0:0:
396,108,37693,5,2,1:0:0:0:
284,244,37863,1,10,0:0:0:0:
309,93,38034,1,2,1:0:0:0:
371,259,38204,1,10,3:0:0:0:
222,78,38374,5,2,1:0:0:0:
340,176,38545,1,10,3:0:0:0:
197,229,38715,2,0,L|118:214,1,80,6|4,3:0|3:0,0:0:0:0:
42,176,39056,6,0,P|79:225|75:288,1,128,6|0,1:0|0:0,0:0:0:0:
21,356,39568,1,0,1:0:0:0:
159,301,39738,2,0,L|224:309,1,64,2|0,0:0|0:0,0:0:0:0:
317,359,40079,1,8,0:0:0:0:
251,228,40249,1,0,0:0:0:0:
370,291,40420,6,0,B|399:309|430:310|430:310|455:290|468:260,1,128,2|2,1:0|0:0,0:0:0:0:
398,210,40931,1,0,1:0:0:0:
370,291,41102,1,2,0:0:0:0:
351,139,41272,1,8,0:0:0:0:
370,291,41443,2,0,L|378:357,1,64,10|0,3:0|0:0,0:0:0:0:
233,308,41784,6,0,B|260:293|294:298|294:298|302:362,1,128,2|2,1:0|0:0,0:0:0:0:
174,369,42295,1,0,1:0:0:0:
151,288,42465,2,0,P|149:257|155:225,1,64,2|0,0:0|0:0,0:0:0:0:
205,130,42806,1,2,1:0:0:0:
252,218,42977,1,0,0:0:0:0:
302,124,43147,6,0,B|343:117|343:117|383:135|383:135|425:127,1,128,2|0,1:0|0:0,0:0:0:0:
395,52,43659,1,0,1:0:0:0:
332,200,43829,2,0,L|341:263,1,64,2|0,0:0|1:0,0:0:0:0:
471,358,44170,2,0,L|480:295,1,64,8|0,0:0|0:0,0:0:0:0:
376,341,44511,6,0,P|314:345|266:304,1,128,6|0,1:0|0:0,0:0:0:0:
341,263,45022,1,0,1:0:0:0:
191,345,45193,2,0,L|126:337,1,64,2|0,0:0|0:0,0:0:0:0:
59,285,45534,1,10,3:0:0:0:
48,369,45704,1,0,0:0:0:0:
139,253,45874,6,0,B|154:216|154:216|153:171|138:130,1,128,2|2,1:0|0:0,0:0:0:0:
105,50,46386,1,0,1:0:0:0:
53,118,46556,1,2,0:0:0:0:
190,62,46727,1,8,0:0:0:0:
53,118,46897,2,0,L|65:180,1,64,10|0,3:0|0:0,0:0:0:0:
20,253,47238,6,0,P|73:220|134:231,1,128,2|2,1:0|0:0,0:0:0:0:
89,304,47749,1,0,1:0:0:0:
65,180,47920,2,0,L|53:118,1,64,2|0,0:0|0:0,0:0:0:0:
125,26,48261,1,6,3:0:0:0:
147,132,48431,1,0,0:0:0:0:
219,41,48602,6,0,P|280:29|332:63,1,128,2|2,1:0|0:0,0:0:0:0:
264,114,49113,1,0,1:0:0:0:
196,62,49284,2,0,L|183:-1,1,64,2|0,1:0|0:0,0:0:0:0:
273,135,49624,2,0,L|260:197,1,64,10|0,0:0|0:0,0:0:0:0:
208,266,49965,6,0,B|246:246|246:246|329:266,1,128,6|0,1:0|0:0,0:0:0:0:
403,369,50477,1,0,1:0:0:0:
320,350,50647,2,0,L|258:336,1,64,2|0,0:0|0:0,0:0:0:0:
208,266,50988,1,10,0:0:0:0:
183,378,51159,1,0,0:0:0:0:
119,237,51329,6,0,P|108:175|109:110,1,128,2|2,1:0|0:0,0:0:0:0:
157,40,51840,1,0,1:0:0:0:
194,118,52011,1,2,0:0:0:0:
72,32,52181,1,8,0:0:0:0:
194,118,52352,2,0,L|258:108,1,64,2|4,1:0|3:0,0:0:0:0:
334,69,52693,6,0,P|297:118|301:181,1,128,2|2,1:0|0:0,0:0:0:0:
355,249,53204,1,0,0:0:0:0:
217,194,53374,2,0,L|175:199,2,42.6666666666667,10|8|8,0:0|0:0|0:0,0:0:0:0:
118,276,53715,2,0,L|76:271,2,42.6666666666667,6|4|4,3:0|3:0|3:0,0:0:0:0:
20,192,54056,5,6,1:0:0:0:
29,176,54738,5,6,1:0:0:0:
38,160,55420,5,2,0:0:0:0:
38,160,56784,6,0,P|93:180|141:148,1,120,2|2,0:0|0:0,0:0:0:0:
141,149,57636,2,0,L|220:155,1,80,2|2,0:0|0:0,0:0:0:0:
379,121,58147,5,10,0:0:0:0:
250,157,58318,1,0,1:0:0:0:
336,23,58488,1,0,1:0:0:0:
308,230,58659,5,10,0:0:0:0:
293,90,58829,1,0,1:0:0:0:
422,219,58999,1,0,1:0:0:0:
264,299,59170,5,10,0:0:0:0:
352,161,59340,1,0,1:0:0:0:
359,349,59511,1,0,1:0:0:0:
162,213,59681,5,10,0:0:0:0:
343,259,59852,1,0,1:0:0:0:
111,317,60022,1,10,0:0:0:0:
213,109,60193,5,10,0:0:0:0:
220,368,60363,1,10,0:0:0:0:
2,266,60534,5,10,0:0:0:0:
221,93,60704,1,10,0:0:0:0:
343,259,60874,6,0,P|382:255|417:232,1,80,14|0,0:0|1:0,0:0:0:0:
308,114,61215,1,0,1:0:0:0:
259,275,61386,2,0,P|274:310|307:337,1,80,10|2,0:0|1:0,0:0:0:0:
395,135,61727,1,8,2:0:0:0:
218,200,61897,2,0,P|188:226|174:265,1,80,2|0,1:0|1:0,0:0:0:0:
202,339,62153,1,0,1:0:0:0:
202,339,62238,6,0,P|176:287|178:347,1,160,6|0,1:0|0:0,0:0:0:0:
256,192,63625,5,0,0:0:0:0:
347,221,63806,5,2,0:0:0:0:
184,256,63988,1,10,0:0:0:0:
235,98,64170,1,0,0:0:0:0:
379,215,64352,5,10,0:0:0:0:
165,163,64534,1,2,1:0:0:0:
410,208,64715,5,10,0:0:0:0:
203,349,64897,1,2,1:0:0:0:
441,201,65079,6,0,P|446:154|427:111,1,95.9999970703126,10|2,0:0|0:0,0:0:0:0:
315,9,65443,1,8,0:0:0:0:
256,192,65625,2,0,L|350:172,1,95.9999970703126,2|8,0:0|0:0,0:0:0:0:
192,120,65988,1,2,1:0:0:0:
227,283,66170,1,10,0:0:0:0:
221,29,66352,1,2,1:0:0:0:
256,192,66534,5,10,0:0:0:0:
165,221,66715,5,2,0:0:0:0:
328,256,66897,1,10,0:0:0:0:
277,98,67079,1,2,0:0:0:0:
133,215,67261,5,10,0:0:0:0:
347,163,67443,1,2,1:0:0:0:
102,208,67625,5,10,0:0:0:0:
309,349,67806,1,2,1:0:0:0:
71,201,67988,6,0,P|66:154|85:111,1,95.9999970703126,10|2,0:0|0:0,0:0:0:0:
197,9,68352,1,8,0:0:0:0:
256,192,68534,2,0,L|162:172,1,95.9999970703126,2|8,0:0|0:0,0:0:0:0:
320,120,68897,1,2,1:0:0:0:
285,283,69079,1,10,0:0:0:0:
291,29,69261,1,2,1:0:0:0:
256,192,69443,5,8,0:0:0:0:
407,160,69625,6,0,P|454:165|489:196,1,95.9999970703126,2|10,0:0|0:0,0:0:0:0:
343,231,69988,1,0,0:0:0:0:
359,77,70170,2,0,P|378:34|419:10,1,95.9999970703126,10|2,0:0|1:0,0:0:0:0:
265,96,70534,2,0,P|229:63|220:18,1,95.9999970703126,10|2,0:0|0:0,0:0:0:0:
407,160,70897,5,8,0:0:0:0:
256,192,71079,6,0,L|162:212,1,95.9999970703126,2|10,0:0|0:0,0:0:0:0:
265,96,71443,1,2,0:0:0:0:
343,231,71625,2,0,P|353:277|334:320,1,95.9999970703126,10|0,0:0|1:0,0:0:0:0:
359,77,71988,2,0,P|378:34|419:10,1,95.9999970703126,10|0,0:0|1:0,0:0:0:0:
501,140,72352,6,0,L|407:160,1,95.9999970703126,10|0,0:0|1:0,0:0:0:0:
162,212,72715,2,0,L|256:192,1,95.9999970703126,10|0,0:0|1:0,0:0:0:0:
419,10,73079,2,0,P|379:33|359:76,1,95.9999970703126,10|0,0:0|1:0,0:0:0:0:
334,320,73443,2,0,P|353:277|343:230,1,95.9999970703126,10|0,0:0|1:0,0:0:0:0:
270,74,73806,5,14,1:2:0:0:
364,242,73988,1,2,1:2:0:0:
387,52,74170,1,10,1:2:0:0:
256,192,74352,1,10,1:2:0:0:
445,155,74534,5,10,1:2:0:0:
184,34,74715,1,10,1:2:0:0:
324,286,74897,1,10,1:2:0:0:
358,0,75079,1,8,1:2:0:0:
162,212,75261,5,6,1:0:0:0:
256,192,75443,5,2,0:0:0:0:
132,302,75625,1,10,0:0:0:0:
192,120,75806,1,2,0:0:0:0:
196,374,75988,5,10,0:0:0:0:
98,139,76170,1,2,1:0:0:0:
226,283,76352,5,10,0:0:0:0:
38,321,76534,1,2,1:0:0:0:
256,192,76715,6,0,P|300:220|319:258,1,95.9999970703126,10|0,0:0|0:0,0:0:0:0:
132,302,77079,1,10,0:0:0:0:
192,120,77261,2,0,P|234:98|281:100,1,95.9999970703126,2|8,0:0|0:0,0:0:0:0:
162,212,77625,1,2,1:0:0:0:
128,48,77806,1,10,0:0:0:0:
132,302,77988,1,2,1:0:0:0:
350,212,78170,5,8,0:0:0:0:
256,192,78352,5,2,0:0:0:0:
380,302,78534,1,10,0:0:0:0:
320,120,78715,1,2,0:0:0:0:
316,374,78897,5,10,0:0:0:0:
414,139,79079,1,2,1:0:0:0:
286,283,79261,5,10,0:0:0:0:
474,321,79443,1,2,1:0:0:0:
256,192,79625,6,0,P|212:220|193:258,1,95.9999970703126,10|0,0:0|0:0,0:0:0:0:
380,302,79988,1,10,0:0:0:0:
320,120,80170,2,0,P|278:98|231:100,1,95.9999970703126,2|8,0:0|0:0,0:0:0:0:
350,212,80534,1,2,1:0:0:0:
384,48,80715,1,10,0:0:0:0:
380,302,80897,1,2,1:0:0:0:
162,212,81079,5,8,0:0:0:0:
320,120,81261,6,0,L|414:140,1,95.9999970703126,2|8,0:0|0:0,0:0:0:0:
256,192,81625,1,2,0:0:0:0:
384,48,81806,1,10,0:0:0:0:
350,212,81988,1,2,1:0:0:0:
290,29,82170,1,10,0:0:0:0:
414,140,82352,1,2,1:0:0:0:
226,100,82534,5,8,0:0:0:0:
286,284,82715,6,0,L|316:376,1,95.9999970703126,2|8,0:0|0:0,0:0:0:0:
256,192,83079,1,2,0:0:0:0:
350,212,83261,2,0,L|442:183,1,95.9999970703126,10|0,0:0|1:0,0:0:0:0:
192,264,83625,2,0,L|101:294,1,95.9999970703126,10|0,0:0|1:0,0:0:0:0:
316,372,83988,6,0,B|314:326|314:326|286:285,1,95.9999970703126,10|0,0:0|0:0,0:0:0:0:
101,246,84352,2,0,B|143:268|143:268|193:264,1,95.9999970703126,8|0,0:0|1:0,0:0:0:0:
317,122,84715,2,0,B|278:147|278:147|256:192,1,95.9999970703126,10|0,0:0|0:0,0:0:0:0:
222,355,85079,1,8,0:0:0:0:
350,212,85261,1,2,1:0:0:0:
162,172,85443,5,10,0:0:0:0:
139,179,85806,1,10,0:0:0:0:
116,187,86170,2,0,L|69:202,2,47.9999985351563,10|0|0,0:0|1:0|1:0,0:0:0:0:
209,154,86534,1,10,0:0:0:0:
178,316,86715,1,2,1:0:0:0:
350,212,86897,6,0,P|429:238|380:303,1,191.999994140625,10|8,0:0|0:0,0:0:0:0:
286,284,87443,1,2,0:0:0:0:
317,122,87625,2,0,P|364:110|411:111,1,95.9999970703126,10|0,0:0|1:0,0:0:0:0:
256,192,87988,1,8,0:0:0:0:
287,30,88170,1,2,1:0:0:0:
350,212,88352,5,14,0:0:0:0:
346,236,88715,1,10,0:0:0:0:
342,260,89079,2,0,L|436:242,1,95.9999970703126,10|0,0:0|1:0,0:0:0:0:
256,192,89443,1,10,0:0:0:0:
288,354,89625,1,2,1:0:0:0:
162,212,89806,6,0,P|83:238|132:303,1,191.999994140625,10|8,0:0|0:0,0:0:0:0:
226,284,90352,1,2,0:0:0:0:
195,122,90534,2,0,P|148:110|101:111,1,95.9999970703126,10|0,0:0|1:0,0:0:0:0:
256,192,90897,1,10,0:0:0:0:
225,30,91079,1,2,1:0:0:0:
162,212,91261,6,0,P|118:232|71:230,1,95.9999970703126,8|0,0:0|0:0,0:0:0:0:
256,192,91625,2,0,P|295:220|317:262,1,95.9999970703126,8|0,0:0|0:0,0:0:0:0:
195,122,91988,2,0,P|200:74|225:34,1,95.9999970703126,8|0,0:0|1:0,0:0:0:0:
290,105,92352,1,8,0:0:0:0:
130,51,92534,1,0,1:0:0:0:
290,105,92715,6,0,B|341:109|375:71|375:71|379:124|420:152,1,191.999994140625,12|8,0:0|0:0,0:0:0:0:
471,70,93261,1,2,0:0:0:0:
332,191,93443,2,0,P|361:229|404:247,1,95.9999970703126,10|0,0:0|1:0,0:0:0:0:
375,71,93806,1,8,0:0:0:0:
207,214,93988,1,2,1:0:0:0:
414,287,94170,5,10,0:0:0:0:
395,302,94534,1,10,0:0:0:0:
376,317,94897,2,0,L|369:270,3,47.9999985351563,10|0|0|0,0:0|1:0|1:0|1:0,0:0:0:0:
357,190,95261,2,0,P|382:190|404:197,1,47.9999985351563,10|0,0:0|1:0,0:0:0:0:
294,240,95443,2,0,P|269:240|247:233,1,47.9999985351563,0|0,1:0|1:0,0:0:0:0:
177,192,95625,6,0,P|211:262|203:341,1,160,6|0,0:0|0:0,0:0:0:0:
98,368,96170,1,2,0:0:0:0:
31,283,96352,2,0,P|126:276|35:305,1,279.999991455078,2|10,0:0|0:0,0:0:0:0:
