osu file format v14

[General]
AudioFilename: audio.mp3
AudioLeadIn: 0
PreviewTime: 5799
Countdown: 0
SampleSet: Soft
StackLeniency: 0.5
Mode: 0
LetterboxInBreaks: 0
WidescreenStoryboard: 1

[Editor]
DistanceSpacing: 1.1
BeatDivisor: 4
GridSize: 8
TimelineZoom: 2.2

[Metadata]
Title:SHIORI -TV size mix-
TitleUnicode:SHIORI -TV size mix-
Artist:ClariS
ArtistUnicode:ClariS
Creator:Monstrata
Version:Ultima Fox's Normal
Source:終物語
Tags:a_r_m_i_n armin chaoslitz haruto haruto_aizawa haruto- irohas mugiwarasekai snownino_ ultima fox bakemonogatari monogatari owarimonogatari ougi oshino kanbara araragi ending
BeatmapID:1414509
BeatmapSetID:661919

[Difficulty]
HPDrainRate:4
CircleSize:3
OverallDifficulty:4
ApproachRate:5
SliderMultiplier:1
SliderTickRate:1

[Events]
//Background and Video events
0,0,"775908.jpg",0,0
//Break Periods
//Storyboard Layer 0 (Background)
//Storyboard Layer 1 (Fail)
//Storyboard Layer 2 (Pass)
//Storyboard Layer 3 (Foreground)
//Storyboard Sound Samples

[TimingPoints]
430,340.909090909091,4,2,1,45,1,0
5884,-100,4,2,1,60,0,0
14066,-100,4,2,1,80,0,0
16793,-100,4,2,1,70,0,0
53611,-100,4,2,1,60,0,0
55486,-100,4,2,1,5,0,0
55998,-100,4,2,1,60,0,0
63157,-100,4,2,1,85,0,1
87020,-100,4,2,1,30,0,0
88895,-100,4,2,1,5,0,0

[Colours]
Combo1 : 255,0,121
Combo2 : 155,48,255
Combo3 : 3,168,158
Combo4 : 61,89,171

[HitObjects]
134,285,430,6,0,L|144:392,2,100,2|0|2,0:0|0:0|0:0,0:0:0:0:
98,180,1452,1,0,0:0:0:0:
204,206,1793,2,0,P|271:218|353:203,2,150,2|2|2,0:0|0:0|0:0,0:0:0:0:
132,121,3157,6,0,P|77:112|27:121,2,100,2|0|2,0:0|0:0|0:0,0:0:0:0:
204,206,4180,1,0,0:0:0:0:
297,148,4520,2,0,P|300:99|288:-1,2,150,2|2|2,0:0|0:0|0:0,0:0:0:0:
276,257,5884,6,0,P|318:235|473:258,1,200,4|0,0:1|0:0,0:0:0:0:
295,109,7248,2,0,P|241:125|147:109,2,150,6|0|10,0:0|0:0|0:0,0:0:0:0:
392,58,8611,6,0,B|357:158|431:157|395:264,1,200,4|0,0:1|0:0,0:0:0:0:
189,323,9975,2,0,P|112:300|40:311,2,150,4|0|2,0:0|0:0|0:0,0:0:0:0:
291,363,11339,6,0,L|277:249,1,100,8|8,0:0|0:0,0:0:0:0:
377,214,12020,2,0,L|391:100,1,100,8|8,0:0|0:0,0:0:0:0:
300,49,12702,1,10,0:0:0:0:
300,49,13725,2,0,L|238:53,1,50,0|0,0:0|0:0,0:0:0:0:
195,56,14066,6,0,P|178:120|188:166,1,100,10|10,0:0|0:0,0:0:0:0:
223,189,14577,2,0,L|344:184,1,100,12|10,0:0|0:0,0:0:0:0:
376,197,15089,2,0,P|393:261|383:307,1,100,10|8,0:0|0:0,0:0:0:0:
347,331,15600,2,0,L|226:326,1,100,14|0,0:0|0:0,0:0:0:0:
192,323,16111,1,10,0:0:0:0:
122,238,16452,1,10,0:0:0:0:
216,182,16793,6,0,L|323:187,1,100,4|8,0:1|0:0,0:0:0:0:
418,145,17475,2,0,P|408:211|419:256,1,100,10|8,0:0|0:0,0:0:0:0:
454,345,18157,2,0,P|402:328|343:336,1,100,2|10,0:0|0:0,0:0:0:0:
262,274,18839,2,0,P|210:291|151:283,1,100,10|8,0:0|0:0,0:0:0:0:
117,188,19520,6,0,P|158:146|288:172,1,200,2|10,0:0|0:0,0:0:0:0:
363,247,20543,1,8,0:0:0:0:
422,154,20884,2,0,L|427:45,1,100,10|8,0:0|0:0,0:0:0:0:
327,4,21566,2,0,L|331:103,1,100,10|10,0:0|0:0,0:0:0:0:
260,188,22248,6,0,P|211:196|155:192,1,100,10|8,0:0|0:0,0:0:0:0:
69,131,22930,1,10,0:0:0:0:
1,217,23270,1,8,0:0:0:0:
91,278,23611,2,0,P|97:334|93:383,1,100,10|8,0:0|0:0,0:0:0:0:
195,334,24293,2,0,P|192:284|197:234,1,100,10|10,0:0|0:0,0:0:0:0:
262,145,24975,6,0,B|362:118|359:179|468:145,1,200,10|10,0:0|0:0,0:0:0:0:
499,110,25827,2,0,L|494:49,2,50,2|10|0,0:0|0:0|0:0,0:0:0:0:
509,164,26339,2,0,L|504:281,1,100,10|8,0:0|0:0,0:0:0:0:
418,331,27020,2,0,L|413:231,1,100,10|8,0:0|0:0,0:0:0:0:
352,138,27702,6,0,P|303:124|249:141,1,100,14|8,0:0|0:0,0:0:0:0:
184,219,28384,1,10,0:0:0:0:
247,308,28725,1,8,0:0:0:0:
172,383,29066,2,0,L|68:379,1,100,10|10,0:0|0:0,0:0:0:0:
1,294,29748,2,0,P|-7:244|15:178,1,100,10|8,0:0|0:0,0:0:0:0:
103,146,30430,6,0,P|158:177|289:120,1,200,10|10,0:0|0:0,0:0:0:0:
337,40,31452,1,10,0:0:0:0:
428,101,31793,2,0,L|438:212,1,100,10|8,0:0|0:0,0:0:0:0:
472,305,32475,2,0,P|401:290|368:299,1,100,10|10,0:0|0:0,0:0:0:0:
297,217,33157,6,0,P|242:257|145:252,1,150,10|2,0:0|0:0,0:0:0:0:
113,233,33839,2,0,L|106:130,1,100,10|10,0:0|0:0,0:0:0:0:
65,31,34520,2,0,P|126:41|181:28,1,100,10|8,0:0|0:0,0:0:0:0:
261,0,35202,2,0,L|256:64,2,50,10|8|8,0:0|0:3|0:0,0:0:0:0:
361,46,35884,6,0,L|372:162,1,100,14|8,0:0|0:0,0:0:0:0:
439,231,36566,1,8,0:0:0:0:
336,270,36907,2,0,L|285:257,1,50,10|0,0:0|0:0,0:0:0:0:
232,256,37248,2,0,L|181:269,2,50,10|8|0,0:0|0:3|0:0,0:0:0:0:
307,175,37930,2,0,P|314:125|298:68,1,100,8|10,0:0|0:0,0:0:0:0:
195,51,38611,6,0,L|36:65,2,150,14|10|10,0:0|0:0|0:0,0:0:0:0:
287,110,39975,2,0,L|402:119,1,100,2|0,0:0|0:0,0:0:0:0:
490,154,40657,2,0,L|487:89,2,50,2|0|2,0:0|1:0|0:0,0:0:0:0:
404,223,41339,6,0,P|423:300|417:374,2,150,10|2|10,0:0|0:0|0:0,0:0:0:0:
296,201,42702,2,0,L|133:211,1,150,2|10,0:0|0:0,0:0:0:0:
91,214,43384,2,0,L|78:143,2,50,2|0|0,0:0|0:0|1:0,0:0:0:0:
129,317,44066,6,0,P|191:305|296:330,2,150,14|10|2,0:0|0:0|0:0,0:0:0:0:
33,372,45430,2,0,P|40:315|23:258,1,100,10|2,0:0|0:0,0:0:0:0:
56,167,46111,2,0,P|50:135|53:112,2,50,10|0|2,0:0|0:0|0:0,0:0:0:0:
141,236,46793,6,0,L|300:252,2,150,10|10|2,0:0|0:0|0:0,0:0:0:0:
83,141,48157,2,0,L|199:129,1,100,10|0,0:0|0:0,0:0:0:0:
275,71,48839,2,0,P|266:121|280:182,1,100,2|2,0:0|1:2,0:0:0:0:
369,224,49520,6,0,P|429:206|512:225,2,150,14|10|10,0:0|0:0|0:0,0:0:0:0:
276,284,50884,2,0,P|222:298|162:287,1,100,10|0,0:0|0:0,0:0:0:0:
112,204,51566,2,0,L|114:141,2,50,2|0|2,0:0|1:0|0:0,0:0:0:0:
38,286,52248,6,0,P|53:347|56:390,1,100,10|0,0:0|0:0,0:0:0:0:
166,383,52930,2,0,P|171:333|183:285,1,100,8|8,0:3|0:0,0:0:0:0:
288,251,53611,2,0,L|496:262,2,200,4|4|0,0:1|0:1|0:0,0:0:0:0:
288,251,56339,5,2,0:0:0:0:
256,192,57702,12,6,61793,0:0:0:0:
240,225,63157,6,0,L|347:209,1,100,14|0,0:0|1:0,0:0:0:0:
413,128,63839,2,0,L|306:112,1,100,8|2,0:0|1:2,0:0:0:0:
220,55,64520,2,0,P|229:117|213:166,1,100,10|0,0:0|1:0,0:0:0:0:
177,188,65032,2,0,L|77:185,1,100,2|0,0:0|0:0,0:0:0:0:
22,181,65543,1,2,1:2:0:0:
49,291,65884,6,0,L|158:284,1,100,10|0,0:0|1:0,0:0:0:0:
258,275,66566,2,0,P|275:329|268:381,1,100,8|0,0:0|1:0,0:0:0:0:
370,323,67248,2,0,P|363:265|382:208,1,100,10|0,0:0|1:0,0:0:0:0:
419,196,67759,2,0,P|426:146|415:98,1,100,2|8,0:0|0:0,0:0:0:0:
371,65,68270,1,2,1:2:0:0:
282,130,68611,6,0,L|169:131,1,100,14|0,0:0|1:0,0:0:0:0:
72,140,69293,2,0,L|64:78,2,50,0|10|0,0:0|0:0|1:0,0:0:0:0:
140,226,69975,2,0,L|133:339,1,100,10|0,0:2|1:2,0:0:0:0:
231,377,70657,2,0,P|285:383|337:370,1,100,10|0,0:0|1:2,0:0:0:0:
396,286,71339,6,0,P|384:219|396:166,1,100,14|2,0:0|1:2,0:0:0:0:
462,106,72020,2,0,L|511:110,2,50,10|8|2,0:2|0:0|1:2,0:0:0:0:
367,49,72702,1,14,1:2:0:0:
286,123,73043,1,2,1:2:0:0:
204,48,73384,1,2,1:2:0:0:
123,122,73725,2,0,L|130:187,1,50,0|0,1:0|0:0,0:0:0:0:
82,202,74066,6,0,L|75:267,2,50,10|2|0,0:0|0:0|1:0,0:0:0:0:
173,264,74748,2,0,L|180:329,2,50,10|0|2,0:0|0:0|1:2,0:0:0:0:
261,198,75430,2,0,L|367:201,1,100,10|0,0:0|1:0,0:0:0:0:
412,219,75941,2,0,P|403:156|417:106,1,100,2|2,0:0|0:0,0:0:0:0:
454,88,76452,1,2,1:2:0:0:
350,49,76793,6,0,L|348:-2,2,50,10|0|2,0:0|0:0|1:2,0:0:0:0:
269,124,77475,2,0,P|215:112|165:121,1,100,10|2,0:0|1:2,0:0:0:0:
123,145,77986,1,2,0:0:0:0:
98,194,78157,2,0,L|91:308,1,100,10|0,0:0|1:0,0:0:0:0:
197,326,78839,2,0,L|190:226,1,100,10|2,0:0|1:2,0:0:0:0:
266,146,79520,6,0,P|322:133|382:153,1,100,14|0,0:0|1:0,0:0:0:0:
367,252,80202,2,0,P|311:265|251:245,1,100,0|0,0:0|1:0,0:0:0:0:
232,151,80884,2,0,L|240:44,1,100,14|0,0:0|1:0,0:0:0:0:
133,81,81566,2,0,L|140:180,1,100,0|0,0:0|1:0,0:0:0:0:
116,288,82248,6,0,P|165:275|221:278,1,100,14|0,0:0|1:0,0:0:0:0:
283,191,82930,2,0,P|332:204|388:201,1,100,10|0,0:0|1:0,0:0:0:0:
478,151,83611,6,0,L|476:264,1,100,14|0,0:0|1:0,0:0:0:0:
402,333,84293,1,10,0:0:0:0:
315,265,84634,1,0,1:0:0:0:
229,334,84975,2,0,P|171:334|120:306,1,100,14|10,0:0|0:0,0:0:0:0:
76,222,85657,2,0,P|74:171|101:108,1,100,10|10,0:0|0:0,0:0:0:0:
189,77,86339,1,14,0:0:0:0:
189,77,87020,6,0,L|254:81,1,50,2|2,0:0|0:0,0:0:0:0:
342,118,87532,1,0,0:0:0:0:
342,118,87702,2,0,P|399:225|260:181,1,350,2|0,0:0|0:0,0:0:0:0:
