osu file format v14

[General]
AudioFilename: audio.mp3
AudioLeadIn: 0
PreviewTime: 5799
Countdown: 0
SampleSet: Soft
StackLeniency: 0.4
Mode: 0
LetterboxInBreaks: 0
WidescreenStoryboard: 1

[Editor]
Bookmarks: 5884,11339,14066,16793,27702,35884,38611,49520,53611,57702,63157
DistanceSpacing: 1.25
BeatDivisor: 4
GridSize: 8
TimelineZoom: 2.2

[Metadata]
Title:SHIORI -TV size mix-
TitleUnicode:SHIORI -TV size mix-
Artist:ClariS
ArtistUnicode:ClariS
Creator:Monstrata
Version:Irohas' Hard
Source:終物語
Tags:a_r_m_i_n armin chaoslitz haruto haruto_aizawa haruto- irohas mugiwarasekai snownino_ ultima fox bakemonogatari monogatari owarimonogatari ougi oshino kanbara araragi ending
BeatmapID:1414506
BeatmapSetID:661919

[Difficulty]
HPDrainRate:5
CircleSize:4
OverallDifficulty:6
ApproachRate:7.7
SliderMultiplier:1.4
SliderTickRate:1

[Events]
//Background and Video events
0,0,"775908.jpg",0,0
//Break Periods
//Storyboard Layer 0 (Background)
//Storyboard Layer 1 (Fail)
//Storyboard Layer 2 (Pass)
//Storyboard Layer 3 (Foreground)
//Storyboard Sound Samples

[TimingPoints]
430,340.909090909091,4,2,7,30,1,0
430,-117.647058823529,4,2,7,30,0,0
5884,-111.111111111111,4,2,7,40,0,0
7248,-111.111111111111,4,2,7,40,0,0
8611,-111.111111111111,4,2,7,40,0,0
9890,-111.111111111111,4,2,7,5,0,0
9975,-111.111111111111,4,2,7,60,0,0
11339,-105.263157894737,4,2,7,60,0,0
13043,-100,4,2,7,60,0,0
14066,-100,4,2,7,60,0,0
16793,-111.111111111111,4,2,7,60,0,0
27702,-105.263157894737,4,2,7,60,0,0
37248,-100,4,2,7,60,0,0
38611,-111.111111111111,4,2,7,60,0,0
41253,-111.111111111111,4,2,7,5,0,0
41339,-111.111111111111,4,2,7,60,0,0
42361,-111.111111111111,4,2,7,40,0,0
42702,-111.111111111111,4,2,7,60,0,0
46708,-111.111111111111,4,2,7,5,0,0
46793,-111.111111111111,4,2,7,60,0,0
52162,-111.111111111111,4,2,7,5,0,0
52248,-111.111111111111,4,2,7,60,0,0
53611,-100,4,2,7,60,0,0
54293,-100,4,2,7,60,0,0
54975,-100,4,2,7,60,0,0
55998,-100,4,2,7,60,0,0
57702,-105.263157894737,4,2,7,30,0,0
58214,-100,4,2,7,40,0,0
58725,-100,4,2,7,60,0,0
59407,-100,4,2,7,60,0,0
59748,-100,4,2,7,60,0,0
60089,-100,4,2,7,60,0,0
60600,-100,4,2,7,60,0,0
60770,-100,4,2,7,60,0,0
60941,-100,4,2,7,60,0,0
61111,-100,4,2,7,60,0,0
61282,-100,4,2,7,60,0,0
61452,-100,4,2,7,60,0,0
61623,-100,4,2,7,60,0,0
61793,-100,4,2,7,60,0,0
62305,-100,4,2,7,60,0,0
63157,-100,4,2,7,95,0,1
63327,-100,4,2,7,70,0,1
84975,-100,4,2,7,70,0,1
87020,-128.205128205128,4,2,7,30,0,0
87702,-200,4,2,7,30,0,0
88895,-200,4,2,7,15,0,0

[Colours]
Combo1 : 255,0,121
Combo2 : 155,48,255
Combo3 : 3,168,158
Combo4 : 61,89,171

[HitObjects]
39,135,430,6,0,P|52:190|73:278,2,119.000002269745,0|2|2,1:0|1:3|1:3,0:0:0:0:
91,69,1282,1,2,0:3:0:0:
91,69,1452,2,0,P|125:77|165:86,1,59.5000011348725,0|2,1:0|0:3,0:0:0:0:
198,149,1793,6,0,P|227:142|255:135,1,59.5000011348725,2|2,1:3|0:3,0:0:0:0:
321,83,2134,2,0,P|349:89|378:96,1,59.5000011348725,2|2,1:3|0:3,0:0:0:0:
457,68,2475,2,0,B|474:101|474:101|441:189,1,119.000002269745,0|2,1:0|1:3,0:0:0:0:
379,228,2986,1,0,0:0:0:0:
379,228,3157,6,0,P|336:196|269:217,2,119.000002269745,0|2|2,1:0|1:3|0:3,0:0:0:0:
443,281,4009,1,2,0:3:0:0:
443,281,4180,2,0,P|430:316|419:349,1,59.5000011348725,0|0,1:0|0:0,0:0:0:0:
347,372,4520,6,0,P|301:360|218:341,1,119.000002269745,2|2,1:3|0:3,0:0:0:0:
185,273,5032,2,0,P|139:259|78:294,1,119.000002269745,2|2,0:3|1:3,0:0:0:0:
9,336,5543,2,0,P|-2:303|4:263,1,59.5000011348725,2|2,0:0|0:0,0:0:0:0:
65,194,5884,5,4,0:0:0:0:
133,84,6907,2,2,B|146:117|146:117|129:157,1,62.9999980773926,2|2,1:3|0:3,0:3:0:0:
64,183,7248,5,4,0:0:0:0:
64,183,7759,6,0,P|121:195|204:212,1,125.999996154785,8|8,0:0|0:3,0:0:0:0:
260,171,8270,2,0,P|267:135|252:96,1,62.9999980773926,10|2,1:3|1:3,0:0:0:0:
195,61,8611,5,4,0:0:0:0:
195,61,9464,5,2,0:0:0:0:
269,28,9634,2,0,P|318:39|382:54,1,94.499997116089,0|0,1:2|0:0,0:0:0:0:
402,50,9975,6,0,B|354:152|444:120|399:245,1,188.999994232178,4|8,0:0|0:3,0:0:0:0:
265,319,10827,6,0,B|298:335|298:335|340:325,1,62.9999980773926,2|2,0:0|0:0,0:0:0:0:
329,323,11339,6,0,P|265:336|185:351,1,132.999996448517,4|8,0:0|0:0,0:0:0:0:
120,378,11850,1,8,0:0:0:0:
58,322,12020,2,0,P|67:284|80:236,1,66.4999982242585,8|8,0:0|3:2,0:0:0:0:
140,206,12361,1,8,3:2:0:0:
76,152,12532,1,8,3:2:0:0:
125,79,12702,5,4,1:2:0:0:
9,110,13725,2,2,P|4:93|0:76,3,35,2|2|2|2,0:3|0:3|0:3|0:3,0:3:0:0:
19,36,14066,6,0,P|49:28|98:39,1,70,4|0,1:2|0:0,0:0:0:0:
151,93,14407,1,2,0:0:0:0:
219,24,14577,6,0,P|206:76|181:166,1,140,12|0,1:2|0:0,0:0:0:0:
230,233,15089,2,0,P|258:222|315:231,1,70,12|2,1:2|0:0,0:0:0:0:
383,241,15430,5,2,1:2:0:0:
335,314,15600,1,8,1:2:0:0:
383,384,15770,2,0,P|421:376|473:362,1,70,8|2,0:0|0:0,0:0:0:0:
503,297,16111,2,0,P|489:255|473:212,1,70,8|8,1:2|0:0,0:0:0:0:
476,225,16367,1,2,0:0:0:0:
471,220,16452,2,8,P|477:188|484:163,3,35,8|8|8|2,0:0|0:0|0:0|0:0,0:0:0:0:
497,149,16793,6,0,L|374:176,1,125.999996154785,4|2,0:0|0:0,0:0:0:0:
325,242,17305,1,0,0:0:0:0:
325,242,17475,2,0,P|291:235|241:224,1,62.9999980773926,2|0,0:0|0:0,0:0:0:0:
213,163,17816,2,0,P|180:156|140:172,1,62.9999980773926,2|8,0:0|0:0,0:0:0:0:
103,229,18157,6,0,P|119:291|140:371,2,125.999996154785,2|2|2,1:2|0:0|1:2,0:0:0:0:
37,179,19009,1,8,0:3:0:0:
37,179,19180,2,0,P|45:147|58:103,1,62.9999980773926,2|8,0:0|0:3,0:0:0:0:
84,42,19520,6,0,B|118:66|118:66|196:36,1,125.999996154785,2|2,0:0|0:0,0:0:0:0:
278,21,20032,1,0,0:0:0:0:
278,21,20202,2,0,P|262:83|241:163,1,125.999996154785,2|2,0:2|0:0,0:0:0:0:
274,220,20714,1,8,0:0:0:0:
345,180,20884,6,0,P|382:189|423:199,1,62.9999980773926,2|0,0:0|0:0,0:0:0:0:
488,188,21225,2,0,P|451:197|410:207,1,62.9999980773926,2|0,0:0|0:0,0:0:0:0:
366,258,21566,1,2,1:2:0:0:
406,329,21736,1,10,0:3:0:0:
341,380,21907,2,0,P|310:372|279:365,1,62.9999980773926,2|8,0:0|0:3,0:0:0:0:
230,286,22248,6,0,P|179:269|115:320,1,125.999996154785,2|2,1:2|0:0,0:0:0:0:
49,344,22759,1,0,0:0:0:0:
49,344,22930,2,0,P|38:307|49:271,1,62.9999980773926,2|0,0:0|0:0,0:0:0:0:
105,232,23270,2,0,P|96:197|86:156,1,62.9999980773926,2|8,0:0|0:0,0:0:0:0:
46,101,23611,6,0,P|88:140|164:123,2,125.999996154785,2|2|2,0:0|0:0|0:0,0:0:0:0:
78,25,24464,1,8,0:3:0:0:
78,25,24634,2,0,P|107:19|140:28,1,62.9999980773926,2|8,0:0|0:3,0:0:0:0:
169,103,24975,6,0,P|227:92|312:72,1,125.999996154785,2|2,0:0|0:0,0:0:0:0:
374,84,25486,1,0,0:0:0:0:
374,84,25657,2,0,P|368:118|357:166,1,62.9999980773926,2|0,0:0|0:0,0:0:0:0:
291,188,25998,1,2,0:0:0:0:
337,255,26168,1,8,0:0:0:0:
283,328,26339,6,0,P|324:296|393:306,1,125.999996154785,2|2,1:3|0:0,0:0:0:0:
450,365,26850,1,0,0:0:0:0:
509,293,27020,6,0,P|501:258|490:216,1,62.9999980773926,2|8,1:3|0:0,0:0:0:0:
428,182,27361,1,8,0:0:0:0:
489,115,27532,1,2,0:0:0:0:
488,115,27617,1,2,0:0:0:0:
491,118,27702,6,0,P|440:130|343:152,1,132.999996448517,4|2,1:2|0:0,0:0:0:0:
287,108,28214,1,0,0:0:0:0:
287,108,28384,2,0,P|251:98|210:107,1,66.4999982242585,2|0,0:0|0:0,0:0:0:0:
171,36,28725,2,0,P|143:60|128:100,1,66.4999982242585,0|8,0:0|0:0,0:0:0:0:
52,114,29066,6,0,P|67:145|92:166,1,66.4999982242585,2|0,1:3|0:0,0:0:0:0:
171,192,29407,2,0,P|157:221|133:245,1,66.4999982242585,2|0,0:0|0:0,0:0:0:0:
55,281,29748,2,0,P|67:313|89:336,1,66.4999982242585,2|8,0:0|0:3,0:0:0:0:
168,309,30089,1,2,0:0:0:0:
238,352,30259,1,8,0:3:0:0:
273,269,30430,6,0,P|307:249|398:297,1,132.999996448517,2|2,1:2|0:0,0:0:0:0:
457,326,30941,1,0,0:0:0:0:
457,326,31111,2,0,P|469:296|464:253,1,66.4999982242585,2|0,0:0|0:3,0:0:0:0:
411,199,31452,2,0,P|424:157|435:114,1,66.4999982242585,2|8,0:0|0:0,0:0:0:0:
493,80,31793,6,0,P|435:92|349:112,1,132.999996448517,2|0,1:2|0:0,0:0:0:0:
326,183,32305,1,0,0:0:0:0:
326,183,32475,2,0,P|293:175|261:168,1,66.4999982242585,2|8,0:0|0:3,0:0:0:0:
210,102,32816,1,2,0:0:0:0:
150,159,32986,1,8,0:3:0:0:
75,105,33157,6,0,P|112:138|88:222,1,132.999996448517,2|2,1:3|0:0,0:0:0:0:
15,211,33668,1,0,0:0:0:0:
15,211,33839,2,0,P|32:267|64:359,1,132.999996448517,2|2,0:0|0:0,0:0:0:0:
133,369,34350,1,8,0:0:0:0:
179,300,34520,6,0,P|211:292|258:313,1,66.4999982242585,2|0,1:3|0:0,0:0:0:0:
296,364,34861,2,0,P|327:370|374:346,1,66.4999982242585,2|0,0:0|0:0,0:0:0:0:
412,299,35202,1,2,0:0:0:0:
358,234,35373,1,8,0:0:0:0:
417,175,35543,2,0,P|450:163|487:171,1,66.4999982242585,2|2,0:0|0:0,0:0:0:0:
358,234,35884,6,0,P|292:223|226:211,1,132.999996448517,4|2,1:2|0:0,0:0:0:0:
186,138,36395,2,0,P|149:121|71:165,1,132.999996448517,2|2,0:3|1:3,0:0:0:0:
111,235,36907,1,2,1:2:0:0:
59,300,37077,1,8,1:2:0:0:
118,371,37248,6,0,B|153:378|153:378|196:354,1,70,4|8,1:2|0:0,0:0:0:0:
238,293,37589,2,0,B|273:286|273:286|316:310,1,70,2|10,1:2|0:3,0:0:0:0:
383,267,37930,1,8,0:3:0:0:
458,310,38100,1,2,1:3:0:0:
512,243,38270,2,0,P|504:206|494:163,1,70,2|2,1:2|0:0,0:0:0:0:
432,98,38611,6,0,P|392:83|320:128,1,125.999996154785,4|0,1:2|0:0,0:0:0:0:
337,202,39123,2,0,P|289:190|196:167,1,125.999996154785,2|0,1:3|0:0,0:0:0:0:
149,222,39634,1,2,1:2:0:0:
189,293,39805,1,2,0:3:0:0:
134,353,39975,6,0,P|182:341|275:318,1,125.999996154785,2|2,1:2|0:3,0:0:0:0:
310,260,40486,2,0,P|334:254|388:272,1,62.9999980773926,2|2,0:0|1:3,0:0:0:0:
440,329,40827,5,8,0:0:0:0:
490,264,40998,2,0,P|475:212|459:149,1,94.499997116089,8|0,0:3|0:0,0:0:0:0:
447,135,41339,6,0,P|400:121|336:166,1,125.999996154785,2|0,1:3|0:0,0:0:0:0:
296,230,41850,2,0,P|255:243|185:199,1,125.999996154785,2|0,1:3|0:0,0:0:0:0:
228,132,42361,1,2,0:0:0:0:
228,132,42532,1,2,0:0:0:0:
175,203,42702,6,4,P|197:271|217:340,1,125.999996154785,2|2,1:3|0:0,0:0:0:0:
160,384,43214,1,0,3:0:0:0:
78,374,43384,5,2,1:2:0:0:
41,300,43555,1,8,0:3:0:0:
84,230,43725,1,12,0:0:0:0:
84,230,44066,6,0,P|138:244|232:265,1,125.999996154785,4|0,1:2|0:0,0:0:0:0:
280,224,44577,2,0,P|304:185|276:101,1,125.999996154785,2|0,1:3|0:0,0:0:0:0:
216,65,45089,1,2,1:2:0:0:
143,103,45259,1,2,0:3:0:0:
64,78,45430,6,0,P|120:69|206:54,1,125.999996154785,2|2,1:2|0:0,0:0:0:0:
255,11,45941,2,0,P|292:19|337:27,1,62.9999980773926,2|2,0:0|1:3,0:0:0:0:
409,64,46282,5,8,0:0:0:0:
344,114,46452,2,0,P|329:158|345:205,1,94.499997116089,8|0,0:3|0:0,0:0:0:0:
375,228,46793,6,0,P|319:221|223:205,1,125.999996154785,2|0,1:3|0:0,0:0:0:0:
200,144,47305,2,0,B|154:126|154:126|74:162,1,125.999996154785,2|0,1:3|0:0,0:0:0:0:
26,216,47816,1,2,0:0:0:0:
26,216,47986,1,2,0:0:0:0:
82,147,48157,6,0,P|71:206|49:296,1,125.999996154785,4|2,1:2|1:2,0:0:0:0:
114,328,48668,1,0,0:0:0:0:
177,251,48839,6,0,P|236:236|287:269,1,125.999996154785,2|8,1:2|3:2,0:2:0:0:
291,281,49520,6,0,P|305:219|317:157,1,125.999996154785,4|0,1:2|0:0,0:0:0:0:
274,86,50032,2,0,B|204:117|204:117|158:99,1,125.999996154785,2|0,1:3|0:0,0:0:0:0:
83,134,50543,1,8,0:3:0:0:
12,91,50714,1,2,0:3:0:0:
74,143,50884,6,0,P|58:207|42:267,1,125.999996154785,0|2,1:2|0:0,0:0:0:0:
98,325,51395,2,0,P|130:312|172:317,1,62.9999980773926,2|2,0:0|1:3,0:0:0:0:
242,367,51736,5,8,0:0:0:0:
292,301,51907,2,0,P|279:256|260:190,1,94.499997116089,8|0,0:3|0:0,0:0:0:0:
282,172,52248,6,0,P|329:158|393:203,1,125.999996154785,2|2,1:3|0:0,0:0:0:0:
456,278,52816,5,0,0:0:0:0:
463,274,52930,2,0,P|483:242|487:220,2,41.9999987182618,8|8|8,1:2|0:0|0:3,0:0:0:0:
493,228,53270,2,0,P|480:192|466:175,2,41.9999987182618,2|8|2,0:0|0:3|0:3,0:0:0:0:
466,173,53611,5,4,0:0:0:0:
413,110,54293,1,12,1:2:0:0:
456,42,54975,5,0,1:0:0:0:
454,51,56339,5,2,1:3:0:0:
106,64,57702,6,0,P|138:54|178:62,1,66.4999982242585,2|2,0:0|0:0,0:0:0:0:
142,133,58043,2,0,P|171:149|192:184,1,66.4999982242585,2|8,0:0|0:3,0:0:0:0:
111,212,58384,2,0,P|119:244|132:290,1,70,8|8,0:3|0:0,0:0:0:0:
125,355,58725,6,0,P|133:320|143:269,1,70,8|8,0:0|0:0,0:0:0:0:
203,230,59066,1,2,0:0:0:0:
257,316,59236,6,0,P|317:326|373:270,1,140,8|8,0:0|0:0,0:0:0:0:
432,216,59748,2,8,P|397:196|353:199,1,70
384,112,60089,2,0,P|343:111|306:135,1,70,8|8,0:0|0:3,0:0:0:0:
230,103,60430,6,0,P|241:146|254:188,1,70,12|2,0:0|0:0,0:0:0:0:
208,249,60770,1,2,0:0:0:0:
137,174,60941,6,0,P|75:164|16:226,1,140,12|4,0:0|0:0,0:0:0:0:
0,292,61452,5,8,0:0:0:0:
72,342,61623,1,8,0:0:0:0:
134,266,61793,5,4,0:0:0:0:
0,121,63157,6,0,P|53:111|89:103,1,70,12|0,1:0|0:0,0:0:0:0:
142,60,63498,2,0,P|103:102|137:177,1,140,8|2,1:2|0:0,0:0:0:0:
216,164,64009,1,0,0:0:0:0:
216,164,64180,2,0,P|207:204|193:254,1,70,8|0,0:0|0:0,0:0:0:0:
227,314,64520,6,0,P|261:299|314:309,1,70,2|2,0:0|0:0,0:0:0:0:
340,374,64861,2,0,P|374:374|406:360,1,70,8|2,0:0|0:0,0:0:0:0:
471,301,65202,1,2,0:0:0:0:
406,241,65373,1,2,0:0:0:0:
468,179,65543,2,0,P|454:133|441:91,1,70,8|0,0:0|0:0,0:0:0:0:
476,29,65884,6,0,P|465:62|455:95,1,70,2|2,1:2|0:0,0:0:0:0:
376,133,66225,2,0,P|334:147|256:79,1,140,8|2,1:2|0:0,0:0:0:0:
200,32,66736,1,0,0:0:0:0:
200,32,66907,2,0,P|158:28|122:50,1,70,8|0,0:0|0:0,0:0:0:0:
53,75,67248,5,2,1:2:0:0:
105,144,67418,1,2,0:0:0:0:
30,190,67589,2,0,B|15:226|15:226|35:267,1,70,8|2,1:2|1:3,0:0:0:0:
101,303,67930,2,0,B|105:325|105:325|98:356,3,35,2|8|2|2,0:0|0:0|1:2|0:0,0:0:0:0:
93,380,68270,2,0,P|144:366|185:355,1,70,8|2,1:2|1:3,0:0:0:0:
216,283,68611,6,0,P|258:269|336:337,1,140,4|8,0:0|0:0,0:0:0:0:
395,380,69123,1,2,1:3:0:0:
395,380,69293,2,0,P|416:342|410:299,1,70,2|2,0:0|0:0,0:0:0:0:
494,278,69634,2,0,P|467:247|423:236,1,70,8|0,0:0|0:0,0:0:0:0:
466,152,69975,6,0,P|428:145|386:164,1,70,4|2,1:2|0:0,0:0:0:0:
333,212,70316,2,0,P|278:199|180:174,1,140,8|2,0:0|1:2,0:0:0:0:
117,216,70827,1,2,0:0:0:0:
61,147,70998,2,0,P|75:107|88:68,1,70,8|0,0:0|0:0,0:0:0:0:
32,9,71339,5,6,1:2:0:0:
32,9,71509,1,2,0:0:0:0:
89,75,71680,2,0,B|123:105|123:105|243:63,1,140,8|2,0:0|0:0,0:0:0:0:
281,19,72191,1,0,0:0:0:0:
349,73,72361,2,0,P|340:110|324:165,1,70,8|0,0:0|0:0,0:0:0:0:
254,235,72702,6,0,B|240:199|240:199|256:153,1,70,12|2,1:2|0:0,0:0:0:0:
342,262,73043,2,0,B|352:291|352:291|338:327,1,70,12|2,1:2|0:0,0:0:0:0:
256,359,73384,6,0,P|225:349|208:348,3,35,8|2|8|8,1:2|0:0|0:0|0:0,0:0:0:0:
180,336,73725,2,8,P|166:336|138:343,3,35,8|8|8|8,1:2|0:0|0:0|0:0,0:0:0:0:
103,353,74066,5,2,1:2:0:0:
103,353,74236,1,2,0:0:0:0:
36,296,74407,2,0,P|49:249|60:208,1,70,8|2,0:0|1:3,0:0:0:0:
120,170,74748,1,2,0:0:0:0:
63,103,74918,1,2,0:0:0:0:
126,41,75089,2,0,P|163:34|200:48,1,70,8|2,0:0|0:3,0:0:0:0:
247,119,75430,6,0,P|284:126|321:112,1,70,2|2,1:3|0:0,0:0:0:0:
363,44,75770,1,8,1:2:0:0:
426,104,75941,2,0,P|414:156|388:252,1,140,2|2,0:3|0:0,0:0:0:0:
304,245,76452,2,0,P|314:297|322:336,1,70,8|2,1:2|0:3,0:0:0:0:
242,378,76793,5,2,1:2:0:0:
242,378,76964,1,2,0:0:0:0:
183,313,77134,2,0,P|149:305|106:322,1,70,8|2,0:0|1:3,0:0:0:0:
37,354,77475,1,2,0:0:0:0:
0,281,77645,1,2,0:0:0:0:
47,207,77816,2,0,P|35:169|17:124,1,70,8|2,0:0|3:0,0:0:0:0:
65,58,78157,6,0,P|53:96|35:141,1,70,2|2,1:2|0:0,0:0:0:0:
113,175,78498,2,0,P|147:166|183:153,1,70,8|0,1:2|0:0,0:0:0:0:
265,134,78839,2,0,P|257:170|253:187,3,35,0|2|2|2,1:2|0:0|0:0|0:0,0:0:0:0:
281,205,79180,5,8,1:2:0:0:
358,167,79350,1,8,0:0:0:0:
405,246,79520,6,0,B|381:203|381:203|413:105,1,140,4|8,1:2|0:0,0:0:0:0:
358,44,80032,1,0,0:0:0:0:
358,44,80202,2,0,P|318:35|276:50,1,70,2|2,1:3|0:0,0:0:0:0:
205,64,80543,2,2,P|214:93|221:113,3,35,2|2|2|2,0:3|0:3|0:3|0:3,0:3:0:0:
210,53,80884,6,0,P|200:127|186:194,1,140,4|8,0:0|0:0,0:0:0:0:
100,205,81395,1,0,0:0:0:0:
100,205,81566,2,0,P|109:244|122:289,1,70,2|2,1:3|0:0,0:0:0:0:
115,360,81907,2,0,P|124:326|135:288,1,70,8|2,0:0|0:0,0:0:0:0:
200,235,82248,5,6,1:2:0:0:
200,235,82418,1,2,0:0:0:0:
252,305,82589,2,0,B|322:271|315:323|393:285,1,140,8|2,0:0|0:0,0:0:0:0:
469,320,83100,1,0,0:0:0:0:
509,243,83270,2,0,P|494:201|480:161,1,70,8|0,0:0|0:0,0:0:0:0:
479,172,83526,1,8,0:0:0:0:
473,166,83611,6,0,P|488:124|502:84,1,70,2|2,1:2|0:0,0:0:0:0:
431,40,83952,2,0,P|407:29|349:38,1,70,8|0,0:0|0:0,0:0:0:0:
286,71,84293,6,0,P|247:61|232:58,3,35,2|8|2|2,1:2|0:0|0:0|0:0,0:0:0:0:
218,90,84634,2,0,B|180:99|180:99|135:77,1,70,8|8,0:0|0:0,0:0:0:0:
145,82,84890,1,8,0:0:0:0:
138,80,84975,6,0,B|148:129|159:165,1,70,4|2,0:0|0:0,0:0:0:0:
233,186,85316,1,8,0:0:0:0:
173,249,85486,1,8,1:2:0:0:
230,315,85657,1,8,1:2:0:0:
155,361,85827,6,8,P|137:356|103:351,5,35,8|8|8|8|8|8,1:2|0:0|1:2|0:0|1:2|0:0,0:0:0:0:
76,354,86339,5,10,1:2:0:0:
76,354,87020,6,0,B|48:310|48:310|94:253|59:198,1,163.800005498657,2|2,0:3|0:3,0:0:0:0:
58,202,87702,6,0,B|107:187|184:182|131:279|231:271|283:233,1,245,2|2,0:3|0:0,0:0:0:0:
