osu file format v14

[General]
AudioFilename: audio.mp3
AudioLeadIn: 0
PreviewTime: 5799
Countdown: 0
SampleSet: Soft
StackLeniency: 0.5
Mode: 0
LetterboxInBreaks: 0
WidescreenStoryboard: 0

[Editor]
DistanceSpacing: 1
BeatDivisor: 4
GridSize: 8
TimelineZoom: 2.2

[Metadata]
Title:SHIORI -TV size mix-
TitleUnicode:SHIORI -TV size mix-
Artist:ClariS
ArtistUnicode:ClariS
Creator:Monstrata
Version:Extra
Source:終物語
Tags:a_r_m_i_n armin chaoslitz haruto haruto_aizawa haruto- irohas mugiwarasekai snownino_ ultima fox bakemonogatari monogatari owarimonogatari ougi oshino kanbara araragi ending
BeatmapID:1401283
BeatmapSetID:661919

[Difficulty]
HPDrainRate:6
CircleSize:4
OverallDifficulty:8.5
ApproachRate:9
SliderMultiplier:1.7
SliderTickRate:1

[Events]
//Background and Video events
0,0,"775908.jpg",0,0
//Break Periods
//Storyboard Layer 0 (Background)
//Storyboard Layer 1 (Fail)
//Storyboard Layer 2 (Pass)
//Storyboard Layer 3 (Foreground)
//Storyboard Sound Samples

[TimingPoints]
430,340.909090909091,4,2,1,45,1,0
430,-166.666666666667,4,2,1,45,0,0
5884,-300,4,2,1,60,0,0
7248,-200,4,2,1,60,0,0
8611,-149.253731343284,4,2,1,60,0,0
9975,-120.004800192008,4,2,1,60,0,0
11339,-100,4,2,1,60,0,0
11424,-100,4,2,1,5,0,0
11509,-100,4,2,1,60,0,0
11594,-100,4,2,1,5,0,0
11680,-100,4,2,1,60,0,0
11765,-100,4,2,1,5,0,0
11850,-100,4,2,1,60,0,0
11935,-100,4,2,1,5,0,0
12020,-100,4,2,1,60,0,0
12106,-100,4,2,1,5,0,0
12191,-100,4,2,1,60,0,0
12276,-100,4,2,1,5,0,0
12361,-100,4,2,1,60,0,0
12447,-100,4,2,1,5,0,0
12532,-100,4,2,1,60,0,0
12617,-100,4,2,1,5,0,0
12702,-100,4,2,1,60,0,0
13043,-133.333333333333,4,2,1,60,0,0
14066,-100,4,2,1,80,0,0
16793,-100,4,2,1,70,0,0
53611,-133.333333333333,4,2,1,60,0,0
54293,-172.413793103448,4,2,1,60,0,0
54975,-243.390243903448,4,2,1,60,0,0
55486,-243.390243903448,4,2,1,5,0,0
55998,-277.777777777776,4,2,1,60,0,0
57702,-200,4,2,1,60,0,0
57787,-200,4,2,1,5,0,0
57873,-200,4,2,1,60,0,0
57958,-200,4,2,1,5,0,0
58043,-200,4,2,1,60,0,0
58128,-200,4,2,1,5,0,0
58214,-166.666666666667,4,2,1,60,0,0
58299,-166.666666666667,4,2,1,5,0,0
58384,-166.666666666667,4,2,1,60,0,0
58469,-166.666666666667,4,2,1,5,0,0
58555,-166.666666666667,4,2,1,60,0,0
58640,-166.666666666667,4,2,1,5,0,0
58725,-142.857142857143,4,2,1,60,0,0
58810,-142.857142857143,4,2,1,5,0,0
58895,-142.857142857143,4,2,1,60,0,0
58981,-142.857142857143,4,2,1,5,0,0
59066,-142.857142857143,4,2,1,60,0,0
59151,-142.857142857143,4,2,1,5,0,0
59236,-142.857142857143,4,2,1,60,0,0
59322,-142.857142857143,4,2,1,5,0,0
59407,-125,4,2,1,60,0,0
59492,-125,4,2,1,5,0,0
59577,-125,4,2,1,60,0,0
59662,-125,4,2,1,5,0,0
59748,-111.111111111111,4,2,1,60,0,0
59833,-111.111111111111,4,2,1,5,0,0
59918,-111.111111111111,4,2,1,60,0,0
60003,-111.111111111111,4,2,1,5,0,0
60089,-100,4,2,1,60,0,0
60174,-100,4,2,1,5,0,0
60259,-100,4,2,1,60,0,0
60344,-100,4,2,1,5,0,0
60430,-100,4,2,1,60,0,0
60515,-100,4,2,1,5,0,0
60600,-111.111111111111,4,2,1,60,0,0
60685,-111.111111111111,4,2,1,5,0,0
60770,-125,4,2,1,60,0,0
60856,-125,4,2,1,5,0,0
60941,-142.857142857143,4,2,1,60,0,0
61026,-142.857142857143,4,2,1,5,0,0
61111,-166.666666666667,4,2,1,60,0,0
61197,-166.666666666667,4,2,1,5,0,0
61282,-200,4,2,1,60,0,0
61367,-200,4,2,1,5,0,0
61452,-250,4,2,1,60,0,0
61537,-250,4,2,1,5,0,0
61623,-333.3333333333,4,2,1,60,0,0
61708,-333.3333333333,4,2,1,5,0,0
61793,-500,4,2,1,60,0,0
62305,-200,4,2,1,60,0,0
63157,-100,4,2,1,85,0,1
84975,-66.6666666666667,4,2,1,85,0,1
87020,-200,4,2,1,30,0,0
88895,-200,4,2,1,5,0,0

[Colours]
Combo1 : 255,0,121
Combo2 : 155,48,255
Combo3 : 3,168,158
Combo4 : 61,89,171

[HitObjects]
329,54,259,5,0,0:0:0:0:
329,54,430,2,0,L|400:52,2,50.9999984436035,2|0|0,0:0|0:0|0:0,0:0:0:0:
358,130,941,1,0,0:0:0:0:
358,130,1112,2,0,L|287:128,2,50.9999984436035,2|0|0,0:0|0:0|0:0,0:0:0:0:
329,206,1622,1,0,0:0:0:0:
329,206,1793,6,0,L|400:204,2,50.9999984436035,2|0|0,0:0|0:0|0:0,0:0:0:0:
260,250,2305,1,2,0:0:0:0:
191,294,2475,2,0,L|120:296,1,50.9999984436035,0|2,0:0|0:0,0:0:0:0:
134,213,2816,2,0,L|184:211,1,50.9999984436035,2|0,0:0|0:0,0:0:0:0:
216,134,3157,6,0,P|217:108|207:82,2,50.9999984436035,2|0|0,0:0|0:0|0:0,0:0:0:0:
278,187,3668,1,0,0:0:0:0:
278,187,3839,2,0,P|291:165|297:137,2,50.9999984436035,2|0|0,0:0|0:0|0:0,0:0:0:0:
306,263,4349,1,0,0:0:0:0:
306,263,4520,6,0,P|328:251|347:230,2,50.9999984436035,2|0|0,0:0|0:0|0:0,0:0:0:0:
224,248,5032,1,2,0:0:0:0:
143,233,5202,2,0,P|142:258|150:283,1,50.9999984436035,0|2,0:0|0:0,0:0:0:0:
206,383,5543,2,0,P|214:359|213:334,1,50.9999984436035,2|0,0:0|0:0,0:0:0:0:
98,340,5884,6,0,L|-22:328,1,113.333333333333,4|0,0:1|0:0,0:0:0:0:
41,184,6907,2,0,L|77:187,1,28.3333333333333,2|0,0:0|0:0,0:0:0:0:
182,272,7248,6,0,L|-3:253,1,170,6|0,0:0|0:0,0:0:0:0:
41,184,8100,1,8,0:3:0:0:
69,112,8270,2,0,L|123:117,1,42.5,10|0,0:0|0:0,0:0:0:0:
267,206,8611,6,0,L|21:181,1,227.799989224549,4|0,0:1|0:0,0:0:0:0:
69,112,9464,1,2,0:0:0:0:
97,40,9634,2,0,L|166:46,1,56.9499973061372,2|0,0:0|0:0,0:0:0:0:
350,140,9975,6,0,L|46:109,1,283.322003075922,4|0,0:0|0:0,0:0:0:0:
97,40,10827,1,2,0:0:0:0:
173,49,10998,2,0,L|243:56,1,70.8305007689804,2|0,0:0|0:0,0:0:0:0:
321,211,11339,6,0,L|250:203,1,42.5,8|0,0:0|0:0,0:0:0:0:
350,140,11509,2,0,L|420:132,1,42.5,0|0,0:0|0:0,0:0:0:0:
317,221,11680,6,0,L|246:213,1,42.5,8|0,0:0|0:0,0:0:0:0:
346,130,11850,2,0,L|416:122,1,42.5,8|0,0:0|0:0,0:0:0:0:
313,231,12020,6,0,L|242:223,1,42.5,8|0,0:0|0:0,0:0:0:0:
342,120,12191,2,0,L|412:112,1,42.5,8|0,0:0|0:0,0:0:0:0:
309,241,12361,6,0,L|238:233,1,42.5,8|0,0:0|0:0,0:0:0:0:
338,110,12532,2,0,L|408:102,1,42.5,8|0,0:0|0:0,0:0:0:0:
280,372,12702,5,10,0:0:0:0:
280,372,13043,6,0,L|209:364,1,63.7500024318696,0|0,0:0|0:0,0:0:0:0:
110,300,13384,2,0,L|174:293,1,63.7500024318696,0|0,0:0|0:0,0:0:0:0:
55,363,13725,1,0,0:0:0:0:
39,344,13810,1,0,0:0:0:0:
30,322,13895,1,0,0:0:0:0:
27,299,13980,1,0,0:0:0:0:
32,275,14066,6,0,L|65:154,1,85,10|0,0:0|0:0,0:0:0:0:
76,109,14407,1,10,0:0:0:0:
120,253,14577,2,0,L|153:132,1,85,12|0,0:0|0:0,0:0:0:0:
164,87,14918,1,10,0:0:0:0:
208,231,15089,6,0,L|241:110,1,85,10|0,0:0|0:0,0:0:0:0:
252,65,15430,1,8,0:0:0:0:
296,209,15600,2,0,L|329:88,1,85,14|10,0:0|0:0,0:0:0:0:
340,43,15941,1,0,0:0:0:0:
384,187,16111,5,10,0:0:0:0:
428,21,16282,1,10,0:0:0:0:
472,165,16452,1,10,0:0:0:0:
474,186,16537,1,0,0:0:0:0:
472,207,16622,1,0,0:0:0:0:
464,226,16707,1,0,0:0:0:0:
453,244,16793,6,0,P|414:270|363:275,1,85,4|0,0:1|0:0,0:0:0:0:
308,219,17134,2,0,P|342:195|384:187,1,85,8|0,0:0|0:0,0:0:0:0:
294,124,17475,2,0,P|255:98|204:93,1,85,10|0,0:0|0:0,0:0:0:0:
149,148,17816,2,0,P|183:172|224:180,1,85,8|0,0:0|1:0,0:0:0:0:
142,63,18157,6,0,L|150:172,1,85,2|0,0:0|0:0,0:0:0:0:
231,265,18498,2,0,L|224:180,1,85,10|0,0:0|0:0,0:0:0:0:
161,313,18839,1,10,0:0:0:0:
238,350,19009,1,8,0:3:0:0:
308,301,19180,2,0,L|378:253,1,85,8|0,0:0|0:0,0:0:0:0:
425,323,19520,6,0,L|355:371,1,85,2|0,0:0|0:0,0:0:0:0:
462,246,19861,2,0,P|496:273|510:340,1,85,8|0,0:0|0:0,0:0:0:0:
378,253,20202,2,0,P|384:210|435:164,1,85,10|0,0:0|0:0,0:0:0:0:
441,103,20543,2,0,P|434:145|383:191,1,85,8|0,0:0|1:0,0:0:0:0:
271,101,20884,6,0,L|356:110,1,85,10|0,0:0|0:0,0:0:0:0:
177,177,21225,2,0,L|186:93,1,85,8|0,0:0|0:0,0:0:0:0:
252,270,21566,2,0,L|167:261,1,85,10|8,0:0|0:3,0:0:0:0:
345,194,21907,2,0,L|336:278,1,85,10|0,0:0|0:0,0:0:0:0:
412,372,22248,6,0,P|482:347|495:243,1,170,10|8,0:0|0:0,0:0:0:0:
421,287,22759,1,0,0:0:0:0:
327,363,22930,2,0,L|208:350,1,85,10|0,0:0|0:0,0:0:0:0:
251,268,23270,2,0,L|335:277,1,85,8|0,0:0|1:0,0:0:0:0:
242,353,23611,6,0,L|123:340,1,85,10|0,0:0|0:0,0:0:0:0:
166,258,23952,2,0,L|250:267,1,85,8|0,0:0|0:0,0:0:0:0:
157,343,24293,2,0,L|38:330,1,85,10|8,0:0|0:3,0:0:0:0:
81,248,24634,2,0,L|165:257,1,85,10|0,0:0|0:0,0:0:0:0:
3,282,24975,6,0,P|4:213|99:164,1,170,10|8,0:0|0:0,0:0:0:0:
166,171,25486,1,0,0:0:0:0:
211,98,25657,2,0,P|171:85|130:93,1,85,10|2,0:0|0:0,0:0:0:0:
251,174,25998,2,0,P|281:145|296:105,1,85,10|0,0:0|0:0,0:0:0:0:
166,171,26339,6,0,L|185:371,1,170,10|8,0:0|0:0,0:0:0:0:
251,174,26850,1,0,0:0:0:0:
81,168,27020,2,0,L|100:368,1,170,10|8,0:0|0:0,0:0:0:0:
166,171,27531,1,0,0:0:0:0:
42,93,27702,6,0,B|0:135|0:135|11:281,1,170,14|8,0:0|0:0,0:0:0:0:
81,168,28214,1,0,0:0:0:0:
127,97,28384,2,0,L|105:14,1,85,10|0,0:0|0:0,0:0:0:0:
209,118,28725,2,0,L|235:20,1,85,8|0,0:0|0:0,0:0:0:0:
148,177,29066,6,0,P|184:200|226:200,1,85,10|0,0:0|0:0,0:0:0:0:
345,203,29407,2,0,P|308:222|287:259,1,85,10|0,0:0|0:0,0:0:0:0:
224,360,29748,2,0,P|225:318|204:281,1,85,10|8,0:0|0:3,0:0:0:0:
121,259,30089,2,0,P|120:301|141:338,1,85,8|0,0:0|0:0,0:0:0:0:
182,198,30430,6,0,P|115:173|34:248,1,170,10|8,0:0|0:0,0:0:0:0:
121,259,30941,1,2,0:0:0:0:
244,259,31111,2,0,L|359:259,1,85,10|0,0:0|0:0,0:0:0:0:
329,344,31452,2,0,L|244:344,1,85,10|0,0:0|1:0,0:0:0:0:
329,259,31793,6,0,L|444:259,1,85,10|0,0:0|0:0,0:0:0:0:
414,344,32134,2,0,L|329:344,1,85,8|0,0:0|0:0,0:0:0:0:
414,259,32475,2,0,L|529:259,1,85,10|8,0:0|0:3,0:0:0:0:
499,344,32816,2,0,L|414:344,1,85,10|0,0:0|0:0,0:0:0:0:
329,174,33157,6,0,L|499:174,1,170,10|8,0:0|0:0,0:0:0:0:
494,88,33668,1,2,0:0:0:0:
450,15,33839,2,0,P|419:43|408:84,1,85,10|0,0:0|0:0,0:0:0:0:
379,207,34180,2,0,P|370:166|341:136,1,85,10|0,0:0|1:0,0:0:0:0:
249,50,34520,6,0,P|289:62|329:52,1,85,10|0,0:0|0:0,0:0:0:0:
171,14,34861,2,0,P|130:1|90:11,1,85,8|0,0:0|0:0,0:0:0:0:
257,134,35202,2,0,L|248:42,1,85,10|8,0:0|0:3,0:0:0:0:
128,88,35543,2,0,L|136:172,1,85,8|0,0:0|0:0,0:0:0:0:
334,169,35884,6,0,L|325:77,1,85,14|0,0:0|0:0,0:0:0:0:
257,134,36225,1,8,0:0:0:0:
171,249,36395,2,0,L|79:240,1,85,2|8,0:0|0:0,0:0:0:0:
136,172,36736,1,2,0:0:0:0:
275,304,36907,1,10,0:0:0:0:
266,219,37077,1,0,0:0:0:0:
162,334,37248,5,10,0:0:0:0:
171,249,37418,1,8,0:3:0:0:
353,338,37589,1,0,0:0:0:0:
335,168,37759,1,8,0:3:0:0:
275,304,37930,1,8,0:0:0:0:
266,219,38100,1,10,0:0:0:0:
431,372,38270,5,10,0:0:0:0:
201,94,38611,6,0,L|181:281,1,170,14|0,0:0|0:0,0:0:0:0:
107,169,39123,1,10,0:0:0:0:
276,187,39293,2,0,L|360:196,1,85,2|0,0:0|0:0,0:0:0:0:
285,103,39634,2,0,L|200:93,1,85,10|0,0:0|0:0,0:0:0:0:
182,263,39975,6,0,L|369:283,1,170,2|0,0:0|0:0,0:0:0:0:
276,187,40486,1,10,0:0:0:0:
257,357,40657,2,0,L|341:366,1,85,2|0,0:0|1:0,0:0:0:0:
435,290,40998,2,0,L|350:280,1,85,2|0,0:0|0:0,0:0:0:0:
276,187,41339,6,0,L|360:196,1,85,10|0,0:0|0:0,0:0:0:0:
285,102,41680,2,0,L|294:17,1,85,0|2,0:0|0:0,0:0:0:0:
200,92,42020,2,0,L|115:82,1,85,2|0,0:0|0:0,0:0:0:0:
190,176,42361,2,0,L|180:260,1,85,10|0,0:0|0:0,0:0:0:0:
277,318,42702,6,0,P|202:286|134:332,1,170,2|0,0:0|0:0,0:0:0:0:
210,372,43214,1,10,0:0:0:0:
290,232,43384,2,0,P|364:199|432:245,1,170,2|0,0:0|1:0,0:0:0:0:
357,285,43896,1,0,0:0:0:0:
223,179,44066,6,0,B|200:134|200:134|226:17,1,170,14|0,0:0|0:0,0:0:0:0:
286,122,44577,1,10,0:0:0:0:
160,236,44748,2,0,L|115:149,1,85,2|0,0:0|0:0,0:0:0:0:
261,254,45089,2,0,L|305:340,1,85,2|0,0:0|0:0,0:0:0:0:
430,238,45430,6,0,L|260:253,1,170,10|2,0:0|0:0,0:0:0:0:
200,314,45941,1,8,0:0:0:0:
127,175,46111,2,0,L|212:183,1,85,10|0,0:0|0:0,0:0:0:0:
131,260,46452,2,0,L|46:252,1,85,2|0,0:0|0:0,0:0:0:0:
113,91,46793,6,0,L|127:174,1,85,10|0,0:0|0:0,0:0:0:0:
226,99,47134,2,0,L|211:182,1,85,0|10,0:0|0:0,0:0:0:0:
309,106,47475,2,0,L|324:190,1,85,2|0,0:0|0:0,0:0:0:0:
422,114,47816,2,0,L|407:197,1,85,2|0,0:0|0:0,0:0:0:0:
274,30,48157,6,0,P|215:15|142:93,1,170,10|0,0:0|0:0,0:0:0:0:
226,99,48668,1,0,0:0:0:0:
358,34,48839,2,0,L|443:38,1,85,2|0,0:0|0:0,0:0:0:0:
438,123,49180,2,0,L|353:118,1,85,2|0,1:2|0:0,0:0:0:0:
268,269,49520,6,0,L|438:261,1,170,14|0,0:0|0:0,0:0:0:0:
489,192,50032,1,10,0:0:0:0:
438,123,50202,2,0,L|353:118,1,85,2|0,0:0|0:0,0:0:0:0:
217,182,50543,2,0,L|302:187,1,85,10|0,0:0|0:0,0:0:0:0:
245,40,50884,6,0,P|268:119|216:182,1,170,10|0,0:0|0:0,0:0:0:0:
131,170,51395,1,10,0:0:0:0:
104,87,51566,2,0,P|146:84|184:101,1,85,2|0,0:0|1:0,0:0:0:0:
157,252,51907,2,0,P|114:254|76:238,1,85,2|0,0:0|0:0,0:0:0:0:
216,182,52248,6,0,L|326:173,1,85,10|0,0:0|0:0,0:0:0:0:
273,325,52589,2,0,L|188:331,1,85,0|2,0:0|0:0,0:0:0:0:
332,255,52930,2,0,P|350:276|360:302,2,56.6666666666667,8|8|8,0:3|0:3|0:3,0:0:0:0:
300,175,53270,2,0,L|310:85,2,56.6666666666667,8|0|0,0:0|0:0|0:0,0:0:0:0:
201,90,53611,6,0,L|226:298,1,191.250007295609,4|0,0:1|0:0,0:0:0:0:
125,121,54293,6,0,L|142:269,1,147.90000451355,4|0,0:1|0:0,0:0:0:0:
48,151,54975,6,0,L|61:260,1,104.770017195978,0|0,0:0|0:0,0:0:0:0:
142,267,55998,5,0,0:0:0:0:
224,280,56339,2,0,L|231:342,1,61.2000014941407,2|0,0:0|0:0,0:0:0:0:
306,293,56850,1,0,0:0:0:0:
388,306,57191,1,0,0:0:0:0:
470,319,57532,1,0,0:0:0:0:
441,241,57702,6,0,L|432:204,1,21.25,10|0,0:0|0:0,0:0:0:0:
357,228,57873,2,0,L|348:191,1,21.25,0|0,0:0|0:0,0:0:0:0:
277,215,58043,2,0,L|268:178,1,21.25,8|0,0:0|0:0,0:0:0:0:
143,121,58214,6,0,L|137:146,1,25.4999992218018,10|0,0:0|0:0,0:0:0:0:
223,108,58384,2,0,L|217:133,1,25.4999992218018,0|0,0:0|0:0,0:0:0:0:
303,95,58555,2,0,L|297:120,1,25.4999992218018,8|0,0:0|0:0,0:0:0:0:
441,241,58725,6,0,L|432:204,1,29.7499990921021,10|0,0:0|0:0,0:0:0:0:
357,228,58895,2,0,L|348:191,1,29.7499990921021,8|0,0:0|0:0,0:0:0:0:
399,123,59066,6,0,L|407:89,1,29.7499990921021,8|0,0:0|0:0,0:0:0:0:
466,4,59236,2,0,L|459:33,1,29.7499990921021,10|0,0:0|0:0,0:0:0:0:
278,148,59407,6,0,L|286:114,1,34,8|0,0:0|0:0,0:0:0:0:
347,25,59577,2,0,L|338:58,1,34,10|0,0:0|0:0,0:0:0:0:
155,177,59748,6,0,L|164:139,1,38.2499988327027,10|0,0:0|0:0,0:0:0:0:
226,45,59918,2,0,L|216:82,1,38.2499988327027,8|0,0:0|0:0,0:0:0:0:
31,205,60089,6,0,L|42:163,1,42.5,10|0,0:0|0:0,0:0:0:0:
105,64,60259,2,0,L|94:106,1,42.5,8|0,0:0|0:0,0:0:0:0:
94,282,60430,6,0,L|104:240,1,42.5,14|0,0:0|0:0,0:0:0:0:
164,139,60600,2,0,L|155:177,1,38.2499988327027,8|0,0:0|0:0,0:0:0:0:
176,286,60770,2,0,L|184:253,1,34,8|0,0:0|0:0,0:0:0:0:
243,156,60941,2,0,L|236:185,1,29.7499990921021,0|0,1:0|0:0,0:0:0:0:
258,290,61111,2,0,L|264:265,1,25.4999992218018,8|0,0:0|0:0,0:0:0:0:
319,173,61282,2,0,L|314:193,1,21.25,0|0,1:0|0:0,0:0:0:0:
339,293,61452,2,0,L|343:277,1,17,0|0,1:0|0:0,0:0:0:0:
397,193,61623,2,0,L|393:205,1,12.7499996109009,0|0,0:0|0:0,0:0:0:0:
416,304,61793,6,0,P|434:285|445:262,1,51,6|0,0:0|0:0,0:0:0:0:
344,68,63157,6,0,L|147:90,1,170,14|0,0:0|1:0,0:0:0:0:
130,159,63668,1,0,0:0:0:0:
212,245,63839,1,8,0:0:0:0:
214,161,64009,1,8,0:0:0:0:
128,243,64180,2,0,L|9:256,1,85,2|0,1:2|0:0,0:0:0:0:
175,86,64520,6,0,P|249:84|295:182,1,170,10|0,0:0|1:0,0:0:0:0:
212,245,65032,2,0,L|214:161,2,85,2|0|0,0:0|0:0|0:0,0:0:0:0:
374,277,65543,2,0,L|376:193,1,85,2|0,1:2|0:0,0:0:0:0:
291,281,65884,6,0,P|332:351|414:353,1,170,10|0,0:0|1:0,0:0:0:0:
503,206,66395,1,2,0:0:0:0:
418,204,66565,1,8,0:0:0:0:
373,277,66736,1,10,0:0:0:0:
497,351,66907,2,0,P|487:310|459:280,1,85,0|0,1:0|0:0,0:0:0:0:
291,281,67248,6,0,B|239:291|239:291|216:315|216:315|112:336,1,170,10|0,0:0|1:0,0:0:0:0:
105,202,67759,2,0,P|145:210|172:243,2,85,2|0|8,0:0|0:0|0:0,0:0:0:0:
50,348,68270,2,0,B|164:324,1,85,2|0,1:2|0:0,0:0:0:0:
73,130,68611,6,0,P|28:197|64:269,1,170,14|0,0:0|1:0,0:0:0:0:
159,135,69123,1,2,0:0:0:0:
119,58,69293,1,0,0:0:0:0:
32,54,69464,1,10,0:0:0:0:
159,135,69634,2,0,L|273:140,1,85,0|0,1:0|0:0,0:0:0:0:
371,61,69975,6,0,L|287:65,1,85,10|0,0:2|0:0,0:0:0:0:
116,209,70316,2,0,L|230:214,1,85,0|0,1:2|0:0,0:0:0:0:
328,135,70657,2,0,L|243:138,1,85,10|8,0:0|0:0,0:0:0:0:
72,283,70998,2,0,L|186:288,1,85,0|0,1:2|0:0,0:0:0:0:
371,61,71339,5,14,0:0:0:0:
287,65,71509,1,0,0:0:0:0:
232,211,71680,5,2,1:2:0:0:
229,127,71850,1,0,0:0:0:0:
436,203,72020,5,10,0:2:0:0:
433,119,72191,1,8,0:0:0:0:
294,269,72361,5,2,1:2:0:0:
386,273,72532,1,0,0:0:0:0:
386,273,72617,1,2,0:0:0:0:
386,273,72702,6,0,L|378:359,1,85,14|0,1:2|0:0,0:0:0:0:
301,184,73043,2,0,L|293:270,1,85,2|0,1:2|0:0,0:0:0:0:
212,137,73384,2,0,L|208:179,1,42.5,2|0,1:2|0:0,0:0:0:0:
297,84,73555,1,0,0:0:0:0:
317,80,73640,1,0,0:0:0:0:
338,76,73725,1,0,1:0:0:0:
359,72,73810,1,0,0:0:0:0:
380,69,73895,1,0,0:0:0:0:
401,65,73981,1,0,0:0:0:0:
422,61,74066,5,10,0:0:0:0:
472,129,74236,1,2,0:0:0:0:
438,205,74407,1,0,1:0:0:0:
256,364,74577,5,2,0:0:0:0:
222,288,74748,1,10,0:0:0:0:
272,221,74918,1,0,0:0:0:0:
390,306,75089,5,2,1:2:0:0:
306,297,75259,1,0,0:0:0:0:
238,145,75430,5,10,0:0:0:0:
154,136,75600,1,0,0:0:0:0:
104,204,75770,1,0,1:0:0:0:
272,221,75941,5,2,0:0:0:0:
356,230,76111,1,8,0:0:0:0:
406,162,76281,1,2,0:0:0:0:
204,69,76452,5,2,1:2:0:0:
238,145,76623,1,2,0:0:0:0:
416,16,76793,5,10,0:0:0:0:
334,9,76964,1,0,0:0:0:0:
286,77,77134,1,2,1:2:0:0:
226,291,77305,5,0,0:0:0:0:
308,298,77476,1,10,0:0:0:0:
356,230,77646,1,8,0:0:0:0:
154,136,77816,5,2,1:2:0:0:
192,217,77986,1,2,0:0:0:0:
87,352,78157,5,10,0:0:0:0:
53,276,78328,1,0,0:0:0:0:
102,209,78498,1,0,1:0:0:0:
356,230,78668,5,2,0:0:0:0:
390,306,78839,1,10,0:0:0:0:
341,373,79009,1,0,0:0:0:0:
192,217,79180,5,2,1:2:0:0:
272,221,79350,1,0,0:0:0:0:
225,319,79520,6,0,L|236:150,1,170,14|0,0:0|1:0,0:0:0:0:
149,285,80032,1,0,0:0:0:0:
308,292,80202,1,0,0:0:0:0:
236,150,80373,1,0,0:0:0:0:
225,319,80543,1,0,1:0:0:0:
227,334,80628,1,0,0:0:0:0:
230,350,80713,1,0,0:0:0:0:
232,366,80798,1,0,0:0:0:0:
236,384,80884,6,0,L|431:340,1,170,14|0,0:0|1:0,0:0:0:0:
286,220,81395,1,0,0:0:0:0:
191,312,81566,1,0,0:0:0:0:
345,282,81736,1,0,0:0:0:0:
145,239,81907,1,0,1:0:0:0:
236,384,82077,1,0,0:0:0:0:
286,220,82248,6,0,P|354:199|430:285,1,170,14|0,0:0|1:0,0:0:0:0:
319,365,82759,1,0,0:0:0:0:
227,158,82930,1,0,0:0:0:0:
345,282,83101,1,8,0:0:0:0:
177,320,83270,1,0,1:0:0:0:
254,76,83441,1,0,0:0:0:0:
404,344,83611,5,14,0:0:0:0:
393,118,83782,1,0,0:0:0:0:
144,179,83952,1,0,1:0:0:0:
319,365,84123,1,0,0:0:0:0:
171,95,84293,5,10,0:0:0:0:
236,346,84464,1,8,0:0:0:0:
254,76,84634,1,0,0:0:0:0:
153,327,84805,1,0,0:0:0:0:
197,14,84975,6,0,L|123:4,1,63.7500024318696,14|0,0:0|0:0,0:0:0:0:
48,126,85145,2,0,L|58:52,1,63.7500024318696,10|0,0:0|0:0,0:0:0:0:
254,76,85316,6,0,L|182:98,1,63.7500024318696,10|0,0:0|0:0,0:0:0:0:
93,197,85486,2,0,L|132:133,1,63.7500024318696,10|0,0:0|0:0,0:0:0:0:
329,119,85657,6,0,L|249:177,1,63.7500024318696,10|0,0:0|0:0,0:0:0:0:
111,279,85827,2,0,L|191:220,1,63.7500024318696,10|0,0:0|0:0,0:0:0:0:
414,133,85998,6,0,L|358:215,1,63.7500024318696,10|0,0:0|0:0,0:0:0:0:
99,362,86168,2,0,L|194:334,1,63.7500024318696,10|0,0:0|0:0,0:0:0:0:
498,117,86339,5,14,0:0:0:0:
228,194,87020,5,2,0:0:0:0:
228,194,87191,2,0,P|270:201|310:187,1,85,2|0,0:0|0:0,0:0:0:0:
387,86,87702,6,0,P|336:109|443:135,1,297.5,2|0,0:0|0:0,0:0:0:0:
