osu file format v14

[General]
AudioFilename: audio.mp3
AudioLeadIn: 0
PreviewTime: 5799
Countdown: 0
SampleSet: Soft
StackLeniency: 0.5
Mode: 0
LetterboxInBreaks: 0
WidescreenStoryboard: 1

[Editor]
Bookmarks: 16793,22248,27702,63157
DistanceSpacing: 0.6
BeatDivisor: 4
GridSize: 4
TimelineZoom: 2.2

[Metadata]
Title:SHIORI -TV size mix-
TitleUnicode:SHIORI -TV size mix-
Artist:ClariS
ArtistUnicode:ClariS
Creator:Monstrata
Version:Chaoz's Light Insane
Source:終物語
Tags:a_r_m_i_n armin chaoslitz haruto haruto_aizawa haruto- irohas mugiwarasekai snownino_ ultima fox bakemonogatari monogatari owarimonogatari ougi oshino kanbara araragi ending
BeatmapID:1414505
BeatmapSetID:661919

[Difficulty]
HPDrainRate:5
CircleSize:4
OverallDifficulty:7
ApproachRate:8.5
SliderMultiplier:1.6
SliderTickRate:1

[Events]
//Background and Video events
0,0,"775908.jpg",0,0
//Break Periods
//Storyboard Layer 0 (Background)
//Storyboard Layer 1 (Fail)
//Storyboard Layer 2 (Pass)
//Storyboard Layer 3 (Foreground)
//Storyboard Sound Samples

[TimingPoints]
430,340.909090909091,4,2,1,45,1,0
430,-133.333333333333,4,2,1,45,0,0
5884,-166.666666666667,4,2,1,60,0,0
8270,-200,4,2,1,60,0,0
8611,-166.666666666667,4,2,1,60,0,0
9975,-133.333333333333,4,2,1,60,0,0
11339,-111.111111111111,4,2,1,60,0,0
13043,-200,4,2,1,60,0,0
13384,-166.666666666667,4,2,1,60,0,0
13725,-133.333333333333,4,2,1,60,0,0
14066,-100,4,2,1,80,0,0
16793,-133.333333333333,4,2,1,70,0,0
38611,-142.857142857143,4,2,1,70,0,0
53611,-142.857142857143,4,2,1,60,0,0
54975,-200,4,2,1,60,0,0
55486,-200,4,2,1,5,0,0
55998,-200,4,2,1,60,0,0
58214,-166.666666666667,4,2,1,60,0,0
58725,-142.857142857143,4,2,1,60,0,0
59236,-125,4,2,1,60,0,0
61793,-200,4,2,1,60,0,0
62305,-166.666666666667,4,2,1,60,0,0
62475,-166.666666666667,4,2,1,60,0,0
62816,-166.666666666667,4,2,1,60,0,0
63157,-100,4,2,1,85,0,1
74066,-111.111111111111,4,2,1,85,0,1
84975,-100,4,2,1,85,0,0
87020,-200,4,2,1,30,0,0
88895,-200,4,2,1,5,0,0

[Colours]
Combo1 : 255,0,121
Combo2 : 155,48,255
Combo3 : 3,168,158
Combo4 : 61,89,171

[HitObjects]
86,92,259,5,0,0:0:0:0:
86,92,430,2,0,L|26:98,1,60.0000022888184,2|0,0:0|0:0,0:0:0:0:
12,192,770,2,0,L|71:185,1,60.0000022888184,0|0,0:0|0:0,0:0:0:0:
160,151,1111,1,2,0:0:0:0:
160,151,1282,1,0,0:0:0:0:
86,92,1452,1,0,0:0:0:0:
71,185,1623,1,0,0:0:0:0:
55,278,1793,6,0,P|85:274|115:271,1,60.0000022888184,2|0,0:0|0:0,0:0:0:0:
177,352,2134,2,0,P|147:355|117:358,1,60.0000022888184,0|2,0:0|0:0,0:0:0:0:
249,259,2475,1,0,0:0:0:0:
249,259,2645,2,0,P|256:318|262:378,1,120.000004577637,2|0,0:0|0:0,0:0:0:0:
334,285,3157,5,2,0:0:0:0:
334,285,3327,2,0,P|363:281|393:278,2,60.0000022888184,0|0|0,0:0|0:0|0:0,0:0:0:0:
348,191,3839,2,0,P|377:187|407:184,1,60.0000022888184,2|0,0:0|0:0,0:0:0:0:
495,168,4180,2,0,P|491:201|488:232,1,60.0000022888184,0|0,0:0|0:0,0:0:0:0:
436,100,4520,6,0,P|393:71|325:89,1,120.000004577637,2|0,0:0|0:0,0:0:0:0:
256,134,5032,1,2,0:0:0:0:
180,84,5202,1,0,0:0:0:0:
180,84,5373,2,0,P|120:89|60:94,1,120.000004577637,2|0,0:0|0:0,0:0:0:0:
42,110,5799,1,0,0:0:0:0:
42,110,5884,6,0,P|23:174|75:233,1,143.999995605469,4|0,0:1|0:0,0:0:0:0:
152,248,6566,1,0,0:0:0:0:
152,248,6736,2,0,P|151:225|148:201,2,47.9999985351563,0|2|0,0:0|0:0|0:0,0:0:0:0:
165,268,7162,1,0,0:0:0:0:
165,268,7248,6,0,L|157:366,1,95.9999970703126,6|0,0:0|0:0,0:0:0:0:
32,323,7759,1,0,0:0:0:0:
32,323,7930,2,0,L|79:318,1,47.9999985351563,0|8,0:0|0:3,0:0:0:0:
196,358,8270,6,0,L|157:363,1,40,10|0,0:0|0:0,0:0:0:0:
257,284,8611,6,0,P|306:277|348:296,1,95.9999970703126,4|0,0:1|0:0,0:0:0:0:
408,366,9123,1,0,0:0:0:0:
478,308,9293,2,0,P|480:284|483:260,1,47.9999985351563,0|2,0:0|0:0,0:0:0:0:
436,185,9634,2,0,P|433:161|430:137,1,47.9999985351563,2|0,0:0|0:0,0:0:0:0:
483,43,9975,6,0,P|423:47|363:53,1,120.000004577637,4|0,0:0|0:0,0:0:0:0:
272,83,10486,1,0,0:0:0:0:
272,83,10657,2,0,P|264:111|268:141,1,60.0000022888184,0|2,0:0|0:0,0:0:0:0:
338,207,10998,2,0,P|342:236|334:265,1,60.0000022888184,2|0,0:0|0:0,0:0:0:0:
256,330,11339,6,0,P|186:340|132:296,1,143.999995605469,8|8,0:0|0:0,0:0:0:0:
117,124,11850,1,8,0:0:0:0:
160,207,12020,2,0,P|124:210|88:214,1,71.9999978027344,8|8,0:0|0:0,0:0:0:0:
60,304,12361,2,0,P|96:299|132:296,1,71.9999978027344,8|8,0:0|0:0,0:0:0:0:
255,329,12702,5,10,0:0:0:0:
255,329,13043,2,0,P|254:353|252:373,1,40,0|0,0:0|0:0,0:0:0:0:
331,289,13384,6,0,P|336:312|339:336,1,47.9999985351563,0|0,0:0|0:0,0:0:0:0:
407,249,13725,6,0,P|415:269|420:288,3,30.0000011444092,0|0|0|0,0:0|0:0|0:0|0:0,0:0:0:0:
393,234,14066,5,10,0:0:0:0:
393,234,14236,2,0,L|401:154,1,80,0|10,0:0|0:0,0:0:0:0:
280,118,14577,1,12,0:0:0:0:
280,118,14748,2,0,L|271:197,1,80,0|10,0:0|0:0,0:0:0:0:
255,329,15089,5,10,0:0:0:0:
166,365,15259,1,0,0:0:0:0:
180,270,15430,1,8,0:0:0:0:
255,329,15600,5,14,0:0:0:0:
166,365,15770,1,10,0:0:0:0:
91,306,15941,1,0,0:0:0:0:
163,154,16111,5,10,0:0:0:0:
34,193,16282,2,0,L|74:189,1,40,10|0,0:0|0:0,0:0:0:0:
175,116,16452,1,10,0:0:0:0:
172,125,16537,1,0,0:0:0:0:
169,135,16622,1,0,0:0:0:0:
166,144,16707,1,0,0:0:0:0:
163,154,16793,6,0,L|282:143,1,120.000004577637,4|8,0:1|0:0,0:0:0:0:
282,142,17305,1,0,0:0:0:0:
368,156,17475,2,0,P|367:126|357:98,1,60.0000022888184,10|0,0:0|0:0,0:0:0:0:
456,44,17816,2,0,P|452:73|448:103,1,60.0000022888184,8|0,0:0|1:0,0:0:0:0:
503,184,18157,6,0,P|495:243|486:302,2,120.000004577637,2|10|10,0:0|0:0|0:0,0:0:0:0:
448,103,19009,1,8,0:3:0:0:
368,156,19180,2,0,P|358:184|359:214,1,60.0000022888184,8|0,0:0|0:0,0:0:0:0:
389,308,19520,6,0,P|329:313|269:318,1,120.000004577637,2|8,0:0|0:0,0:0:0:0:
196,372,20032,1,0,0:0:0:0:
196,372,20202,2,0,P|136:366|76:361,1,120.000004577637,10|8,0:0|0:0,0:0:0:0:
0,244,20714,1,0,1:0:0:0:
80,199,20884,6,0,P|84:228|88:258,1,60.0000022888184,10|0,0:0|0:0,0:0:0:0:
160,154,21225,2,0,P|164:183|168:213,1,60.0000022888184,8|0,0:0|0:0,0:0:0:0:
240,109,21566,1,10,0:0:0:0:
240,109,21736,2,0,P|244:138|248:168,2,60.0000022888184,8|10|0,0:3|0:0|0:0,0:0:0:0:
318,34,22248,6,0,P|375:41|398:93,1,120.000004577637,10|8,0:0|0:0,0:0:0:0:
398,93,22759,1,0,0:0:0:0:
384,181,22930,2,0,P|379:210|375:240,1,60.0000022888184,10|0,0:0|0:0,0:0:0:0:
316,312,23270,2,0,P|320:341|322:371,1,60.0000022888184,8|0,0:0|1:0,0:0:0:0:
407,328,23611,6,0,P|465:322|510:360,2,120.000004577637,10|8|10,0:0|0:0|0:0,0:0:0:0:
323,372,24464,1,8,0:3:0:0:
234,348,24634,2,0,P|231:318|226:288,1,60.0000022888184,10|0,0:0|0:0,0:0:0:0:
214,187,24975,6,0,P|157:171|107:201,1,120.000004577637,10|8,0:0|0:0,0:0:0:0:
120,303,25486,2,0,P|176:318|226:288,1,120.000004577637,0|2,0:0|0:0,0:0:0:0:
214,187,25998,1,10,0:0:0:0:
201,85,26168,1,0,0:0:0:0:
283,23,26339,6,0,P|341:8|400:40,1,120.000004577637,10|8,0:0|0:0,0:0:0:0:
468,86,26850,1,0,0:0:0:0:
468,86,27020,2,0,P|463:129|459:150,1,60.0000022888184,10|8,0:0|0:3,0:0:0:0:
385,196,27361,2,0,P|388:226|393:256,1,60.0000022888184,8|0,0:0|0:0,0:0:0:0:
407,284,27617,1,0,0:0:0:0:
407,284,27702,6,0,P|356:309|346:379,1,120.000004577637,14|8,0:0|0:0,0:0:0:0:
342,366,28214,1,0,0:0:0:0:
256,309,28384,2,0,P|196:314|136:320,1,120.000004577637,10|8,0:0|0:0,0:0:0:0:
23,368,28895,1,0,0:0:0:0:
56,280,29066,6,0,P|53:250|49:220,1,60.0000022888184,10|0,0:0|0:0,0:0:0:0:
27,129,29407,2,0,P|64:85|122:90,1,120.000004577637,10|10,0:0|0:0,0:0:0:0:
196,160,29918,1,8,0:3:0:0:
196,160,30089,2,0,L|259:154,1,60.0000022888184,8|0,0:0|0:0,0:0:0:0:
338,110,30430,6,0,P|367:137|447:123,1,120.000004577637,10|8,0:0|0:0,0:0:0:0:
508,59,30941,1,2,0:0:0:0:
447,134,31111,2,0,P|437:171|437:194,1,60.0000022888184,10|0,0:0|0:0,0:0:0:0:
489,272,31452,1,10,0:0:0:0:
386,361,31623,1,0,1:0:0:0:
386,361,31708,1,0,0:0:0:0:
386,361,31793,6,0,P|415:357|445:356,1,60.0000022888184,10|0,0:0|0:0,0:0:0:0:
394,277,32134,2,0,P|364:278|334:281,1,60.0000022888184,8|0,0:0|0:0,0:0:0:0:
256,236,32475,1,10,0:0:0:0:
256,326,32645,1,8,0:3:0:0:
177,281,32816,2,0,P|147:278|118:277,1,60.0000022888184,10|0,0:0|0:0,0:0:0:0:
23,304,33157,6,0,P|-5:254|5:196,1,120.000004577637,10|8,0:0|0:0,0:0:0:0:
64,120,33668,1,2,0:0:0:0:
64,120,33839,2,0,P|93:118|123:115,1,60.0000022888184,10|0,0:0|0:0,0:0:0:0:
196,185,34180,2,0,P|225:183|255:180,1,60.0000022888184,10|0,0:0|1:0,0:0:0:0:
355,123,34520,6,0,P|348:182|341:242,2,120.000004577637,10|8|10,0:0|0:0|0:0,0:0:0:0:
366,28,35373,1,8,0:3:0:0:
355,123,35543,1,8,0:0:0:0:
355,123,35714,1,0,0:0:0:0:
278,65,35884,6,0,P|218:69|158:74,1,120.000004577637,14|8,0:0|0:0,0:0:0:0:
72,37,36395,2,0,P|29:78|33:136,1,120.000004577637,2|2,0:0|0:0,0:0:0:0:
110,189,36907,2,0,P|118:217|117:247,1,60.0000022888184,10|0,0:0|0:0,0:0:0:0:
59,340,37248,5,10,0:0:0:0:
142,333,37418,1,8,0:3:0:0:
66,348,37589,5,0,0:0:0:0:
140,341,37759,1,8,0:3:0:0:
221,364,37930,6,0,P|250:360|280:357,1,60.0000022888184,8|10,0:0|0:0,0:0:0:0:
367,323,38270,2,0,P|411:318|450:339,1,90.0000034332277,10|0,0:0|0:0,0:0:0:0:
462,358,38611,6,0,P|468:302|475:245,1,111.999996582031,14|0,0:0|0:0,0:0:0:0:
501,151,39123,1,10,0:0:0:0:
501,151,39293,2,0,P|466:137|439:138,1,55.9999982910157,2|0,0:0|0:0,0:0:0:0:
364,191,39634,2,0,P|329:211|268:199,1,83.9999974365235,10|0,0:0|0:0,0:0:0:0:
266,197,39975,6,0,P|238:151|250:98,1,111.999996582031,2|0,0:0|0:0,0:0:0:0:
331,53,40486,1,10,0:0:0:0:
331,53,40657,2,0,P|335:80|338:108,1,55.9999982910157,2|0,0:0|1:0,0:0:0:0:
364,191,40998,2,0,P|361:218|358:246,1,55.9999982910157,2|0,0:0|0:0,0:0:0:0:
377,338,41339,6,0,P|321:332|265:328,1,111.999996582031,10|0,0:0|0:0,0:0:0:0:
183,362,41850,1,2,0:0:0:0:
183,362,42020,2,0,P|155:365|127:367,1,55.9999982910157,2|0,0:0|0:0,0:0:0:0:
148,281,42361,2,0,P|120:284|92:286,1,55.9999982910157,10|0,0:0|0:0,0:0:0:0:
11,229,42702,6,0,P|-4:176|31:116,1,111.999996582031,2|0,0:0|0:0,0:0:0:0:
94,71,43214,1,10,0:0:0:0:
94,71,43384,2,0,P|121:69|149:66,1,55.9999982910157,2|0,0:0|0:0,0:0:0:0:
234,38,43725,2,0,P|246:71|249:94,1,55.9999982910157,0|0,1:0|0:0,0:0:0:0:
238,181,44066,6,0,P|305:194|352:161,1,111.999996582031,14|0,0:0|0:0,0:0:0:0:
368,88,44577,1,10,0:0:0:0:
368,88,44748,2,0,P|395:92|423:95,1,55.9999982910157,2|0,0:0|0:0,0:0:0:0:
509,128,45089,2,0,P|503:169|497:211,1,83.9999974365235,2|0,0:0|0:0,0:0:0:0:
488,231,45430,6,0,P|514:278|501:331,1,111.999996582031,10|2,0:0|0:0,0:0:0:0:
417,375,45941,1,8,0:0:0:0:
417,375,46111,2,0,P|389:371|361:368,1,55.9999982910157,10|0,0:0|0:0,0:0:0:0:
290,310,46452,2,0,P|249:301|210:316,1,83.9999974365235,2|0,0:0|0:0,0:0:0:0:
192,333,46793,6,0,P|143:356|91:340,1,111.999996582031,10|0,0:0|0:0,0:0:0:0:
25,276,47305,1,10,0:0:0:0:
25,276,47475,2,0,P|27:248|30:220,1,55.9999982910157,2|0,0:0|0:0,0:0:0:0:
99,162,47816,2,0,P|96:134|93:106,1,55.9999982910157,2|0,0:0|0:0,0:0:0:0:
27,28,48157,6,0,P|82:21|138:15,1,111.999996582031,10|0,0:0|0:0,0:0:0:0:
204,85,48668,1,0,0:0:0:0:
204,85,48753,1,0,0:0:0:0:
204,85,48839,2,0,P|231:81|259:79,1,55.9999982910157,2|0,0:0|0:0,0:0:0:0:
352,38,49180,2,0,P|392:30|431:44,1,83.9999974365235,2|0,1:2|0:0,0:0:0:0:
452,61,49520,6,0,P|445:116|438:172,1,111.999996582031,14|0,0:0|0:0,0:0:0:0:
456,261,50032,1,10,0:0:0:0:
456,261,50202,2,0,P|421:275|394:274,1,55.9999982910157,2|0,0:0|0:0,0:0:0:0:
317,229,50543,2,0,L|233:235,1,83.9999974365235,10|0,0:0|0:0,0:0:0:0:
210,233,50884,6,0,P|183:289|212:346,1,111.999996582031,10|0,0:0|0:0,0:0:0:0:
281,368,51395,1,10,0:0:0:0:
281,368,51566,2,0,P|308:365|336:363,1,55.9999982910157,2|0,0:0|1:0,0:0:0:0:
411,309,51907,1,2,0:0:0:0:
411,309,52077,1,0,0:0:0:0:
487,373,52248,6,0,B|499:304|499:304|486:263,1,111.999996582031,10|0,0:0|0:0,0:0:0:0:
453,181,52759,1,2,0:0:0:0:
453,181,52930,6,0,P|456:161|460:142,2,37.3333321940105,8|8|8,0:3|0:3|0:3,0:0:0:0:
379,211,53270,2,0,P|374:191|372:171,2,37.3333321940105,8|0|0,0:0|0:0|0:0,0:0:0:0:
308,261,53611,6,0,P|255:275|207:155,1,195.999994018555,4|0,0:1|0:0,0:0:0:0:
210,177,54293,2,0,L|98:189,1,111.999996582031,4|0,0:1|0:0,0:0:0:0:
19,240,54805,1,0,0:0:0:0:
19,240,54890,1,0,0:0:0:0:
19,240,54975,6,0,P|79:217|145:279,1,160,0|0,0:0|0:0,0:0:0:0:
115,375,55998,1,0,0:0:0:0:
216,350,56339,2,0,L|295:342,1,80,2|0,0:0|0:0,0:0:0:0:
371,367,56850,2,0,L|450:359,2,80,0|0|0,0:0|0:0|0:0,0:0:0:0:
296,341,57702,6,0,P|300:322|305:303,2,40,10|0|8,0:0|0:0|0:0,0:0:0:0:
215,285,58214,6,0,P|210:262|203:239,2,47.9999985351563,10|0|8,0:0|0:0|0:0,0:0:0:0:
301,218,58725,6,0,P|307:190|316:164,2,55.9999982910157,10|8|8,0:0|0:0|0:0,0:0:0:0:
210,135,59236,6,0,P|203:104|192:74,1,64,10|8,0:0|0:0,0:0:0:0:
139,12,59577,1,10,0:0:0:0:
94,83,59748,2,0,P|62:87|30:90,1,64,10|8,0:0|0:0,0:0:0:0:
6,192,60089,2,0,P|38:188|70:184,1,64,10|8,0:0|0:0,0:0:0:0:
194,259,60430,5,14,0:0:0:0:
194,259,60600,2,0,P|190:290|187:322,1,64,8|8,0:0|0:0,0:0:0:0:
102,373,60941,2,0,P|60:351|53:268,1,128,0|0,1:0|1:0,0:0:0:0:
69,184,61452,2,0,P|85:182|101:179,3,32,0|0|0|0,1:0|0:0|0:0|0:0,0:0:0:0:
117,186,61793,6,0,L|196:177,1,80,6|0,0:0|0:0,0:0:0:0:
238,255,62305,6,0,L|190:261,1,47.9999985351563,0|0,0:0|0:0,0:0:0:0:
180,264,62816,6,0,P|175:299|169:335,1,71.9999978027344,0|0,0:0|0:0,0:0:0:0:
179,347,63157,6,0,P|213:366|253:364,1,80,14|0,0:0|0:0,0:0:0:0:
340,320,63498,2,0,P|416:309|467:367,1,160,0|8,1:0|0:0,0:0:0:0:
467,367,64009,1,8,0:0:0:0:
508,202,64180,2,0,P|459:233|401:222,1,120,2|0,1:2|0:0,0:0:0:0:
386,210,64520,6,0,L|394:130,1,80,10|0,0:0|0:0,0:0:0:0:
256,15,64861,1,0,1:0:0:0:
326,73,65032,2,0,P|255:105|185:72,1,160,2|0,0:0|0:0,0:0:0:0:
42,119,65543,2,0,P|81:114|118:130,1,80,2|0,1:2|0:0,0:0:0:0:
127,147,65799,1,0,0:0:0:0:
127,147,65884,6,0,L|119:227,1,80,10|0,0:0|0:0,0:0:0:0:
46,321,66225,1,0,1:0:0:0:
46,321,66395,1,2,0:0:0:0:
126,368,66566,2,0,P|165:364|205:360,1,80,8|10,0:0|0:0,0:0:0:0:
407,321,66907,2,0,P|350:336|298:310,1,120,0|0,1:0|0:0,0:0:0:0:
284,295,67248,6,0,L|291:375,1,80,10|0,0:0|0:0,0:0:0:0:
359,252,67589,1,0,1:0:0:0:
359,252,67759,1,2,0:0:0:0:
434,209,67930,1,0,0:0:0:0:
434,209,68100,1,8,0:0:0:0:
509,167,68270,2,0,L|502:87,1,80,2|0,1:2|0:0,0:0:0:0:
417,27,68611,6,0,P|378:22|340:33,1,80,14|0,0:0|0:0,0:0:0:0:
256,77,68952,1,0,1:0:0:0:
171,33,69123,2,0,P|91:18|43:86,1,160,2|10,0:0|0:0,0:0:0:0:
17,165,69634,2,0,P|21:204|24:244,1,80,0|0,1:0|0:0,0:0:0:0:
35,261,69890,1,0,0:0:0:0:
35,261,69975,6,0,P|31:297|26:345,1,80,10|0,0:2|0:0,0:0:0:0:
141,369,70316,2,0,P|145:329|149:289,1,80,0|0,1:2|0:0,0:0:0:0:
108,202,70657,1,10,0:0:0:0:
108,202,70827,1,8,0:0:0:0:
159,284,70998,2,0,P|218:299|266:271,1,120,0|0,1:2|0:0,0:0:0:0:
278,256,71339,6,0,P|317:252|357:248,1,80,14|0,0:0|0:0,0:0:0:0:
403,337,71680,2,0,P|363:340|323:344,1,80,2|0,1:2|0:0,0:0:0:0:
483,378,72020,2,0,P|488:338|494:294,1,80,10|8,0:2|0:0,0:0:0:0:
512,172,72361,1,2,1:2:0:0:
434,219,72532,1,0,0:0:0:0:
434,219,72617,1,2,0:0:0:0:
434,219,72702,6,0,P|420:181|426:142,1,80,14|0,1:2|0:0,0:0:0:0:
456,45,73043,2,0,P|416:48|376:52,1,80,2|0,1:2|0:0,0:0:0:0:
376,52,73299,1,0,0:0:0:0:
376,52,73384,1,2,1:2:0:0:
293,125,73555,1,0,0:0:0:0:
293,125,73640,1,0,0:0:0:0:
293,125,73725,2,0,P|273:123|253:121,3,40,0|0|0|0,1:0|0:0|0:0|0:0,0:0:0:0:
235,112,74066,6,0,P|199:114|163:118,1,71.9999978027344,10|2,0:0|0:0,0:0:0:0:
87,71,74407,1,0,1:0:0:0:
87,71,74577,1,2,0:0:0:0:
25,138,74748,2,0,P|29:173|33:209,1,71.9999978027344,10|0,0:0|0:0,0:0:0:0:
110,254,75089,2,0,P|105:289|101:325,1,71.9999978027344,2|0,1:2|0:0,0:0:0:0:
182,370,75430,6,0,P|250:362|277:299,1,143.999995605469,10|0,0:0|1:0,0:0:0:0:
235,213,75941,1,2,0:0:0:0:
235,213,76111,2,0,P|231:177|226:141,1,71.9999978027344,8|2,0:0|0:0,0:0:0:0:
256,49,76452,2,0,P|290:38|325:41,1,71.9999978027344,2|2,1:2|0:0,0:0:0:0:
458,105,76793,6,0,P|422:109|387:113,1,71.9999978027344,10|0,0:0|0:0,0:0:0:0:
342,196,77134,2,0,P|397:253|461:232,1,143.999995605469,2|10,1:2|0:0,0:0:0:0:
453,239,77645,1,8,0:0:0:0:
499,338,77816,2,0,P|463:341|427:345,1,71.9999978027344,2|2,1:2|0:0,0:0:0:0:
416,360,78072,1,0,0:0:0:0:
416,360,78157,6,0,L|344:353,1,71.9999978027344,10|0,0:0|0:0,0:0:0:0:
256,318,78498,2,0,L|184:324,1,71.9999978027344,0|2,1:0|0:0,0:0:0:0:
100,370,78839,1,10,0:0:0:0:
100,370,78924,1,0,0:0:0:0:
100,370,79009,1,0,0:0:0:0:
28,304,79180,2,0,P|26:263|39:234,1,71.9999978027344,2|0,1:2|0:0,0:0:0:0:
34,217,79435,1,0,0:0:0:0:
34,217,79520,6,0,P|105:237|160:197,1,143.999995605469,14|0,0:0|1:0,0:0:0:0:
182,105,80032,1,0,0:0:0:0:
134,19,80202,2,0,L|62:25,1,71.9999978027344,0|0,0:0|0:0,0:0:0:0:
111,112,80543,1,0,1:0:0:0:
128,110,80628,1,0,0:0:0:0:
146,108,80713,1,0,0:0:0:0:
164,106,80798,1,0,0:0:0:0:
182,105,80884,6,0,P|241:140|306:116,1,143.999995605469,14|0,0:0|1:0,0:0:0:0:
360,39,81395,1,0,0:0:0:0:
426,101,81566,2,0,P|430:136|432:172,1,71.9999978027344,0|0,0:0|0:0,0:0:0:0:
493,251,81907,2,0,P|456:288|458:341,1,107.999996704102,0|0,1:0|0:0,0:0:0:0:
471,358,82248,6,0,P|399:350|327:345,1,143.999995605469,14|0,0:0|1:0,0:0:0:0:
256,284,82759,1,0,0:0:0:0:
184,345,82930,2,0,P|148:347|112:350,1,71.9999978027344,10|8,0:0|0:0,0:0:0:0:
14,368,83270,2,0,P|11:332|7:297,1,71.9999978027344,0|0,1:0|0:0,0:0:0:0:
4,275,83526,1,0,0:0:0:0:
4,274,83611,6,0,P|29:250|64:241,1,71.9999978027344,14|0,0:0|0:0,0:0:0:0:
164,162,83952,2,0,P|161:197|158:233,1,71.9999978027344,0|0,1:0|0:0,0:0:0:0:
165,251,84208,1,0,0:0:0:0:
165,251,84293,2,0,L|162:286,2,35.9999989013672,10|0|8,0:0|0:0|0:0,0:0:0:0:
267,192,84634,1,0,1:0:0:0:
256,287,84805,1,0,0:0:0:0:
256,287,84890,1,0,0:0:0:0:
256,287,84975,6,0,L|247:372,1,80,14|10,0:0|0:0,0:0:0:0:
357,333,85316,1,10,0:0:0:0:
357,333,85486,1,10,0:0:0:0:
466,299,85657,1,10,0:0:0:0:
369,213,85827,1,10,0:0:0:0:
369,213,85912,1,0,0:0:0:0:
369,213,85998,2,0,L|365:253,3,40,10|0|10|0,0:0|0:0|0:0|0:0,0:0:0:0:
357,333,86339,5,14,0:0:0:0:
377,132,87020,5,2,0:0:0:0:
377,132,87191,2,0,L|328:139,1,40,2|0,0:0|0:0,0:0:0:0:
267,192,87532,6,0,B|240:188|220:200|220:200|204:188|204:188|191:233|149:243|118:282|54:248|63:161|130:151|164:187,1,320,0|0,0:0|0:0,0:0:0:0:
