osu file format v14

[General]
AudioFilename: audio.mp3
AudioLeadIn: 0
PreviewTime: 5799
Countdown: 0
SampleSet: Soft
StackLeniency: 0.5
Mode: 0
LetterboxInBreaks: 0
WidescreenStoryboard: 1

[Editor]
DistanceSpacing: 1.5
BeatDivisor: 4
GridSize: 8
TimelineZoom: 2.2

[Metadata]
Title:SHIORI -TV size mix-
TitleUnicode:SHIORI -TV size mix-
Artist:ClariS
ArtistUnicode:ClariS
Creator:Monstrata
Version:Expert
Source:終物語
Tags:a_r_m_i_n armin chaoslitz haruto haruto_aizawa haruto- irohas mugiwarasekai snownino_ ultima fox bakemonogatari monogatari owarimonogatari ougi oshino kanbara araragi ending
BeatmapID:1403240
BeatmapSetID:661919

[Difficulty]
HPDrainRate:6
CircleSize:4
OverallDifficulty:8.5
ApproachRate:9
SliderMultiplier:2
SliderTickRate:1

[Events]
//Background and Video events
0,0,"775908.jpg",0,0
//Break Periods
//Storyboard Layer 0 (Background)
//Storyboard Layer 1 (Fail)
//Storyboard Layer 2 (Pass)
//Storyboard Layer 3 (Foreground)
//Storyboard Sound Samples

[TimingPoints]
430,340.909090909091,4,2,1,45,1,0
430,-166.666666666667,4,2,1,45,0,0
5884,-300,4,2,1,60,0,0
7248,-200,4,2,1,60,0,0
8611,-149.253731343284,4,2,1,60,0,0
9975,-120.004800192008,4,2,1,60,0,0
11339,-100,4,2,1,60,0,0
13043,-133.333333333333,4,2,1,60,0,0
14066,-100,4,2,1,80,0,0
16793,-100,4,2,1,70,0,0
53611,-133.333333333333,4,2,1,60,0,0
54293,-172.413793103448,4,2,1,60,0,0
54975,-243.390243903448,4,2,1,60,0,0
55486,-243.390243903448,4,2,1,5,0,0
55998,-277.777777777776,4,2,1,60,0,0
57702,-133.333333333333,4,2,1,60,0,0
58214,-100,4,2,1,60,0,0
58725,-83.3333333333333,4,2,1,60,0,0
59407,-66.6666666666667,4,2,1,60,0,0
59748,-111.111111111111,4,2,1,60,0,0
60089,-100,4,2,1,60,0,0
60600,-111.111111111111,4,2,1,60,0,0
60770,-125,4,2,1,60,0,0
60941,-142.857142857143,4,2,1,60,0,0
61111,-166.666666666667,4,2,1,60,0,0
61282,-100,4,2,1,60,0,0
61452,-250,4,2,1,60,0,0
61623,-333.3333333333,4,2,1,60,0,0
61793,-100,4,2,1,60,0,0
62305,-200,4,2,1,60,0,0
63157,-100,4,2,1,85,0,1
84975,-66.6666666666667,4,2,1,85,0,1
87020,-200,4,2,1,30,0,0
88895,-200,4,2,1,5,0,0

[Colours]
Combo1 : 255,0,121
Combo2 : 155,48,255
Combo3 : 3,168,158
Combo4 : 61,89,171

[HitObjects]
304,166,430,6,0,B|329:141|329:141|366:128|420:177,2,119.999996337891,2|0|2,0:0|0:0|0:0,0:0:0:0:
222,238,1282,2,0,P|250:245|279:239,2,59.9999981689454,0|0|0,0:0|0:0|0:0,0:0:0:0:
165,149,1793,6,0,B|192:195|192:195|192:224|164:270,1,119.999996337891,2|0,0:0|0:0,0:0:0:0:
107,150,2305,2,0,P|135:142|164:148,1,59.9999981689454,2|0,0:0|0:0,0:0:0:0:
227,66,2645,2,0,P|198:73|169:67,2,59.9999981689454,2|2|0,0:0|0:0|0:0,0:0:0:0:
352,98,3157,6,0,B|386:121|419:105|419:105|470:66,2,119.999996337891,2|0|2,0:0|0:0|0:0,0:0:0:0:
231,144,4009,2,0,P|259:136|288:142,2,59.9999981689454,0|0|0,0:0|0:0|0:0,0:0:0:0:
333,241,4520,6,0,P|332:182|289:143,1,119.999996337891,2|0,0:0|0:0,0:0:0:0:
333,241,5032,2,0,P|361:247|390:239,1,59.9999981689454,2|0,0:0|0:0,0:0:0:0:
408,106,5373,2,0,P|401:134|409:163,2,59.9999981689454,2|2|0,0:0|0:0|0:0,0:0:0:0:
499,288,5884,6,0,L|357:312,1,133.333333333333,4|0,0:1|0:0,0:0:0:0:
184,211,6907,2,0,L|144:217,1,33.3333333333333,2|0,0:0|0:0,0:0:0:0:
246,293,7248,6,0,L|270:184,1,100,6|0,0:0|0:0,0:0:0:0:
205,113,7759,2,0,L|183:210,1,100,0|8,0:0|0:3,0:0:0:0:
287,97,8270,2,0,L|348:86,1,50,10|0,0:0|0:0,0:0:0:0:
183,210,8611,6,0,B|36:177|36:177|-17:123,1,200.999990492249,4|0,0:1|0:0,0:0:0:0:
115,114,9293,2,0,L|179:128,1,66.9999968307497,0|2,0:0|0:0,0:0:0:0:
301,259,9634,2,0,L|365:244,1,66.9999968307497,2|0,0:0|0:0,0:0:0:0:
296,38,9975,6,0,B|279:52|279:52|247:192,1,166.660001809366,4|0,0:0|0:0,0:0:0:0:
285,334,10486,1,0,0:0:0:0:
329,176,10657,2,0,L|231:197,1,83.3300009046828,0|2,0:0|0:0,0:0:0:0:
397,307,10998,2,0,P|409:267|400:227,1,83.3300009046828,2|0,0:0|0:0,0:0:0:0:
162,300,11339,6,0,L|64:321,1,100,8|0,0:0|0:0,0:0:0:0:
371,115,11680,2,0,L|469:137,1,100,8|8,0:0|0:0,0:0:0:0:
94,225,12020,1,8,0:0:0:0:
274,94,12191,1,8,0:0:0:0:
397,307,12361,1,8,0:0:0:0:
342,20,12532,1,8,0:0:0:0:
290,380,12702,5,10,0:0:0:0:
234,148,13725,1,0,0:0:0:0:
234,148,13810,1,0,0:0:0:0:
234,148,13895,1,0,0:0:0:0:
234,148,13981,1,0,0:0:0:0:
234,148,14066,6,0,L|366:122,1,100,10|0,0:0|0:0,0:0:0:0:
215,50,14407,1,10,0:0:0:0:
253,246,14577,2,0,L|272:344,1,100,12|0,0:0|0:0,0:0:0:0:
332,128,14918,1,10,0:0:0:0:
135,166,15088,2,0,L|36:185,1,100,10|0,0:0|0:0,0:0:0:0:
215,50,15430,1,8,0:0:0:0:
377,166,15600,2,0,L|475:185,1,100,14|10,0:0|0:0,0:0:0:0:
297,50,15942,1,0,0:0:0:0:
174,296,16111,5,10,0:0:0:0:
377,166,16282,1,10,0:0:0:0:
215,50,16452,1,10,0:0:0:0:
215,50,16537,1,0,0:0:0:0:
215,50,16623,1,0,0:0:0:0:
215,50,16708,1,0,0:0:0:0:
215,50,16793,6,0,B|267:80|263:125|263:125|239:251,1,200,4|8,0:1|0:0,0:0:0:0:
174,296,17305,1,0,0:0:0:0:
150,202,17475,2,0,P|200:203|243:228,1,100,10|0,0:0|0:0,0:0:0:0:
335,254,17816,2,0,P|285:253|242:228,1,100,8|0,0:0|1:0,0:0:0:0:
425,187,18157,6,0,B|488:211|491:324|422:350,2,200,2|10|10,0:0|0:0|0:0,0:0:0:0:
345,126,19009,1,8,0:3:0:0:
262,182,19180,2,0,P|242:239|276:307,1,100,8|0,0:0|0:0,0:0:0:0:
426,187,19520,6,0,B|492:128|456:19|368:12,1,200,2|8,0:0|0:0,0:0:0:0:
301,38,20032,1,0,0:0:0:0:
273,135,20202,2,0,P|322:140|364:114,1,100,10|0,0:0|0:0,0:0:0:0:
301,38,20543,2,0,P|252:33|210:59,1,100,8|0,0:0|1:0,0:0:0:0:
191,156,20884,6,0,L|211:53,1,100,10|0,0:0|0:0,0:0:0:0:
92,175,21225,2,0,L|195:155,1,100,8|0,0:0|0:0,0:0:0:0:
216,333,21566,2,0,P|265:336|306:310,1,100,10|8,0:0|0:3,0:0:0:0:
398,289,21907,2,0,P|349:284|307:310,1,100,10|0,0:0|0:0,0:0:0:0:
236,185,22248,6,0,P|289:188|292:320,1,200,10|8,0:0|0:0,0:0:0:0:
180,254,22759,1,0,0:0:0:0:
213,101,22930,2,0,B|252:90|252:90|331:103,1,100,10|0,0:0|0:0,0:0:0:0:
333,183,23270,2,0,B|294:194|294:194|215:181,1,100,8|0,0:0|1:0,0:0:0:0:
398,115,23611,6,0,B|434:158|422:215|422:215|398:254|398:254|418:332,1,200,10|8,0:0|0:0,0:0:0:0:
505,268,24123,1,0,0:0:0:0:
512,171,24293,2,0,B|442:176|442:176|414:215,1,100,10|8,0:0|0:3,0:0:0:0:
310,143,24634,2,0,B|380:138|380:138|408:99,1,100,10|0,0:0|0:0,0:0:0:0:
228,65,24975,6,0,B|170:88|155:189|232:232,1,200,10|8,0:0|0:0,0:0:0:0:
310,143,25486,1,0,0:0:0:0:
228,65,25657,2,0,B|205:45|205:45|135:40,1,100,10|2,0:0|0:0,0:0:0:0:
75,152,25998,2,0,B|145:147|145:147|167:127,1,100,10|0,0:0|0:0,0:0:0:0:
292,15,26339,6,0,P|266:81|300:235,1,200,10|8,0:0|0:0,0:0:0:0:
353,104,26850,1,0,0:0:0:0:
175,74,27020,2,0,P|125:72|81:95,1,100,10|8,0:0|0:3,0:0:0:0:
81,288,27361,2,0,P|125:311|175:309,1,100,8|0,0:0|0:0,0:0:0:0:
289,140,27702,6,0,P|357:123|478:189,1,200,14|8,0:0|0:0,0:0:0:0:
477,277,28214,1,0,0:0:0:0:
398,357,28384,2,0,P|386:308|399:261,1,100,10|0,0:0|0:0,0:0:0:0:
494,358,28725,2,0,P|445:370|397:357,1,100,8|0,0:0|0:0,0:0:0:0:
280,243,29066,6,0,B|323:288|301:344|301:344|200:364,1,200,10|10,0:0|0:0,0:0:0:0:
185,264,29577,1,0,0:0:0:0:
270,149,29748,2,0,P|289:211|265:263,1,100,10|8,0:0|0:3,0:0:0:0:
175,170,30089,2,0,P|156:108|180:56,1,100,8|0,0:0|0:0,0:0:0:0:
247,329,30430,5,10,0:0:0:0:
247,329,30770,2,0,P|295:338|340:319,1,100,8|2,0:0|0:0,0:0:0:0:
142,257,31111,2,0,P|96:238|48:247,1,100,10|0,0:0|0:0,0:0:0:0:
279,242,31452,2,0,P|288:194|270:149,1,100,10|0,0:0|1:0,0:0:0:0:
242,16,31793,6,0,P|234:78|369:92,1,200,10|8,0:0|0:0,0:0:0:0:
342,16,32305,1,0,0:0:0:0:
144,58,32475,2,0,L|46:93,1,100,10|8,0:0|0:3,0:0:0:0:
344,117,32816,2,0,L|438:83,1,100,10|0,0:0|0:0,0:0:0:0:
247,93,33157,6,0,L|248:335,1,200,10|8,0:0|0:0,0:0:0:0:
250,384,33668,1,2,0:0:0:0:
153,326,33839,2,0,L|247:292,1,100,10|0,0:0|0:0,0:0:0:0:
341,326,34180,2,0,L|246:292,1,100,10|0,0:0|1:0,0:0:0:0:
419,160,34520,6,0,P|417:243|339:326,1,200,10|8,0:0|0:0,0:0:0:0:
325,225,35032,1,0,0:0:0:0:
419,159,35202,2,0,P|466:144|520:160,1,100,10|8,0:0|0:3,0:0:0:0:
340,325,35543,2,0,P|293:340|239:324,1,100,8|0,0:0|0:0,0:0:0:0:
258,84,35884,6,0,P|357:86|422:191,1,200,14|8,0:0|0:0,0:0:0:0:
161,244,36395,2,0,P|114:156|171:47,1,200,2|2,0:0|0:0,0:0:0:0:
340,325,36907,2,0,P|386:340|440:324,1,100,10|0,0:0|0:0,0:0:0:0:
258,84,37248,5,10,0:0:0:0:
253,283,37418,1,8,0:3:0:0:
427,187,37589,1,0,0:0:0:0:
425,87,37759,1,8,0:3:0:0:
341,31,37930,1,8,0:0:0:0:
258,84,38100,1,10,0:0:0:0:
429,287,38270,1,10,0:0:0:0:
341,31,38611,6,0,P|243:46|164:107,1,200,14|0,0:0|0:0,0:0:0:0:
192,204,39123,1,10,0:0:0:0:
260,115,39293,2,0,P|213:98|165:105,1,100,2|0,0:0|0:0,0:0:0:0:
96,193,39634,2,0,P|142:210|191:203,1,100,10|0,0:0|0:0,0:0:0:0:
57,71,39975,6,0,P|48:128|76:304,1,200,2|0,0:0|0:0,0:0:0:0:
116,353,40486,1,10,0:0:0:0:
215,368,40657,2,0,P|224:319|219:270,1,100,2|0,0:0|1:0,0:0:0:0:
216,171,40998,2,0,P|210:220|219:269,1,100,2|0,0:0|0:0,0:0:0:0:
416,275,41339,6,0,P|318:258|219:269,1,200,10|0,0:0|0:0,0:0:0:0:
147,338,41850,1,2,0:0:0:0:
242,367,42020,2,0,P|291:376|340:374,1,100,2|0,0:0|0:0,0:0:0:0:
346,275,42361,2,0,P|337:324|340:374,1,100,10|0,0:0|0:0,0:0:0:0:
480,338,42702,6,0,B|546:217|451:166|451:166|386:208|438:270,1,300,2|10,0:0|0:0,0:0:0:0:
227,352,43384,2,0,B|162:252|185:124|306:83,1,300,2|0,0:0|0:0,0:0:0:0:
416,331,44066,6,0,B|305:372|305:372|189:342,1,200,14|0,0:0|0:0,0:0:0:0:
122,318,44577,1,10,0:0:0:0:
218,256,44748,2,0,P|234:303|225:352,1,100,2|0,0:0|0:0,0:0:0:0:
122,318,45089,2,0,P|106:271|117:223,1,100,2|0,0:0|0:0,0:0:0:0:
161,44,45430,6,0,P|172:141|117:222,1,200,10|2,0:0|0:0,0:0:0:0:
85,124,45941,1,8,0:0:0:0:
330,110,46111,2,0,L|429:103,1,100,10|0,0:0|0:0,0:0:0:0:
217,231,46452,2,0,L|118:224,1,100,2|0,0:0|0:0,0:0:0:0:
239,79,46793,6,0,L|324:276,1,200,10|0,0:0|0:0,0:0:0:0:
345,107,47305,1,10,0:0:0:0:
239,79,47475,2,0,P|207:115|199:164,1,100,2|0,0:0|0:0,0:0:0:0:
159,251,47816,2,0,P|191:214|199:165,1,100,2|0,0:0|0:0,0:0:0:0:
0,165,48157,6,0,P|62:239|165:248,1,200,10|0,0:0|0:0,0:0:0:0:
252,211,48668,1,0,0:0:0:0:
169,154,48839,2,0,P|153:217|171:273,1,100,2|0,0:0|0:0,0:0:0:0:
400,132,49180,2,0,P|416:69|398:13,1,100,2|0,1:2|0:0,0:0:0:0:
316,76,49520,6,0,L|343:320,1,200,14|0,0:0|0:0,0:0:0:0:
400,132,50032,1,10,0:0:0:0:
230,96,50202,2,0,P|181:88|136:108,1,100,2|0,0:0|0:0,0:0:0:0:
150,202,50543,2,0,P|157:153|137:108,1,100,10|0,0:0|0:0,0:0:0:0:
412,38,50884,6,0,P|392:83|400:132,1,100,10|0,0:0|0:0,0:0:0:0:
493,144,51225,2,0,P|448:123|399:131,1,100,0|10,0:0|0:0,0:0:0:0:
150,202,51566,2,0,P|194:222|243:214,1,100,2|0,0:0|1:0,0:0:0:0:
86,145,51907,2,0,P|65:189|73:238,1,100,2|0,0:0|0:0,0:0:0:0:
320,357,52248,6,0,P|325:262|243:213,1,200,10|0,0:0|0:0,0:0:0:0:
165,276,52759,1,2,0:0:0:0:
177,375,52930,2,0,P|209:361|244:323,2,66.6666666666667,8|8|8,0:3|0:3|0:3,0:0:0:0:
129,368,53270,2,0,P|89:332|-2:351,1,133.333333333333,8|0,0:0|0:0,0:0:0:0:
117,205,53611,6,0,P|220:187|165:276,1,262.500010013581,4|0,0:1|0:0,0:0:0:0:
165,276,54293,6,0,P|265:283|334:208,1,203.000006195069,4|0,0:1|0:0,0:0:0:0:
332,213,54975,6,0,P|286:302|331:359,1,164.345125013299,0|0,0:0|0:0,0:0:0:0:
314,348,55998,5,0,0:0:0:0:
384,323,56339,2,0,P|438:318|487:340,1,108.000002636719,2|0,0:0|0:0,0:0:0:0:
447,242,57191,1,0,0:0:0:0:
406,142,57532,1,0,0:0:0:0:
447,42,57702,5,10,0:0:0:0:
339,57,57873,2,0,P|314:83|302:119,1,75.0000028610231,0|8,0:0|0:0,0:0:0:0:
65,42,58214,1,10,0:0:0:0:
172,57,58385,2,0,P|197:83|212:153,1,100,0|8,0:0|0:0,0:0:0:0:
73,306,58725,5,10,0:0:0:0:
93,130,58895,2,0,L|238:146,1,119.999996337891,8|8,0:0|0:0,0:0:0:0:
439,306,59236,1,10,0:0:0:0:
448,126,59407,2,0,L|299:143,1,150.000005722046,8|10,0:0|0:0,0:0:0:0:
73,306,59748,5,10,0:0:0:0:
338,234,59918,1,8,0:0:0:0:
256,55,60089,1,10,0:0:0:0:
174,234,60259,1,8,0:0:0:0:
439,78,60430,5,14,0:0:0:0:
214,143,60600,1,8,0:0:0:0:
439,306,60770,1,8,0:0:0:0:
256,55,60941,1,0,1:0:0:0:
73,306,61111,1,8,0:0:0:0:
304,336,61282,5,0,1:0:0:0:
313,296,61367,1,0,0:0:0:0:
295,260,61452,1,0,1:0:0:0:
257,245,61537,1,0,0:0:0:0:
218,258,61622,1,0,0:0:0:0:
198,294,61708,1,0,0:0:0:0:
206,336,61793,6,0,P|297:263|165:202,1,300,6|0,0:0|0:0,0:0:0:0:
179,191,63157,6,0,L|420:201,1,200,14|0,0:0|1:0,0:0:0:0:
427,115,63668,2,0,P|392:151|378:198,1,100,0|8,0:0|0:0,0:0:0:0:
410,293,64009,1,8,0:0:0:0:
478,202,64180,2,0,L|378:197,1,100,2|0,1:2|0:0,0:0:0:0:
240,282,64520,6,0,B|331:287|331:287|395:259|372:170,1,200,10|0,0:0|1:0,0:0:0:0:
322,66,65032,2,0,P|299:110|301:159,2,100,2|0|0,0:0|0:0|0:0,0:0:0:0:
421,82,65543,2,0,L|292:61,1,100,2|0,1:2|0:0,0:0:0:0:
505,0,65884,6,0,P|532:114|475:186,1,200,10|0,0:0|1:0,0:0:0:0:
336,242,66395,2,0,P|450:215|522:272,1,200,2|10,0:0|0:0,0:0:0:0:
336,242,66907,2,0,L|307:126,1,100,0|0,1:0|0:0,0:0:0:0:
424,64,67248,6,0,L|395:180,2,100,10|0|0,0:0|0:0|1:0,0:0:0:0:
246,211,67759,2,0,P|338:234|400:162,1,200,2|8,0:0|0:0,0:0:0:0:
221,114,68270,2,0,L|250:230,1,100,2|0,1:2|0:0,0:0:0:0:
279,37,68611,6,0,B|215:23|215:23|59:66,1,200,14|0,0:0|1:0,0:0:0:0:
190,288,69123,2,0,B|230:260|230:260|244:210,1,100,2|0,0:0|0:0,0:0:0:0:
144,199,69464,1,10,0:0:0:0:
108,345,69634,2,0,L|214:272,1,100,0|0,1:0|0:0,0:0:0:0:
337,221,69975,6,0,P|292:200|244:210,1,100,10|0,0:2|0:0,0:0:0:0:
337,221,70316,2,0,P|381:241|429:231,1,100,0|0,1:2|0:0,0:0:0:0:
348,129,70657,2,0,P|327:173|337:221,1,100,10|8,0:0|0:0,0:0:0:0:
327,314,70998,2,0,P|347:269|337:221,1,100,0|0,1:2|0:0,0:0:0:0:
315,33,71339,5,14,0:0:0:0:
248,108,71509,1,0,0:0:0:0:
429,230,71680,2,0,B|472:206|472:206|481:143,1,100,2|0,1:2|0:0,0:0:0:0:
83,154,72020,2,0,B|40:178|40:178|31:241,1,100,10|8,0:2|0:0,0:0:0:0:
319,286,72361,1,2,1:2:0:0:
206,25,72532,1,0,0:0:0:0:
127,338,72702,6,0,L|223:313,1,100,14|0,1:2|0:0,0:0:0:0:
385,45,73043,2,0,L|288:69,1,100,2|0,1:2|0:0,0:0:0:0:
306,359,73384,1,2,1:2:0:0:
441,208,73555,1,0,0:0:0:0:
406,186,73640,1,0,0:0:0:0:
365,191,73725,1,0,1:0:0:0:
337,220,73810,1,0,0:0:0:0:
332,260,73895,1,0,0:0:0:0:
354,295,73981,1,0,0:0:0:0:
393,308,74066,5,10,0:0:0:0:
441,208,74236,2,0,L|423:104,1,100,2|0,0:0|1:0,0:0:0:0:
334,63,74577,1,2,0:0:0:0:
210,166,74748,2,0,P|258:175|305:158,1,100,10|0,0:0|0:0,0:0:0:0:
154,81,75089,2,0,P|105:71|56:92,1,100,2|0,1:2|0:0,0:0:0:0:
91,261,75430,6,0,L|113:164,2,100,10|0|0,0:0|0:0|1:0,0:0:0:0:
222,359,75941,2,0,L|352:363,1,100,2|8,0:0|0:0,0:0:0:0:
190,264,76282,1,2,0:0:0:0:
115,355,76452,2,0,P|66:355|23:330,1,100,2|2,1:2|0:0,0:0:0:0:
264,172,76793,6,0,P|313:171|356:196,1,100,10|0,0:0|0:0,0:0:0:0:
381,288,77134,2,0,P|356:245|356:195,1,100,2|0,1:2|0:0,0:0:0:0:
462,45,77475,2,0,P|462:95|438:138,1,100,10|8,0:0|0:0,0:0:0:0:
266,54,77816,2,0,L|366:68,1,100,2|2,1:2|0:0,0:0:0:0:
118,181,78157,6,0,L|132:82,2,100,10|0|0,0:0|0:0|1:0,0:0:0:0:
245,329,78668,2,0,L|344:342,1,100,2|10,0:0|0:0,0:0:0:0:
256,192,79009,1,0,0:0:0:0:
103,320,79180,2,0,L|3:333,1,100,2|0,1:2|0:0,0:0:0:0:
221,96,79520,6,0,L|321:109,1,100,14|0,0:0|0:0,0:0:0:0:
208,195,79861,2,0,L|221:95,1,100,0|0,1:0|0:0,0:0:0:0:
420,121,80202,1,0,0:0:0:0:
307,208,80373,1,0,0:0:0:0:
331,8,80543,1,0,1:0:0:0:
368,1,80628,1,0,0:0:0:0:
405,6,80713,1,0,0:0:0:0:
438,23,80798,1,0,0:0:0:0:
465,50,80884,6,0,P|449:97|451:146,1,100,14|0,0:0|0:0,0:0:0:0:
494,325,81225,2,0,P|510:278|508:229,1,100,0|0,1:0|0:0,0:0:0:0:
300,109,81566,1,0,0:0:0:0:
394,285,81736,1,0,0:0:0:0:
465,50,81907,2,0,B|408:33|408:33|344:45,1,100,0|0,1:0|0:0,0:0:0:0:
47,50,82248,6,0,B|104:33|104:33|168:45,1,100,14|0,0:0|0:0,0:0:0:0:
256,256,82589,2,0,B|199:273|199:273|135:261,1,100,0|0,1:0|0:0,0:0:0:0:
256,72,82930,1,10,0:0:0:0:
320,328,83100,1,8,0:0:0:0:
449,128,83270,2,0,B|392:111|392:111|328:123,1,100,0|0,1:0|0:0,0:0:0:0:
226,334,83611,6,0,P|274:345|319:327,1,100,14|0,0:0|0:0,0:0:0:0:
286,50,83952,2,0,P|237:38|192:56,1,100,0|0,1:0|0:0,0:0:0:0:
398,287,84293,1,10,0:0:0:0:
364,9,84464,1,8,0:0:0:0:
226,334,84634,1,0,1:0:0:0:
458,131,84805,1,0,0:0:0:0:
458,131,84890,1,0,0:0:0:0:
458,131,84975,5,14,0:0:0:0:
192,56,85145,1,10,0:0:0:0:
398,287,85316,1,10,0:0:0:0:
266,0,85486,1,10,0:0:0:0:
133,348,85657,1,10,0:0:0:0:
365,180,85827,5,10,0:0:0:0:
311,149,85912,1,0,0:0:0:0:
251,160,85997,1,10,0:0:0:0:
211,206,86082,1,0,0:0:0:0:
210,268,86167,1,10,0:0:0:0:
248,316,86253,1,0,0:0:0:0:
308,328,86338,1,14,0:0:0:0:
207,296,87020,5,2,0:0:0:0:
256,226,87191,2,0,P|304:212|349:231,1,100,2|0,0:0|0:0,0:0:0:0:
393,160,87702,6,0,P|388:27|311:136,1,350,2|0,0:0|0:0,0:0:0:0:
