osu file format v14

[General]
AudioFilename: audio.mp3
AudioLeadIn: 0
PreviewTime: 62140
Countdown: 0
SampleSet: Soft
StackLeniency: 0.6
Mode: 0
LetterboxInBreaks: 0
WidescreenStoryboard: 0
SamplesMatchPlaybackRate: 1

[Editor]
DistanceSpacing: 2
BeatDivisor: 4
GridSize: 4
TimelineZoom: 1.56

[Metadata]
Title:SHIORI - TV size mix -
TitleUnicode:SHIORI - TV size mix -
Artist:ClariS
ArtistUnicode:ClariS
Creator:Stormiverse
Version:Story of the End
Source:終物語
Tags:kirylln mcen314 j_a_c_k owarimonogatari second season ed ending araragi koyomi senjougahara hitagi hachikuji mayoi oshino meme ougi shinobu hanekawa tsubasa gaen izuko shaft monogatari series anime tv size vampire crab snail monkey snake cat
BeatmapID:1388097
BeatmapSetID:654941

[Difficulty]
HPDrainRate:7
CircleSize:4.1
OverallDifficulty:8.5
ApproachRate:9.2
SliderMultiplier:1.37
SliderTickRate:1

[Events]
//Background and Video events
0,0,"StormOugi.jpg",0,0
//Break Periods
//Storyboard Layer 0 (Background)
//Storyboard Layer 1 (Fail)
//Storyboard Layer 2 (Pass)
//Storyboard Layer 3 (Foreground)
//Storyboard Sound Samples

[TimingPoints]
265,340.909090909091,4,2,1,40,1,0
5719,-90.9090909090909,4,2,1,40,0,0
7594,-90.9090909090909,4,2,2,40,0,0
9128,-111.111111111111,4,2,1,40,0,0
9725,-111.111111111111,4,2,2,5,0,0
9810,-111.111111111111,4,2,2,40,0,0
10236,-111.111111111111,4,2,5,40,0,0
10321,-99.9999999999999,4,2,5,40,0,0
11174,-90.9090909090909,4,2,5,40,0,0
11515,-90.9090909090909,4,2,1,40,0,0
11855,-90.9090909090909,4,2,1,50,0,0
12196,-90.9090909090909,4,2,1,60,0,0
12537,-90.9090909090909,4,2,1,80,0,0
12878,-111.111111111111,4,2,1,80,0,0
13560,-111.111111111111,4,2,1,30,0,0
13645,-111.111111111111,4,2,1,35,0,0
13730,-111.111111111111,4,2,1,40,0,0
13816,-111.111111111111,4,2,1,45,0,0
13901,-100,4,2,2,60,0,0
14412,-83.3333333333333,4,2,2,60,0,0
14924,-71.4285714285714,4,2,2,60,0,0
16628,-100,4,2,2,35,0,0
27537,-100,4,2,2,35,0,0
38446,-111.111111111111,4,2,2,40,0,0
42537,-117.647058823529,4,2,2,40,0,0
43134,-117.647058823529,4,2,2,5,0,0
43219,-117.647058823529,4,2,2,40,0,0
44583,-111.111111111111,4,2,2,40,0,0
52765,-111.111111111111,4,2,2,40,0,0
53446,-111.111111111111,4,2,2,40,0,0
54810,-200,4,2,1,30,0,0
56174,-200,4,2,1,40,0,0
57537,-90.9090909090909,4,3,1,40,0,0
57878,-90.9090909090909,4,3,1,45,0,0
58219,-90.9090909090909,4,3,1,50,0,0
58560,-90.9090909090909,4,3,1,55,0,0
58901,-90.9090909090909,4,3,1,60,0,0
59242,-90.9090909090909,4,3,1,65,0,0
60265,-71.4285714285714,4,2,2,70,0,0
60350,-71.4285714285714,4,2,2,5,0,0
60435,-71.4285714285714,4,2,2,70,0,0
60776,-71.4285714285714,4,2,2,100,0,0
60861,-71.4285714285714,4,2,2,5,0,0
60946,-71.4285714285714,4,2,2,70,0,0
61202,-71.4285714285714,4,2,2,5,0,0
61287,-71.4285714285714,4,2,1,70,0,0
61372,-71.4285714285714,4,2,1,5,0,0
61458,-71.4285714285714,4,2,1,70,0,0
61543,-71.4285714285714,4,2,1,5,0,0
61628,-100,4,2,2,40,0,0
62140,-125,4,2,2,40,0,0
62310,-83.3333333333333,4,2,2,5,0,0
62651,-83.3333333333333,4,2,2,40,0,0
62992,-66.6666666666667,4,2,9,75,0,1
63077,-66.6666666666667,4,2,2,70,0,1
72537,-58.8235294117647,4,2,2,70,0,1
72878,-71.4285714285714,4,2,2,70,0,1
73219,-90.9090909090909,4,2,2,70,0,1
75265,-66.6666666666667,4,2,2,70,0,1
79355,-76.9230769230769,4,2,2,70,0,1
80463,-76.9230769230769,4,2,0,70,0,1
80719,-71.4285714285714,4,2,2,70,0,1
82765,-66.6666666666667,4,2,2,70,0,1
84810,-76.9230769230769,4,3,1,70,0,1
85662,-71.4285714285714,4,3,1,70,0,1
85833,-66.6666666666667,4,3,1,70,0,1
86174,-100,4,2,2,75,0,0
86770,-100,4,2,2,75,0,0
86855,-100,4,2,1,40,0,0
88730,-100,4,2,1,5,0,0

[Colours]
Combo1 : 64,128,128
Combo2 : 255,255,50
Combo3 : 128,128,192
Combo4 : 128,128,64

[HitObjects]
208,76,94,5,0,0:0:0:0:
208,76,265,6,0,L|216:144,1,68.5,2|0,0:0|0:0,0:0:0:0:
88,228,605,2,0,L|96:160,1,68.5,0|0,0:0|0:0,0:0:0:0:
208,228,946,1,0,0:0:0:0:
208,228,1117,1,0,0:0:0:0:
148,304,1287,2,0,L|140:372,1,68.5,0|0,0:0|0:0,0:0:0:0:
328,228,1628,6,0,L|320:160,1,68.5,2|0,0:0|0:0,0:0:0:0:
268,304,1969,1,0,0:0:0:0:
268,304,2140,2,0,P|388:304|404:288,1,137,0|2,0:0|0:0,0:0:0:0:
448,76,2821,1,0,0:0:0:0:
448,76,2992,6,0,L|440:144,1,68.5,2|0,0:0|0:0,0:0:0:0:
328,228,3333,2,0,L|320:160,1,68.5,0|0,0:0|0:0,0:0:0:0:
448,228,3674,2,0,L|440:296,2,68.5,2|0|0,0:0|0:0|0:0,0:0:0:0:
388,152,4185,1,0,0:0:0:0:
268,304,4355,6,0,L|276:372,1,68.5,2|0,0:0|0:0,0:0:0:0:
328,228,4696,1,2,0:0:0:0:
328,228,4867,2,0,P|208:228|192:244,1,137,0|0,0:0|0:0,0:0:0:0:
320,144,5378,2,0,L|354:148,3,34.25,0|0|2|2,0:0|0:0|0:0|0:0,0:0:0:0:
388,152,5719,6,0,P|404:168|404:288,1,150.700004598999,4|0,0:0|0:0,0:0:0:0:
328,228,6230,1,0,0:0:0:0:
448,76,6401,2,0,L|464:212,1,75.3500022994996,0|0,0:0|0:0,0:0:0:0:
328,76,6742,2,0,L|344:-60,1,75.3500022994996,0|0,0:0|0:0,0:0:0:0:
388,152,7083,6,0,P|268:152|252:136,1,150.700004598999,4|0,0:0|0:0,0:0:0:0:
148,0,7594,2,0,L|284:16,1,75.3500022994996,8|0,0:0|0:0,0:0:0:0:
328,76,7935,1,8,0:3:0:0:
148,152,8105,2,0,L|12:168,1,75.3500022994996,4|0,0:3|0:0,0:0:0:0:
328,228,8446,5,4,0:0:0:0:
328,228,9128,2,0,B|328:260|320:296|320:296|323:276|333:258|345:245|360:236|379:232|399:233|418:238|435:255,1,215.77499341507,2|0,0:0|0:0,0:0:0:0:
388,304,9810,2,0,P|328:364|256:320,1,154.124995296478,4|0,0:0|0:3,0:0:0:0:
255,278,10321,2,0,L|187:270,1,68.5,8|0,0:3|0:0,0:0:0:0:
88,228,10662,1,8,0:3:0:0:
268,152,10833,2,0,L|336:144,1,68.5,4|0,0:3|0:0,0:0:0:0:
88,76,11174,5,4,0:1:0:0:
88,76,11515,1,8,0:3:0:0:
192,104,11685,1,8,0:3:0:0:
164,0,11855,1,8,0:3:0:0:
116,180,12026,1,8,0:3:0:0:
260,122,12196,1,8,0:3:0:0:
20,58,12367,1,8,0:3:0:0:
328,228,12537,5,2,0:0:0:0:
328,228,12878,2,0,P|296:180|228:164,1,123.299996237183,0|0,0:0|0:0,0:0:0:0:
244,252,13390,1,0,0:0:0:0:
307,106,13560,1,2,0:0:0:0:
312,76,13645,1,2,0:0:0:0:
307,46,13730,1,2,0:0:0:0:
292,20,13816,1,2,0:0:0:0:
268,0,13901,5,4,0:0:0:0:
88,76,14071,2,0,L|80:144,1,68.5,0|2,0:0|0:0,0:0:0:0:
288,40,14412,5,4,0:0:0:0:
148,152,14583,2,0,L|132:288,1,82.1999974914552,0|2,0:0|0:0,0:0:0:0:
308,80,14924,5,4,0:0:0:0:
208,228,15094,2,0,L|192:364,1,95.8999970733643,0|2,0:0|0:0,0:0:0:0:
328,120,15435,5,4,0:0:0:0:
268,304,15605,1,4,0:0:0:0:
457,264,15776,1,2,0:0:0:0:
190,252,15946,5,4,0:0:0:0:
324,380,16117,1,12,0:0:0:0:
368,200,16287,1,8,0:0:0:0:
396,185,16372,1,8,0:0:0:0:
428,179,16458,1,8,0:0:0:0:
460,185,16543,1,8,0:0:0:0:
488,200,16628,6,0,P|504:216|504:336,1,137,2|2,0:0|0:0,0:0:0:0:
360,284,17140,1,0,0:0:0:0:
360,284,17310,2,0,L|428:276,1,68.5,2|0,0:0|0:0,0:0:0:0:
284,224,17651,1,2,0:0:0:0:
368,352,17821,1,8,0:0:0:0:
352,216,17992,6,0,L|344:148,1,68.5,2|0,0:0|0:0,0:0:0:0:
292,292,18333,1,2,0:0:0:0:
292,292,18503,1,0,0:0:0:0:
216,232,18674,2,0,L|208:164,1,68.5,2|0,0:0|0:0,0:0:0:0:
156,308,19015,1,8,0:3:0:0:
292,292,19185,1,12,0:3:0:0:
80,248,19355,6,0,P|80:368|96:384,1,137,4|2,0:0|0:0,0:0:0:0:
156,308,19867,1,0,0:0:0:0:
140,172,20037,2,0,P|20:172|4:188,1,137,4|2,0:0|0:0,0:0:0:0:
80,248,20549,1,8,0:0:0:0:
216,232,20719,6,0,L|208:164,1,68.5,2|0,0:0|0:0,0:0:0:0:
156,308,21060,1,2,0:0:0:0:
156,308,21230,1,0,0:0:0:0:
140,172,21401,2,0,L|132:104,1,68.5,2|8,0:0|0:3,0:0:0:0:
80,248,21742,1,2,0:3:0:0:
216,232,21912,1,2,0:3:0:0:
20,324,22083,6,0,P|4:308|4:188,1,137,4|2,0:0|0:0,0:0:0:0:
148,240,22594,1,0,0:0:0:0:
148,240,22765,2,0,L|80:248,1,68.5,2|0,0:0|0:0,0:0:0:0:
208,164,23105,1,2,0:0:0:0:
156,308,23276,1,8,0:0:0:0:
140,172,23446,6,0,L|132:104,1,68.5,2|0,0:0|0:0,0:0:0:0:
216,232,23787,1,2,0:0:0:0:
216,232,23958,1,0,0:0:0:0:
276,156,24128,2,0,L|268:88,1,68.5,2|8,0:0|0:3,0:0:0:0:
352,216,24469,1,8,0:3:0:0:
216,232,24640,1,4,0:3:0:0:
412,140,24810,6,0,P|428:156|428:276,2,137,4|2|2,0:0|0:0|0:0,0:0:0:0:
268,88,25662,1,0,0:0:0:0:
352,216,25833,1,2,0:0:0:0:
199,225,26003,1,8,0:0:0:0:
336,80,26174,6,0,P|352:64|472:64,1,137,4|2,0:0|0:0,0:0:0:0:
412,140,26685,1,0,0:0:0:0:
260,20,26855,1,2,0:0:0:0:
276,156,27026,1,8,0:0:0:0:
396,4,27196,1,4,0:3:0:0:
368,192,27367,1,4,0:3:0:0:
360,204,27452,1,4,0:3:0:0:
352,216,27537,6,0,P|336:232|216:232,1,137,4|2,0:0|0:0,0:0:0:0:
412,140,28049,1,0,0:0:0:0:
412,140,28219,2,0,P|428:156|440:256,1,68.5,2|0,0:0|0:0,0:0:0:0:
276,156,28560,1,2,0:0:0:0:
360,284,28730,1,8,0:0:0:0:
336,80,28901,6,0,P|352:64|452:52,1,68.5,4|0,0:0|0:0,0:0:0:0:
276,156,29242,2,0,P|260:140|248:40,1,68.5,2|0,0:0|0:0,0:0:0:0:
352,216,29583,2,0,P|336:232|236:244,1,68.5,2|8,0:0|0:3,0:0:0:0:
148,240,29924,1,2,0:0:0:0:
148,240,30094,1,4,0:3:0:0:
344,148,30265,6,0,L|412:140,1,68.5,4|0,0:0|0:0,0:0:0:0:
268,88,30605,2,0,L|200:96,1,68.5,2|0,0:0|0:0,0:0:0:0:
216,232,30946,2,0,L|284:224,1,68.5,2|0,0:0|0:0,0:0:0:0:
140,172,31287,1,2,0:0:0:0:
156,308,31458,1,8,0:0:0:0:
64,112,31628,6,0,P|80:96|180:84,1,68.5,2|0,0:0|0:0,0:0:0:0:
126,268,31969,2,0,P|104:262|43:181,1,68.5,2|0,0:0|0:0,0:0:0:0:
230,136,32310,2,0,P|235:157|196:250,1,68.5,2|8,0:0|0:3,0:0:0:0:
124,36,32651,1,2,0:0:0:0:
320,148,32821,1,2,0:3:0:0:
332,148,32907,1,0,0:0:0:0:
344,148,32992,6,0,P|344:28|328:12,1,137,4|2,0:0|0:0,0:0:0:0:
284,224,33503,1,0,0:0:0:0:
284,224,33674,2,0,P|384:236|404:224,1,68.5,2|0,0:0|0:0,0:0:0:0:
268,88,34015,1,2,0:0:0:0:
412,140,34185,1,8,0:0:0:0:
208,164,34355,6,0,P|196:264|208:284,1,68.5,4|0,0:0|0:0,0:0:0:0:
360,284,34696,2,0,P|372:184|360:164,1,68.5,2|0,0:0|0:0,0:0:0:0:
224,300,35037,2,0,P|324:312|344:300,1,68.5,2|8,0:0|0:3,0:0:0:0:
344,148,35378,2,0,P|244:136|224:148,1,68.5,2|0,0:0|0:0,0:0:0:0:
72,180,35719,6,0,P|72:300|88:316,1,137,6|2,0:0|0:0,0:0:0:0:
216,248,36230,2,0,L|148:240,2,68.5,0|2|0,0:0|0:0|0:0,0:0:0:0:
352,264,36742,1,2,0:0:0:0:
270,374,36912,1,8,0:0:0:0:
298,138,37083,5,2,0:0:0:0:
279,295,37253,1,8,0:0:0:0:
424,232,37424,1,2,0:0:0:0:
334,222,37594,1,8,0:3:0:0:
464,176,37765,2,0,P|384:176|368:192,1,68.5,4|8,0:3|0:3,0:0:0:0:
384,288,38105,2,0,P|464:288|480:272,1,68.5,8|8,0:3|0:3,0:0:0:0:
268,304,38446,5,4,0:0:0:0:
268,304,38958,1,2,0:0:0:0:
388,304,39128,2,0,L|456:296,1,61.6499981185914,0|0,0:0|0:0,0:0:0:0:
328,228,39469,2,0,L|396:220,1,61.6499981185914,8|4,0:3|0:3,0:0:0:0:
268,304,39810,6,0,P|252:304|192:228,1,123.299996237183,4|0,0:0|0:0,0:0:0:0:
280,180,40321,1,2,0:0:0:0:
280,180,40492,2,0,P|280:196|220:256,1,61.6499981185914,0|8,0:0|0:0,0:0:0:0:
144,196,40833,2,0,P|144:180|204:120,1,61.6499981185914,8|0,0:3|0:0,0:0:0:0:
243,58,41174,5,6,0:0:0:0:
243,58,41515,2,0,P|243:74|303:134,1,61.6499981185914,0|2,0:0|0:0,0:0:0:0:
387,143,41855,2,0,P|373:135|291:156,1,61.6499981185914,0|0,0:0|0:0,0:0:0:0:
241,225,42196,2,0,P|254:217|276:135,1,61.6499981185914,8|4,0:3|0:3,0:0:0:0:
311,66,42537,6,0,B|267:28|267:28|115:36,1,203.787503886938,6|0,0:1|0:1,0:0:0:0:
72,84,43219,2,0,B|40:96|4:92|4:92|44:100|68:136|68:136|60:156|64:184|76:200,1,203.787503886938,2|0,0:1|0:0,0:0:0:0:
132,160,43901,2,0,B|175:141|217:160|217:160|260:180|302:160,1,174.675003331661,6|2,0:0|0:0,0:0:0:0:
280,20,44583,2,0,P|263:45|260:76,1,61.6499981185914,0|0,0:0|0:0,0:0:0:0:
368,152,44924,2,0,P|368:168|308:228,1,61.6499981185914,8|4,0:3|0:3,0:0:0:0:
272,280,45265,5,4,0:0:0:0:
272,280,45605,2,0,L|264:212,1,61.6499981185914,0|2,0:0|0:0,0:0:0:0:
368,152,45946,2,0,L|360:220,1,61.6499981185914,0|8,0:0|0:0,0:0:0:0:
272,128,46287,2,0,L|264:60,1,61.6499981185914,8|0,0:3|0:0,0:0:0:0:
121,35,46628,5,6,0:0:0:0:
121,35,46969,2,0,P|141:23|221:23,1,61.6499981185914,0|2,0:0|0:0,0:0:0:0:
85,125,47310,2,0,P|64:114|24:45,1,61.6499981185914,0|0,0:0|0:0,0:0:0:0:
181,111,47651,2,0,P|181:135|141:204,1,61.6499981185914,8|4,0:3|0:3,0:0:0:0:
68,260,47992,6,0,B|96:244|128:252|128:252|156:268|188:260,1,123.299996237183,6|0,0:1|0:0,0:0:0:0:
291,193,48503,1,0,0:0:0:0:
291,193,48674,2,0,P|299:179|277:97,1,61.6499981185914,6|0,0:1|0:0,0:0:0:0:
181,111,49015,2,0,P|173:124|194:206,1,61.6499981185914,8|0,0:0|0:0,0:0:0:0:
210,286,49355,5,6,0:0:0:0:
210,286,49867,1,2,0:0:0:0:
291,193,50037,2,0,L|359:201,1,61.6499981185914,0|0,0:0|0:0,0:0:0:0:
331,310,50378,2,0,L|263:318,1,61.6499981185914,8|4,0:3|0:3,0:0:0:0:
111,336,50719,5,4,0:0:0:0:
111,336,51060,2,0,L|103:268,1,61.6499981185914,0|2,0:0|0:0,0:0:0:0:
187,260,51401,2,0,L|179:192,1,61.6499981185914,0|8,0:0|0:3,0:0:0:0:
263,184,51742,1,4,0:3:0:0:
263,184,52083,2,0,P|255:162|192:111,1,61.6499981185914,6|0,0:0|0:0,0:0:0:0:
74,227,52424,2,0,P|81:248|144:299,1,61.6499981185914,0|0,0:0|0:0,0:0:0:0:
169,205,52765,6,8,L|177:137,2,41.0999987457276,8|8|8,0:0|0:0|0:0,0:0:0:0:
245,145,53105,2,8,L|237:77,2,41.0999987457276,8|8|8,0:3|0:3|0:3,0:0:0:0:
321,85,53446,5,6,0:1:0:0:
289,139,54128,1,2,0:1:0:0:
256,192,54810,2,0,B|205:206|218:167|161:166|161:166|213:144|187:112|239:106,1,205.5,2|0,0:0|0:0,0:0:0:0:
164,236,56174,2,0,B|140:272|140:272|168:256|196:256|196:256|220:268|268:268|296:248,1,205.5,2|0,0:0|0:0,0:0:0:0:
386,185,57367,1,0,0:0:0:0:
390,177,57452,1,0,0:0:0:0:
394,169,57537,5,8,0:0:0:0:
322,181,57708,1,8,0:0:0:0:
368,237,57878,1,8,0:0:0:0:
348,113,58049,5,8,0:0:0:0:
296,249,58219,1,8,0:0:0:0:
440,225,58390,1,8,0:0:0:0:
204,137,58560,5,8,0:0:0:0:
343,347,58730,1,8,0:0:0:0:
354,95,58901,1,8,0:0:0:0:
197,293,59071,1,8,0:0:0:0:
440,225,59242,1,8,0:0:0:0:
440,225,59327,1,0,0:0:0:0:
440,225,59412,5,8,0:0:0:0:
285,137,59583,1,8,0:0:0:0:
343,347,59753,1,8,0:0:0:0:
285,137,59924,1,8,0:0:0:0:
343,347,60094,1,8,0:0:0:0:
361,59,60265,6,0,L|353:-9,1,47.9499985366822,4|0,0:0|0:0,0:0:0:0:
419,269,60435,1,0,0:0:0:0:
285,137,60605,1,2,0:0:0:0:
238,319,60776,2,0,L|230:387,1,47.9499985366822,4|0,0:0|0:0,0:0:0:0:
390,164,60946,1,2,0:2:0:0:
104,187,61117,2,0,L|36:195,1,47.9499985366822,8|0,0:0|0:0,0:0:0:0:
285,137,61287,2,0,L|353:145,1,47.9499985366822,2|2,0:0|0:0,0:0:0:0:
75,82,61458,2,0,L|7:74,1,47.9499985366822,2|0,0:0|0:0,0:0:0:0:
361,59,61628,6,0,B|429:51|429:51|392:51|361:82|361:119,1,171.25,4|0,0:0|0:0,0:0:0:0:
429,119,62140,2,0,B|437:127|441:143|441:143|461:127|485:127|505:143|505:143|511:168|501:190|478:201,1,164.4,0|0,0:0|0:0,0:0:0:0:
164,268,62992,6,0,P|164:324|240:400,1,102.750003919602,4|0,0:0|0:0,0:0:0:0:
240,192,63333,1,8,0:0:0:0:
60,240,63503,1,0,0:0:0:0:
268,296,63674,2,0,P|316:268|344:164,1,102.750003919602,2|2,0:0|0:0,0:0:0:0:
164,268,64015,1,8,0:0:0:0:
212,88,64185,1,0,0:0:0:0:
212,88,64270,1,0,0:0:0:0:
212,88,64355,6,0,P|268:88|344:164,1,102.750003919602,2|2,0:0|0:0,0:0:0:0:
164,268,64696,1,8,0:0:0:0:
240,192,64867,2,0,P|268:240|240:344,1,102.750003919602,4|0,0:0|0:0,0:0:0:0:
164,268,65208,1,2,0:0:0:0:
316,116,65378,2,0,P|364:88|468:116,1,102.750003919602,8|0,0:0|0:0,0:0:0:0:
480,100,65634,1,0,0:0:0:0:
480,100,65719,5,4,0:0:0:0:
288,12,65890,1,0,0:0:0:0:
344,220,66060,1,8,0:0:0:0:
212,144,66230,1,0,0:0:0:0:
420,88,66401,1,2,0:0:0:0:
239,40,66571,1,2,0:0:0:0:
393,192,66742,1,8,0:0:0:0:
136,164,66912,1,0,0:0:0:0:
136,164,66997,1,0,0:0:0:0:
136,164,67083,6,0,P|136:220|212:296,1,102.750003919602,2|2,0:0|0:0,0:0:0:0:
316,116,67424,1,8,0:0:0:0:
240,192,67594,2,0,P|288:220|392:192,1,102.750003919602,0|2,0:0|0:0,0:0:0:0:
316,116,67935,1,2,0:0:0:0:
108,60,68105,2,0,P|59:88|31:191,1,102.750003919602,8|0,0:0|0:0,0:0:0:0:
12,194,68361,1,0,0:0:0:0:
12,194,68446,5,4,0:0:0:0:
212,144,68617,1,0,0:0:0:0:
155,342,68787,1,8,0:0:0:0:
98,112,68958,1,0,0:0:0:0:
242,260,69128,1,2,0:0:0:0:
42,310,69299,1,2,0:0:0:0:
212,144,69469,1,8,0:0:0:0:
192,372,69640,1,0,0:0:0:0:
192,372,69725,1,0,0:0:0:0:
192,372,69810,6,0,P|136:372|60:296,1,102.750003919602,6|2,0:0|0:0,0:0:0:0:
268,240,70151,1,8,0:0:0:0:
246,336,70321,1,0,0:0:0:0:
136,164,70492,2,0,P|191:163|267:240,1,102.750003919602,2|2,0:0|0:0,0:0:0:0:
60,296,70833,1,8,0:0:0:0:
79,199,71003,1,0,0:0:0:0:
312,379,71174,6,0,P|379:379|470:287,1,102.750003919602,6|2,0:0|0:0,0:0:0:0:
221,220,71515,1,8,0:0:0:0:
246,336,71685,1,0,0:0:0:0:
380,129,71855,2,0,P|314:127|222:220,1,102.750003919602,2|2,0:0|0:0,0:0:0:0:
471,288,72196,1,8,0:0:0:0:
447,171,72367,1,0,0:0:0:0:
312,379,72537,5,12,0:0:0:0:
380,129,72708,1,2,0:0:0:0:
221,287,72878,1,12,0:0:0:0:
364,164,73049,1,2,0:0:0:0:
203,194,73219,1,8,0:0:0:0:
355,206,73390,1,8,0:0:0:0:
355,206,73475,1,8,0:0:0:0:
355,206,73560,2,0,L|287:214,1,37.6750011497498,8|8,0:0|0:0,0:0:0:0:
221,287,73730,2,0,L|289:279,1,37.6750011497498,8|8,0:0|0:0,0:0:0:0:
448,248,73901,5,2,0:0:0:0:
346,35,74071,1,2,0:0:0:0:
303,267,74242,1,8,0:0:0:0:
474,104,74412,1,0,0:0:0:0:
240,136,74583,1,2,0:0:0:0:
341,3,74753,1,2,0:0:0:0:
373,237,74924,1,8,0:0:0:0:
474,104,75094,1,0,0:0:0:0:
212,240,75265,6,0,P|163:212|136:108,1,102.750003919602,2|2,0:0|0:0,0:0:0:0:
164,60,75605,1,8,0:0:0:0:
316,212,75776,2,0,P|315:267|239:343,1,102.750003919602,0|2,0:0|0:0,0:0:0:0:
240,136,76117,2,0,P|287:107|391:136,1,102.750003919602,2|8,0:0|0:0,0:0:0:0:
212,240,76458,1,0,0:0:0:0:
476,184,76628,5,2,0:0:0:0:
324,32,76799,1,2,0:0:0:0:
268,240,76969,1,8,0:0:0:0:
268,240,77140,1,0,0:0:0:0:
444,64,77310,1,2,0:0:0:0:
444,64,77480,1,2,0:0:0:0:
236,120,77651,1,8,0:0:0:0:
388,272,77821,1,0,0:0:0:0:
324,32,77992,5,2,0:1:0:0:
268,240,78162,1,2,0:0:0:0:
220,60,78333,1,2,0:1:0:0:
164,212,78503,2,0,P|164:268|240:344,1,102.750003919602,2|2,0:0|0:1,0:0:0:0:
372,268,78844,2,0,P|372:212|296:136,1,102.750003919602,2|2,0:0|0:1,0:0:0:0:
220,60,79185,1,2,0:0:0:0:
448,136,79355,6,0,B|467:158|467:158|463:234,1,89.0499959236147,4|0,0:0|0:0,0:0:0:0:
275,324,79696,2,0,B|256:302|256:302|260:226,1,89.0499959236147,8|0,0:0|0:0,0:0:0:0:
296,136,80037,1,2,0:0:0:0:
448,248,80208,1,2,0:0:0:0:
220,212,80378,1,10,0:0:0:0:
198,180,80463,1,0,0:0:0:0:
189,140,80549,1,0,0:0:0:0:
196,97,80634,1,0,0:0:0:0:
220,60,80719,6,0,B|242:41|242:41|318:45,1,89.0499959236147,4|0,0:0|0:0,0:0:0:0:
453,196,81060,2,0,B|431:215|431:215|355:211,1,89.0499959236147,8|0,0:0|0:0,0:0:0:0:
220,212,81401,1,2,0:0:0:0:
220,60,81571,1,2,0:0:0:0:
372,212,81742,1,8,0:0:0:0:
372,60,81912,1,0,0:0:0:0:
308,300,82083,5,4,0:0:0:0:
252,92,82253,1,0,0:0:0:0:
100,244,82424,1,8,0:0:0:0:
204,272,82594,1,0,0:0:0:0:
204,272,82765,6,0,L|220:408,1,102.750003919602,2|2,0:0|0:0,0:0:0:0:
100,244,83105,1,8,0:0:0:0:
247,215,83276,1,0,0:0:0:0:
247,215,83447,2,0,L|263:351,1,102.750003919602,2|2,0:0|0:0,0:0:0:0:
100,244,83787,1,8,0:0:0:0:
289,157,83958,1,2,0:0:0:0:
289,157,84129,2,0,L|305:293,1,102.750003919602,8|8,0:0|0:0,0:0:0:0:
100,244,84469,1,8,0:0:0:0:
332,100,84640,1,8,0:0:0:0:
332,100,84725,1,8,0:0:0:0:
332,100,84810,5,8,0:0:0:0:
180,284,84980,1,8,0:0:0:0:
264,60,85151,5,8,0:0:0:0:
248,324,85321,1,8,0:0:0:0:
176,68,85492,5,8,0:0:0:0:
336,316,85662,2,0,L|376:378,1,47.9499985366822,8|8,0:0|0:0,0:0:0:0:
104,132,85833,6,0,L|28:102,1,51.3750019598008,8|0,0:0|0:0,0:0:0:0:
408,252,86003,2,0,L|484:282,1,51.3750019598008,8|8,0:0|0:0,0:0:0:0:
80,236,86174,6,0,B|20:252|-28:316|-16:372|44:400|96:376|92:332,1,239.75,4|0,0:0|0:0,0:0:0:0:
104,328,86855,2,0,B|140:364|192:360|224:312|196:260|148:244,1,205.5,2|2,0:0|0:0,0:0:0:0:
256,192,87537,12,0,88730,0:0:0:0:
