osu file format v14

[General]
AudioFilename: audio.mp3
AudioLeadIn: 0
PreviewTime: 62140
Countdown: 0
SampleSet: Soft
StackLeniency: 0.7
Mode: 0
LetterboxInBreaks: 0
WidescreenStoryboard: 0

[Editor]
DistanceSpacing: 1
BeatDivisor: 1
GridSize: 4
TimelineZoom: 1.5

[Metadata]
Title:SHIORI - TV size mix -
TitleUnicode:SHIORI - TV size mix -
Artist:ClariS
ArtistUnicode:ClariS
Creator:Stormiverse
Version:Easy
Source:終物語
Tags:kirylln mcen314 j_a_c_k owarimonogatari second season ed ending araragi koyomi senjougahara hitagi hachikuji mayoi oshino meme ougi shinobu hanekawa tsubasa gaen izuko shaft monogatari series anime tv size vampire crab snail monkey snake cat
BeatmapID:1391451
BeatmapSetID:654941

[Difficulty]
HPDrainRate:2
CircleSize:3
OverallDifficulty:2
ApproachRate:4
SliderMultiplier:0.8
SliderTickRate:1

[Events]
//Background and Video events
0,0,"StormMayoi.jpg",0,0
//Break Periods
//Storyboard Layer 0 (Background)
//Storyboard Layer 1 (Fail)
//Storyboard Layer 2 (Pass)
//Storyboard Layer 3 (Foreground)
//Storyboard Sound Samples

[TimingPoints]
265,340.909090909091,4,2,1,40,1,0
5719,-100,4,2,1,40,0,0
7594,-100,4,2,2,40,0,0
9128,-100,4,2,1,40,0,0
9810,-100,4,2,2,40,0,0
10492,-100,4,2,5,40,0,0
11515,-100,4,2,1,40,0,0
11855,-100,4,2,1,50,0,0
12196,-100,4,2,1,60,0,0
12537,-100,4,2,1,80,0,0
13901,-100,4,2,2,60,0,0
16628,-100,4,2,2,35,0,0
38446,-100,4,2,2,40,0,0
54810,-100,4,2,1,30,0,0
56174,-100,4,2,1,40,0,0
57537,-100,4,3,1,40,0,0
57878,-100,4,3,1,45,0,0
58219,-100,4,3,1,50,0,0
58560,-100,4,3,1,55,0,0
58901,-100,4,3,1,60,0,0
59242,-100,4,3,1,65,0,0
60265,-100,4,2,2,70,0,0
60776,-100,4,2,2,100,0,0
60946,-100,4,2,2,70,0,0
61287,-100,4,2,1,70,0,0
61628,-100,4,2,2,40,0,0
62992,-100,4,2,9,75,0,1
63077,-100,4,2,2,70,0,1
84810,-100,4,3,1,70,0,1
86174,-100,4,2,2,75,0,0
86855,-100,4,2,1,40,0,0
88730,-100,4,2,1,5,0,0

[Colours]
Combo1 : 0,255,0
Combo2 : 80,80,255
Combo3 : 64,128,128
Combo4 : 0,128,0

[HitObjects]
208,124,265,6,0,B|140:56|24:64|24:64|64:112|56:176|56:176|96:192|104:236|104:236|144:236|172:272|172:272|196:240,1,520,2|2,0:0|0:0,0:0:0:0:
316,240,2992,2,0,B|340:272|340:272|368:236|408:236|408:236|416:192|456:176|456:176|448:112|488:64|488:64|372:56|304:124,1,520,2|2,0:0|0:0,0:0:0:0:
232,220,5719,2,0,P|220:228|40:220,1,160
136,92,7083,2,0,P|148:84|328:92,2,160
232,220,9128,2,0,P|310:228|384:198,2,160
288,70,11174,2,0,B|359:23|441:47|441:47|498:119|475:197,1,320
286,166,13901,6,0,B|256:192|256:192|161:187,1,120
256,192,14924,2,0,B|300:192|300:192|332:176|332:176|364:192|364:192|408:192,2,160,4|4|2,0:0|0:0|0:0,0:0:0:0:
56,344,17310,6,0,P|4:292|4:244,1,80,2|2,0:0|0:0,0:0:0:0:
80,268,17992,2,0,L|158:254,1,80,2|2,0:0|0:0,0:0:0:0:
210,315,18674,2,0,L|288:301,1,80,2|2,0:0|0:0,0:0:0:0:
316,226,19355,2,0,B|359:218|359:218|388:197|388:197|422:207|422:207|465:199,2,160,4|4|2,0:0|0:0|0:0,0:0:0:0:
241,199,21060,2,0,L|162:212,2,80,2|2|0,0:0|0:0|0:0,0:0:0:0:
302,147,22083,1,4,0:0:0:0:
460,180,22765,6,0,P|512:128|512:80,1,80,2|2,0:0|0:0,0:0:0:0:
436,104,23446,2,0,L|357:90,1,80,2|2,0:0|0:0,0:0:0:0:
306,151,24128,2,0,L|227:137,1,80,2|2,0:0|0:0,0:0:0:0:
200,62,24810,2,0,B|156:54|156:54|122:64|122:64|93:43|93:43|50:35,1,160,4|4,0:0|0:0,0:0:0:0:
10,105,25833,1,2,0:0:0:0:
83,138,26174,2,0,B|126:145|126:145|160:135|160:135|189:156|189:156|232:164,2,160,4|4|0,0:0|0:0|0:0,0:0:0:0:
433,21,28219,6,0,L|354:34,1,80,2|2,0:0|0:0,0:0:0:0:
277,48,28901,1,4,0:0:0:0:
199,61,29242,2,0,B|120:75|120:75|71:138,1,160,2|2,0:0|0:0,0:0:0:0:
28,206,30265,1,4,0:0:0:0:
266,241,31287,6,0,P|246:262|246:354,1,80,2|2,0:0|0:0,0:0:0:0:
312,308,31969,2,0,B|390:293|390:293|439:230,1,160,2|2,0:0|0:0,0:0:0:0:
483,163,32992,1,4,0:0:0:0:
383,39,33674,6,0,P|338:33|302:49,1,80,2|2,0:0|0:0,0:0:0:0:
352,113,34355,2,0,L|366:192,1,80,4|2,0:0|0:0,0:0:0:0:
446,194,35037,2,0,P|432:237|401:263,1,80,2|2,0:0|0:0,0:0:0:0:
345,310,35719,2,0,B|277:352|277:352|199:339,1,160,6|2,0:0|0:0,0:0:0:0:
122,314,36742,1,2,0:0:0:0:
182,261,37083,2,0,B|249:218|249:218|327:231,2,160,2|4|4,0:0|0:3|0:0,0:0:0:0:
280,135,39128,6,0,L|202:120,1,80,0|8,0:0|0:3,0:0:0:0:
124,103,39810,2,0,P|49:124|28:198,1,160,4|0,0:0|0:0,0:0:0:0:
106,181,40833,1,8,0:3:0:0:
89,259,41174,2,0,P|162:238|184:164,1,160,6|0,0:0|0:0,0:0:0:0:
203,87,42196,1,8,0:3:0:0:
281,73,42537,2,0,B|327:65|327:65|359:78|359:78|383:55|383:55|429:47,2,160,6|2|6,0:1|0:1|0:0,0:0:0:0:
298,231,44583,6,0,L|376:244,1,80,0|8,0:0|0:3,0:0:0:0:
456,254,45265,2,0,P|410:316|334:310,1,160,4|0,0:0|0:0,0:0:0:0:
256,298,46287,1,8,0:3:0:0:
176,310,46628,6,0,P|99:315|55:254,1,120,6|0,0:0|0:0,0:0:0:0:
87,180,47651,1,8,0:3:0:0:
135,244,47992,2,0,P|159:212|167:174,1,80,6|0,0:1|0:0,0:0:0:0:
121,106,48674,2,0,P|128:67|152:36,1,80,6|8,0:1|0:0,0:0:0:0:
200,100,49355,1,6,0:0:0:0:
280,238,50037,6,0,L|202:252,1,80,0|8,0:0|0:3,0:0:0:0:
124,270,50719,2,0,P|49:247|28:174,1,160,4|0,0:0|0:0,0:0:0:0:
106,192,51742,1,4,0:3:0:0:
89,113,52083,2,0,P|162:134|184:207,1,160,6|8,0:0|0:0,0:0:0:0:
203,286,53105,1,8,0:3:0:0:
281,300,53446,2,0,B|327:308|327:308|359:295|359:295|383:318|383:318|429:326,2,160,6|2|2,0:1|0:1|0:0,0:0:0:0:
78,53,56174,5,2,0:0:0:0:
256,192,57537,12,4,61628,0:0:0:0:
46,21,62992,6,0,B|55:66|55:66|41:97|41:97|65:122|65:122|73:168,1,160,4|2,0:0|0:0,0:0:0:0:
67,248,64015,1,8,0:0:0:0:
138,213,64355,2,0,B|153:175|153:175|139:96,2,120,2|4|8,0:0|0:0|0:0,0:0:0:0:
209,252,65719,6,0,B|255:261|255:261|286:247|286:247|311:271|311:271|356:279,1,160,4|2,0:0|0:0,0:0:0:0:
437,273,66742,1,8,0:0:0:0:
401,344,67082,2,0,B|363:359|363:359|285:345,2,120,2|0|8,0:0|0:0|0:0,0:0:0:0:
444,277,68446,6,0,B|452:231|452:231|438:199|438:199|462:175|462:175|470:129,1,160,4|2,0:0|0:0,0:0:0:0:
483,53,69469,1,8,0:0:0:0:
405,57,69810,2,0,L|390:135,1,80,6|8,0:0|0:0,0:0:0:0:
359,209,70492,2,0,B|371:240|371:240|363:286,1,80,2|8,0:0|0:0,0:0:0:0:
433,323,71174,5,6,0:0:0:0:
454,245,71515,1,8,0:0:0:0:
426,170,71855,2,0,P|398:142|359:131,1,80,2|8,0:0|0:0,0:0:0:0:
359,209,72537,2,0,L|280:223,1,80,12|12,0:0|0:0,0:0:0:0:
216,273,73219,2,0,L|138:259,1,80,8|8,0:0|0:0,0:0:0:0:
60,238,73901,5,2,0:0:0:0:
117,181,74242,2,0,L|195:167,2,80,8|2|8,0:0|0:0|0:0,0:0:0:0:
49,135,75265,2,0,B|80:107|80:107|158:94,1,120,2|0,0:0|0:0,0:0:0:0:
238,99,76117,1,2,0:0:0:0:
263,216,76628,5,2,0:0:0:0:
206,273,76969,2,0,L|128:287,2,80,8|2|8,0:0|0:0|0:0,0:0:0:0:
273,319,77992,2,0,B|243:347|243:347|165:360,1,120,2|2,0:1|0:0,0:0:0:0:
85,355,78844,1,2,0:0:0:0:
39,245,79355,6,0,P|29:206|37:168,1,80,4|8,0:0|0:0,0:0:0:0:
108,207,80037,2,0,P|118:168|110:129,1,80,2|10,0:0|0:0,0:0:0:0:
85,53,80719,2,0,L|163:67,1,80,4|8,0:0|0:0,0:0:0:0:
216,128,81401,2,0,L|295:113,1,80,2|8,0:0|0:0,0:0:0:0:
355,167,82083,1,4,0:0:0:0:
227,263,82765,6,0,P|188:272|150:264,1,80,2|8,0:0|0:0,0:0:0:0:
110,192,83446,2,0,P|121:153|146:124,1,80,2|8,0:0|0:0,0:0:0:0:
230,126,84128,2,0,P|257:155|270:192,1,80,8|8,0:0|0:0,0:0:0:0:
189,193,84810,2,0,B|192:252|250:289|303:265|303:265|357:241|415:279|418:337,1,320,8|4,0:0|0:0,0:0:0:0:
256,192,87367,12,0,88730,0:0:0:0:
