osu file format v14

[General]
AudioFilename: audio.mp3
AudioLeadIn: 0
PreviewTime: 62706
Countdown: 0
SampleSet: Soft
StackLeniency: 0.3
Mode: 0
LetterboxInBreaks: 0
WidescreenStoryboard: 0

[Editor]
DistanceSpacing: 1.46
BeatDivisor: 8
GridSize: 4
TimelineZoom: 1

[Metadata]
Title:SHIORI (TV-size)
TitleUnicode:SHIORI (TV-size)
Artist:ClariS
ArtistUnicode:ClariS
Creator:Juixe
Version:Extra
Source:終物語
Tags:ClariS SHIORI 終物語 ed owarimonogatari
BeatmapID:1892587
BeatmapSetID:906977

[Difficulty]
HPDrainRate:6.6
CircleSize:4.1
OverallDifficulty:8
ApproachRate:9.3
SliderMultiplier:1.32
SliderTickRate:1

[Events]
//Background and Video events
0,0,"thumb-1920-775906.jpg",0,0
//Break Periods
//Storyboard Layer 0 (Background)
//Storyboard Layer 1 (Fail)
//Storyboard Layer 2 (Pass)
//Storyboard Layer 3 (Foreground)
//Storyboard Sound Samples

[TimingPoints]
831.397306472484,340.909090909091,4,2,1,60,1,0
6285,-166.666666666667,4,2,1,75,0,0
7649,-142.857142857143,4,2,1,75,0,0
9013,-125,4,2,1,75,0,0
10376,-111.111111111111,4,2,1,75,0,0
11740,-100,4,2,1,75,0,0
13785,-166.666666666667,4,2,1,75,0,0
14467,-90.9090909090909,4,2,1,75,0,0
17195,-100,4,2,1,70,0,0
39013,-125,4,3,1,70,0,0
43104,-125,4,2,1,70,0,0
44467,-125,4,3,1,70,0,0
48558,-125,4,2,1,70,0,0
49922,-125,4,3,1,70,0,0
54013,-166.666666666667,4,2,1,60,0,0
54695,-200,4,2,1,60,0,0
58104,-200,4,2,1,65,0,0
60149,-200,4,2,1,60,0,0
62195,-83.3333333333333,4,2,1,65,0,0
63558,-76.9230769230769,4,2,1,65,0,0
71740,-71.4285714285714,4,2,1,65,0,0
73104,-76.9230769230769,4,2,1,65,0,0
87422,-125,4,2,1,65,0,0
88104,-83.3333333333333,4,2,1,65,0,0
101570,-83.3333333333333,4,2,1,5,0,0

[Colours]
Combo1 : 80,111,160
Combo2 : 255,128,128
Combo3 : 128,128,192
Combo4 : 115,118,140

[HitObjects]
36,291,831,6,0,P|75:269|123:264,1,66,4|0,0:0|0:0,0:0:0:0:
172,336,1172,2,0,P|132:357|84:362,1,66
161,276,1513,2,0,P|200:254|248:249,1,66
298,321,1854,2,0,P|258:342|210:347,1,66
287,261,2195,2,0,P|326:239|374:234,1,66
424,306,2535,1,0,0:0:0:0:
440,140,2706,2,0,P|460:207|420:284,1,132
270,151,3388,1,0,0:0:0:0:
370,126,3558,6,0,P|393:74|393:41,1,66,4|0,0:0|0:0,0:0:0:0:
296,87,3899,2,0,P|272:138|272:171,1,66
345,223,4240,2,0,P|368:171|368:138,1,66
270,184,4581,2,0,P|246:235|246:268,1,66
301,335,4922,2,0,P|233:326|161:355,1,132
66,378,5433,2,0,P|87:292|74:233,1,132
11,163,5945,1,0,0:0:0:0:
175,266,6115,1,0,0:0:0:0:
285,19,6285,6,0,L|152:34,1,118.799996374512,2|0,0:0|0:0,0:0:0:0:
106,86,6967,1,0,0:0:0:0:
333,148,7649,6,0,P|335:98|276:18,1,138.599995770264,2|0,0:0|0:0,0:0:0:0:
195,7,8331,1,8,0:0:0:0:
243,109,8501,1,0,0:0:0:0:
414,58,8672,1,0,0:0:0:0:
253,286,9013,6,0,P|265:224|340:145,1,158.4,2|0,0:0|0:0,0:0:0:0:
303,370,9695,2,0,P|249:383|160:318,1,158.4
76,240,10376,6,0,P|135:234|255:287,1,178.199994561768,2|0,0:0|0:0,0:0:0:0:
303,370,11058,1,8,0:0:0:0:
345,167,11229,1,0,0:0:0:0:
398,266,11399,1,0,0:0:0:0:
215,256,11740,6,0,P|227:200|220:170,1,66
164,99,12081,1,8,0:0:0:0:
114,305,12251,1,0,0:0:0:0:
264,47,12422,1,8,0:0:0:0:
343,238,12592,1,0,0:0:0:0:
225,188,12763,1,8,0:0:0:0:
287,347,12933,1,0,0:0:0:0:
371,90,13104,5,4,0:0:0:0:
467,127,13445,5,0,0:0:0:0:
509,212,13785,2,0,L|453:220,1,39.5999987915039
425,341,14126,5,0,0:0:0:0:
389,328,14211,1,0,0:0:0:0:
362,304,14296,1,0,0:0:0:0:
345,271,14381,1,0,0:0:0:0:
340,235,14467,6,0,P|353:177|342:132,1,72.6000022155762,8|0,0:0|0:0,0:0:0:0:
292,78,14808,1,0,0:0:0:0:
233,324,14979,6,0,P|206:285|163:267,1,72.6000022155762,8|0,0:0|0:0,0:0:0:0:
72,293,15320,1,0,0:0:0:0:
142,27,15490,6,0,P|147:77|160:113,1,72.6000022155762,8|0,0:0|0:0,0:0:0:0:
230,144,15831,1,0,0:0:0:0:
453,277,16001,6,0,P|400:282|363:304,1,72.6000022155762,8|0,0:0|0:0,0:0:0:0:
320,359,16342,1,0,0:0:0:0:
64,228,16513,5,8,0:0:0:0:
93,207,16598,1,8,0:0:0:0:
126,197,16683,1,0,0:0:0:0:
161,196,16768,1,0,0:0:0:0:
195,203,16853,5,0,0:0:0:0:
225,212,16939,1,0,0:0:0:0:
257,212,17024,1,0,0:0:0:0:
287,203,17109,1,0,0:0:0:0:
313,188,17195,6,0,P|348:150|353:120,1,66
417,79,17535,2,0,P|374:48|334:44,1,66
286,103,17876,2,0,L|207:116,1,66
195,203,18217,2,0,L|116:189,1,66,0|8,0:0|0:0,0:0:0:0:
12,193,18558,2,0,P|40:244|62:260,1,66,2|0,0:0|0:0,0:0:0:0:
146,350,18899,2,0,P|146:290|135:265,1,66
227,141,19240,2,0,P|196:191|192:217,1,66
290,291,19581,2,0,P|341:261|356:239,1,66
483,74,19922,6,0,P|492:126|476:218,1,132,2|0,0:0|0:0,0:0:0:0:
418,287,20433,1,0,0:0:0:0:
195,182,20604,2,0,P|261:152|336:155,1,132
397,201,21115,1,8,0:0:0:0:
292,324,21285,2,0,L|299:247,1,66
202,251,21626,2,0,L|194:174,1,66
252,67,21967,1,4,0:0:0:0:
300,172,22138,1,0,0:0:0:0:
159,19,22308,1,0,0:0:0:0:
118,153,22479,1,0,0:0:0:0:
422,119,22649,6,0,P|376:120|296:174,1,132,4|0,0:0|0:0,0:0:0:0:
332,261,23160,1,0,0:0:0:0:
392,360,23331,2,0,P|414:310|410:271,1,66
299,171,23672,2,0,P|343:183|375:181,1,66,0|8,0:0|0:0,0:0:0:0:
305,61,24013,2,0,P|252:64|225:79,1,66
206,265,24354,2,0,P|239:307|275:322,1,66
299,171,24695,2,0,P|252:174|223:188,1,66
106,295,25035,2,0,P|121:253|124:210,1,66
29,163,25376,6,0,P|70:134|180:131,1,132,2|0,0:0|0:0,0:0:0:0:
227,182,25888,2,0,P|295:184|367:147,1,132
428,76,26399,2,0,P|449:133|445:166,1,66,0|8,0:0|0:0,0:0:0:0:
404,356,26740,1,4,0:0:0:0:
444,235,26910,1,0,0:0:0:0:
319,376,27081,1,0,0:0:0:0:
288,272,27251,1,0,0:0:0:0:
207,359,27422,2,0,P|156:365|121:356,1,66,4|0,0:0|0:0,0:0:0:0:
80,255,27763,2,0,P|130:248|165:257,1,66
241,282,28104,6,0,P|231:228|259:142,1,132,4|0,0:0|0:0,0:0:0:0:
322,85,28615,1,0,0:0:0:0:
392,252,28785,2,0,P|352:250|316:234,1,66
401,149,29126,2,0,P|437:163|464:191,1,66,0|8,0:0|0:0,0:0:0:0:
407,314,29467,2,0,P|392:273|395:230,1,66,4|0,0:0|0:0,0:0:0:0:
296,219,29808,2,0,P|296:177|307:135,1,66
348,66,30149,1,0,0:0:0:0:
164,165,30320,1,0,0:0:0:0:
239,86,30490,1,0,0:0:0:0:
270,294,30660,1,0,0:0:0:0:
134,223,30831,6,0,P|161:175|165:150,1,66,4|0,0:0|0:0,0:0:0:0:
76,46,31172,2,0,P|117:80|151:87,1,66
242,58,31513,1,0,0:0:0:0:
281,184,31683,1,0,0:0:0:0:
378,23,31854,1,0,0:0:0:0:
361,132,32024,1,8,0:0:0:0:
463,106,32195,2,0,P|457:153|437:196,1,66,4|0,0:0|0:0,0:0:0:0:
370,294,32535,2,0,P|365:240|383:201,1,66
473,318,32876,2,0,P|449:354|403:375,1,66
272,299,33217,2,0,P|280:340|315:376,1,66
370,294,33558,6,0,P|344:244|247:215,1,132,4|0,0:0|0:0,0:0:0:0:
187,255,34070,1,0,0:0:0:0:
67,221,34240,2,0,P|117:196|139:168,1,66
126,68,34581,2,0,P|75:92|53:120,1,66,0|8,0:0|0:0,0:0:0:0:
168,321,34922,2,0,P|186:267|182:232,1,66,4|0,0:0|0:0,0:0:0:0:
187,152,35263,2,0,P|136:176|114:204,1,66
303,192,35604,2,0,P|288:144|263:115,1,66,0|8,0:0|0:0,0:0:0:0:
186,254,35945,2,0,P|216:291|251:308,1,66
392,190,36285,6,0,P|383:262|322:314,1,132,4|0,0:0|0:0,0:0:0:0:
179,250,36797,2,0,P|187:177|248:125,1,132
392,190,37308,2,0,P|350:170|323:138,1,66
296,34,37649,1,2,0:0:0:0:
241,336,37820,1,0,0:0:0:0:
193,165,37990,1,0,0:0:0:0:
322,262,38160,1,0,0:0:0:0:
394,99,38331,2,0,P|392:151|418:202,1,99
462,219,38672,2,0,P|460:281|419:325,1,99
388,335,39013,5,0,0:0:0:0:
201,250,39354,1,4,0:0:0:0:
110,286,39524,1,0,0:0:0:0:
183,163,39865,1,0,0:0:0:0:
263,117,40035,1,0,0:0:0:0:
329,180,40206,1,0,0:0:0:0:
289,261,40376,5,0,0:0:0:0:
82,106,40717,1,4,0:0:0:0:
44,216,40888,1,0,0:0:0:0:
183,163,41229,1,0,0:0:0:0:
207,243,41399,1,4,0:0:0:0:
275,296,41569,1,0,0:0:0:0:
363,303,41740,5,0,0:0:0:0:
386,106,42081,1,4,0:0:0:0:
436,224,42251,1,0,0:0:0:0:
282,40,42592,1,0,0:0:0:0:
259,148,42763,1,4,0:0:0:0:
155,23,42933,1,0,0:0:0:0:
125,294,43104,6,0,P|182:231|186:202,1,105.6,4|0,0:0|0:0,0:0:0:0:
144,123,43615,1,0,0:0:0:0:
289,345,43785,2,0,P|287:259|271:235,1,105.6,4|0,0:0|0:0,0:0:0:0:
187,206,44296,1,0,0:0:0:0:
373,259,44467,5,0,0:0:0:0:
320,110,44808,1,4,0:0:0:0:
410,146,44979,1,0,0:0:0:0:
363,359,45320,1,0,0:0:0:0:
275,238,45490,1,4,0:0:0:0:
462,222,45660,1,0,0:0:0:0:
236,366,45831,5,0,0:0:0:0:
150,180,46172,1,4,0:0:0:0:
108,275,46342,1,0,0:0:0:0:
166,76,46513,2,0,P|205:117|215:132,1,52.8
233,231,46854,2,0,P|268:186|274:167,1,52.8
273,40,47195,5,0,0:0:0:0:
445,133,47535,1,4,0:0:0:0:
418,227,47706,1,0,0:0:0:0:
268,296,48047,1,0,0:0:0:0:
338,361,48217,1,4,0:0:0:0:
433,345,48387,1,0,0:0:0:0:
418,227,48558,6,0,P|369:208|345:206,1,52.8,4|0,0:0|0:0,0:0:0:0:
339,130,48899,2,0,P|290:149|271:163,1,52.8
238,56,49240,2,0,P|206:96|196:118,1,52.8,4|0,0:0|0:0,0:0:0:0:
121,103,49581,2,0,P|124:154|134:176,1,52.8
191,227,49922,5,0,0:0:0:0:
340,305,50263,1,4,0:0:0:0:
249,347,50433,1,0,0:0:0:0:
66,247,50774,1,0,0:0:0:0:
108,347,50945,1,4,0:0:0:0:
158,136,51115,1,0,0:0:0:0:
287,217,51285,5,0,0:0:0:0:
291,17,51626,1,4,0:0:0:0:
244,115,51797,1,0,0:0:0:0:
389,64,52138,1,0,0:0:0:0:
431,138,52308,1,4,0:0:0:0:
430,222,52478,1,0,0:0:0:0:
335,350,52649,5,0,0:0:0:0:
119,288,52990,1,4,0:0:0:0:
232,259,53160,1,0,0:0:0:0:
285,151,53331,2,8,P|249:154|227:162,2,35.2
355,88,53672,2,0,P|321:75|297:73,2,35.2,8|0|0,0:0|0:0|0:0,0:0:0:0:
427,116,54013,6,0,P|441:153|433:238,1,118.799996374512,4|0,0:0|0:0,0:0:0:0:
286,313,54695,6,0,P|328:274|378:269,1,99,4|0,0:0|0:0,0:0:0:0:
431,326,55376,5,4,0:0:0:0:
271,314,56399,2,0,L|261:238,1,66,2|0,0:0|0:0,0:0:0:0:
290,158,57251,1,2,0:0:0:0:
360,278,57592,2,0,P|356:332|345:355,1,66,2|0,0:0|0:0,0:0:0:0:
261,244,58104,5,8,0:0:0:0:
363,91,58274,1,0,0:0:0:0:
456,288,58445,1,0,0:0:0:0:
144,169,58615,5,8,0:0:0:0:
194,326,58785,1,0,0:0:0:0:
254,35,58956,1,0,0:0:0:0:
38,222,59126,5,8,0:0:0:0:
265,155,59297,1,0,0:0:0:0:
88,329,59467,1,0,0:0:0:0:
161,69,59638,5,8,0:0:0:0:
289,267,59808,1,0,0:0:0:0:
73,143,59979,1,0,0:0:0:0:
368,102,60149,5,8,0:0:0:0:
205,256,60320,1,0,0:0:0:0:
284,26,60490,5,8,0:0:0:0:
408,232,60660,1,0,0:0:0:0:
146,178,60831,5,10,0:0:0:0:
443,146,61001,1,0,0:0:0:0:
210,344,61172,5,0,0:0:0:0:
256,79,61342,1,8,0:0:0:0:
436,317,61513,5,0,0:0:0:0:
123,280,61683,1,0,0:0:0:0:
349,70,61854,5,8,0:0:0:0:
349,70,61939,1,0,0:0:0:0:
349,70,62024,1,0,0:0:0:0:
349,70,62109,1,0,0:0:0:0:
349,70,62195,6,0,P|322:136|222:151,1,158.399995166016,4|0,0:0|0:0,0:0:0:0:
152,115,62706,1,2,0:0:0:0:
180,350,63217,1,0,0:0:0:0:
70,133,63558,6,0,P|97:50|187:35,1,171.599992144776,8|0,0:0|0:0,0:0:0:0:
182,171,64070,2,0,B|163:212|163:212|182:360,1,171.599992144776,2|0,0:0|0:0,0:0:0:0:
298,101,64581,1,0,0:0:0:0:
274,248,64751,1,0,0:0:0:0:
379,83,64922,2,0,P|293:100|264:85,1,85.7999960723879
224,38,65263,1,10,0:0:0:0:
260,337,65433,2,0,L|277:219,1,85.7999960723879
333,174,65774,1,0,0:0:0:0:
443,197,65945,2,0,P|441:250|415:208,1,128.699994108582,2|0,0:0|0:0,0:0:0:0:
483,126,66285,6,0,P|417:117|320:205,1,171.599992144776,8|0,0:0|0:0,0:0:0:0:
344,298,66797,2,0,P|254:288|194:210,1,171.599992144776
167,110,67308,1,0,0:0:0:0:
92,326,67479,1,0,0:0:0:0:
141,33,67649,2,0,P|199:35|239:72,1,85.7999960723879
251,135,67990,1,10,0:0:0:0:
80,237,68160,2,0,P|85:313|105:341,1,85.7999960723879
173,353,68501,1,0,0:0:0:0:
207,273,68672,2,0,P|279:276|335:310,1,128.699994108582,2|0,0:0|0:0,0:0:0:0:
413,358,69013,6,0,B|423:304|423:304|390:166,1,171.599992144776,8|0,0:0|0:0,0:0:0:0:
446,74,69524,2,0,P|367:48|262:47,1,171.599992144776,2|0,0:0|0:0,0:0:0:0:
207,273,70035,2,0,P|248:218|257:181,1,85.7999960723879
130,108,70376,2,0,P|157:165|197:195,1,85.7999960723879,4|0,0:0|0:0,0:0:0:0:
171,41,70717,2,0,P|109:29|59:50,1,85.7999960723879,0|8,0:0|0:0,0:0:0:0:
125,259,71058,2,0,P|175:276|223:265,1,85.7999960723879
309,142,71399,2,0,P|266:173|248:219,1,85.7999960723879
444,358,71740,6,0,P|410:292|377:271,1,92.3999971801759,4|0,0:0|0:0,0:0:0:0:
212,351,72081,2,0,P|278:317|299:284,1,92.3999971801759
205,102,72422,2,0,P|239:168|272:189,1,92.3999971801759
457,144,72763,2,0,P|391:178|370:211,1,92.3999971801759
261,301,73104,6,0,P|199:284|118:300,1,128.699994108582,4|0,0:0|0:0,0:0:0:0:
150,212,73445,2,0,P|91:229|38:293,1,128.699994108582,4|0,0:0|0:0,0:0:0:0:
76,348,73785,1,2,0:0:0:0:
160,122,73956,1,2,0:0:0:0:
160,122,74041,1,0,0:0:0:0:
160,122,74126,1,0,0:0:0:0:
341,168,74297,1,0,0:0:0:0:
261,42,74467,5,8,0:0:0:0:
400,286,74638,1,0,0:0:0:0:
449,131,74808,1,0,0:0:0:0:
295,291,74979,1,0,0:0:0:0:
481,250,75149,1,0,0:0:0:0:
225,235,75320,1,0,0:0:0:0:
391,369,75490,1,0,0:0:0:0:
349,155,75660,1,0,0:0:0:0:
106,381,75831,6,0,P|142:343|199:330,1,85.7999960723879,2|0,0:0|0:0,0:0:0:0:
252,372,76172,1,0,0:0:0:0:
197,76,76342,2,0,P|203:118|122:219,1,171.599992144776
47,194,76854,1,0,0:0:0:0:
172,331,77024,1,0,0:0:0:0:
133,114,77195,5,8,0:0:0:0:
97,290,77365,2,0,P|146:246|175:237,1,85.7999960723879
298,293,77706,1,0,0:0:0:0:
108,375,77876,1,0,0:0:0:0:
261,182,78047,1,0,0:0:0:0:
311,377,78217,1,0,0:0:0:0:
147,247,78388,1,0,0:0:0:0:
288,89,78558,6,0,L|385:108,1,85.7999960723879,2|0,0:0|0:0,0:0:0:0:
447,251,78899,1,0,0:0:0:0:
365,187,79070,2,0,P|359:137|387:87,1,85.7999960723879
447,251,79410,2,0,P|405:279|348:278,1,85.7999960723879
283,236,79751,1,0,0:0:0:0:
172,341,79922,6,0,L|182:239,1,85.7999960723879,4|0,0:0|0:0,0:0:0:0:
379,369,80263,2,0,L|369:267,1,85.7999960723879,8|0,0:0|0:0,0:0:0:0:
317,62,80604,1,8,0:0:0:0:
294,217,80774,1,0,0:0:0:0:
168,46,80945,1,2,0:0:0:0:
151,85,81030,1,0,0:0:0:0:
154,127,81115,1,0,0:0:0:0:
173,165,81200,1,0,0:0:0:0:
207,191,81285,6,0,P|266:142|294:133,1,85.7999960723879,4|0,0:0|0:0,0:0:0:0:
434,288,81626,2,0,P|378:253|361:226,1,85.7999960723879,8|0,0:0|0:0,0:0:0:0:
370,141,81967,1,0,0:0:0:0:
277,314,82138,1,0,0:0:0:0:
207,191,82308,1,8,0:0:0:0:
173,356,82479,1,0,0:0:0:0:
147,131,82649,6,0,P|127:198|133:239,1,85.7999960723879,4|0,0:0|0:0,0:0:0:0:
343,278,82990,2,0,P|296:241|258:235,1,85.7999960723879,8|0,0:0|0:0,0:0:0:0:
195,274,83331,1,0,0:0:0:0:
280,108,83501,1,0,0:0:0:0:
313,347,83672,1,8,0:0:0:0:
127,212,83842,1,0,0:0:0:0:
329,47,84013,6,0,P|366:109|357:143,1,85.7999960723879,4|0,0:0|0:0,0:0:0:0:
246,301,84354,2,0,P|288:273|358:272,1,85.7999960723879,8|0,0:0|0:0,0:0:0:0:
410,303,84695,1,0,0:0:0:0:
302,154,84865,1,0,0:0:0:0:
196,364,85035,1,8,0:0:0:0:
205,225,85206,1,0,0:0:0:0:
93,337,85376,5,8,0:0:0:0:
364,225,85547,1,0,0:0:0:0:
114,134,85717,5,0,0:0:0:0:
288,308,85888,1,8,0:0:0:0:
267,76,86058,5,0,0:0:0:0:
105,245,86229,1,0,0:0:0:0:
380,142,86399,5,8,0:0:0:0:
196,352,86570,1,0,0:0:0:0:
161,34,86740,5,2,0:0:0:0:
161,34,87422,5,0,0:0:0:0:
161,34,87592,2,0,P|207:33|259:71,1,105.6
326,29,88104,6,0,P|334:87|258:167,1,158.399995166016,2|8,0:0|0:0,0:0:0:0:
189,115,88615,2,0,B|167:161|167:161|192:284,1,158.399995166016
253,326,89126,1,0,0:0:0:0:
275,161,89297,1,0,0:0:0:0:
112,280,89467,2,0,P|208:249|211:246,1,79.1999975830079,4|0,0:0|0:0,0:0:0:0:
228,87,89808,2,0,P|189:139|187:181,1,79.1999975830079
330,298,90149,2,0,P|289:255|275:155,1,158.399995166016,0|8,0:0|0:0,0:0:0:0:
327,96,90660,1,0,0:0:0:0:
408,253,90831,6,0,P|409:291|401:347,1,79.1999975830079,2|0,0:0|0:0,0:0:0:0:
274,160,91172,2,0,P|270:197|281:254,1,79.1999975830079,8|0,0:0|0:0,0:0:0:0:
330,298,91513,1,0,0:0:0:0:
156,244,91683,1,0,0:0:0:0:
243,348,91854,1,8,0:0:0:0:
179,122,92024,1,0,0:0:0:0:
96,290,92195,2,0,P|153:249|160:221,1,79.1999975830079,4|0,0:0|0:0,0:0:0:0:
138,58,92535,2,0,P|159:108|205:129,1,79.1999975830079,8|0,0:0|0:0,0:0:0:0:
230,208,92876,2,0,B|291:193|326:139|326:139|358:83|425:66,1,237.599992749024,4|0,0:0|0:0,0:0:0:0:
425,161,93558,6,0,B|436:213|436:213|406:328,1,158.399995166016,2|8,0:0|0:0,0:0:0:0:
234,321,94070,2,0,P|268:301|338:295,1,79.1999975830079
409,314,94410,1,0,0:0:0:0:
254,165,94581,1,0,0:0:0:0:
145,340,94751,1,0,0:0:0:0:
145,340,94837,1,0,0:0:0:0:
145,340,94922,2,0,P|142:285|158:235,1,79.1999975830079,2|0,0:0|0:0,0:0:0:0:
329,144,95263,2,0,P|289:148|253:164,1,79.1999975830079,8|0,0:0|0:0,0:0:0:0:
226,275,95604,1,0,0:0:0:0:
298,67,95774,1,0,0:0:0:0:
116,128,95945,1,8,0:0:0:0:
250,345,96115,5,0,0:0:0:0:
250,345,96200,1,0,0:0:0:0:
250,345,96285,2,0,P|234:282|211:265,1,79.1999975830079,4|0,0:0|0:0,0:0:0:0:
141,257,96626,1,8,0:0:0:0:
428,164,96797,2,0,P|380:178|334:172,1,79.1999975830079,4|0,0:0|0:0,0:0:0:0:
295,128,97138,1,8,0:0:0:0:
142,336,97308,2,0,P|138:282|147:234,1,79.1999975830079,4|0,0:0|0:0,0:0:0:0:
397,248,97649,5,8,0:0:0:0:
67,164,97820,1,0,0:0:0:0:
357,24,97990,5,8,0:0:0:0:
289,329,98160,1,0,0:0:0:0:
132,70,98331,1,8,0:0:0:0:
373,185,98501,5,8,0:0:0:0:
333,189,98586,1,0,0:0:0:0:
295,199,98671,1,0,0:0:0:0:
262,220,98756,1,0,0:0:0:0:
230,243,98841,1,0,0:0:0:0:
193,258,98927,1,0,0:0:0:0:
154,264,99012,5,2,0:0:0:0:
256,192,99098,12,0,101740,0:0:0:0:
