osu file format v14

[General]
AudioFilename: audio.mp3
AudioLeadIn: 0
PreviewTime: 73981
Countdown: 1
SampleSet: Soft
StackLeniency: 0.3
Mode: 0
LetterboxInBreaks: 0
WidescreenStoryboard: 1

[Editor]
DistanceSpacing: 1.6
BeatDivisor: 4
GridSize: 32
TimelineZoom: 1

[Metadata]
Title:SHIORI (TV Size)
TitleUnicode:SHIORI (TV Size)
Artist:ClariS
ArtistUnicode:ClariS
Creator:yeahbennou
Version:Hard
Source:終物語
Tags:ending ed owarimonogatari anime jpop j-pop j pop japanese Nelliel WhozChaos Taeyang taeyang95 Grindle
BeatmapID:2008355
BeatmapSetID:950015

[Difficulty]
HPDrainRate:5
CircleSize:3.5
OverallDifficulty:6
ApproachRate:7
SliderMultiplier:1.5
SliderTickRate:1

[Events]
//Background and Video events
0,0,"Owarimonogatari.2nd.Season.full.2166909.png",0,0
//Break Periods
//Storyboard Layer 0 (Background)
//Storyboard Layer 1 (Fail)
//Storyboard Layer 2 (Pass)
//Storyboard Layer 3 (Foreground)
//Storyboard Sound Samples

[TimingPoints]
430,340.909090909091,4,2,1,60,1,0
430,-133.333333333333,4,2,1,60,0,0
5884,-166.666666666667,4,2,1,70,0,0
8611,-125,4,2,1,70,0,0
11339,-100,4,2,1,70,0,0
14066,-100,4,2,1,80,0,0
16793,-100,4,2,1,70,0,0
16795,-125,4,2,1,70,0,0
35884,-100,4,2,1,70,0,0
38611,-125,4,2,1,75,0,0
54975,-125,4,2,1,60,0,0
56339,-166.666666666667,4,2,1,60,0,0
57702,-100,4,2,1,65,0,0
58725,-100,4,2,1,70,0,0
59748,-100,4,2,1,75,0,0
60430,-100,4,2,1,80,0,0
63157,-90.9090909090909,4,2,1,85,0,1
87020,-90.9090909090909,4,2,1,60,0,0
88895,-90.9090909090909,4,2,1,5,0,0

[Colours]
Combo1 : 207,175,114
Combo2 : 71,198,249
Combo3 : 160,51,202
Combo4 : 232,46,51

[HitObjects]
108,168,430,6,0,L|101:98,2,56.2500021457673,2|0|0,0:1|0:0|0:0,0:0:0:0:
162,233,941,1,0,0:0:0:0:
162,233,1111,2,0,L|156:288,2,56.2500021457673,2|0|0,0:0|0:0|0:0,0:0:0:0:
233,187,1623,1,0,0:0:0:0:
233,187,1793,6,0,P|285:208|353:196,1,112.500004291535,2|2,0:1|0:0,0:0:0:0:
384,129,2305,2,0,B|382:93|368:78|368:78|378:58|372:3,1,112.500004291535,2|2,0:0|0:0,0:0:0:0:
291,41,2816,1,0,0:0:0:0:
176,188,3157,6,0,L|238:186,2,56.2500021457673,2|0|0,0:1|0:0|0:0,0:0:0:0:
115,128,3668,1,0,0:0:0:0:
115,128,3839,2,0,L|53:126,2,56.2500021457673,2|0|0,0:0|0:0|0:0,0:0:0:0:
181,75,4350,1,0,0:0:0:0:
181,75,4520,6,0,B|233:57|233:57|308:72,1,112.500004291535,2|2,0:1|0:0,0:0:0:0:
339,137,5032,2,0,L|346:258,1,112.500004291535,2|2,0:0|0:0,0:0:0:0:
350,333,5543,1,0,0:0:0:0:
268,355,5714,1,0,0:0:0:0:
188,328,5884,6,0,L|185:147,1,179.999994506836,6|2,1:2|0:0,0:0:0:0:
401,82,6907,1,0,0:0:0:0:
401,82,7248,2,0,P|336:66|258:82,2,134.999995880127,6|8|0,1:2|0:0|3:0,0:0:0:0:
484,287,8611,6,0,B|498:162|498:162|474:37,1,240,6|2,1:2|0:0,0:0:0:0:
208,226,9634,1,0,0:0:0:0:
208,226,9975,2,0,L|408:209,2,180,6|8|0,1:2|0:3|3:0,0:0:0:0:
133,59,11339,6,0,P|192:42|228:48,1,75,6|0,1:2|0:0,0:0:0:0:
295,109,11680,2,0,P|329:123|366:125,1,75,8|8,0:0|0:0,0:0:0:0:
471,114,12020,2,0,L|475:205,1,75,8|8,0:0|0:0,0:0:0:0:
449,298,12361,1,8,0:0:0:0:
347,346,12532,1,8,0:0:0:0:
237,322,12702,1,8,0:0:0:0:
163,82,13725,2,0,L|162:124,3,37.5,2|2|2|2,0:0|0:0|0:0|0:0,0:0:0:0:
161,172,14066,6,0,P|219:186|264:172,1,75,14|0,0:0|1:0,0:0:0:0:
318,109,14407,1,0,1:0:0:0:
318,109,14577,2,0,L|321:188,1,75,14|0,0:0|1:0,0:0:0:0:
415,244,14918,1,0,1:0:0:0:
415,244,15089,2,0,L|418:318,1,75,14|0,0:0|1:0,0:0:0:0:
307,341,15430,1,0,1:0:0:0:
307,341,15600,6,0,P|252:351|218:345,2,75,14|8|0,0:0|0:0|1:0,0:0:0:0:
297,228,16111,1,8,0:0:0:0:
216,149,16282,1,8,0:3:0:0:
103,150,16452,2,0,L|104:187,3,37.5,8|8|8|8,0:0|0:0|0:0|0:0,0:0:0:0:
88,242,16793,6,0,B|171:233|144:278|232:271,1,150,4|0,1:2|1:0,0:0:0:0:
306,219,17305,1,0,0:0:0:0:
306,219,17475,2,0,P|361:207|381:207,1,60,2|0,1:2|0:0,0:0:0:0:
450,233,17816,1,2,1:2:0:0:
480,148,17986,1,8,0:0:0:0:
438,67,18157,6,0,B|407:42|407:42|320:36,1,120,2|2,1:2|1:2,0:0:0:0:
255,91,18668,1,0,0:0:0:0:
255,91,18839,2,0,L|181:93,1,60,2|0,1:2|3:0,0:0:0:0:
110,62,19180,2,0,L|36:64,1,60,2|0,1:2|3:0,0:0:0:0:
21,148,19520,6,0,B|21:190|12:214|12:214|26:237|26:284,1,120,2|0,1:2|1:0,0:0:0:0:
94,323,20032,1,0,0:0:0:0:
161,263,20202,2,0,B|160:235|174:212|174:212|165:188|165:146,1,120,2|0,1:2|1:0,0:0:0:0:
233,85,20714,1,8,0:0:0:0:
233,85,20884,6,0,P|265:80|299:85,1,60,2|0,1:2|0:0,0:0:0:0:
348,153,21225,2,0,P|380:158|414:153,1,60,2|0,1:2|0:0,0:0:0:0:
476,96,21566,1,2,1:0:0:0:
476,96,21736,1,0,3:0:0:0:
503,182,21907,2,0,L|501:262,1,60,2|0,1:2|3:0,0:0:0:0:
449,315,22248,6,0,P|386:302|323:316,1,120,2|0,1:0|1:0,0:0:0:0:
250,351,22759,1,0,0:0:0:0:
250,351,22930,2,0,P|197:362|165:354,1,60,2|0,1:2|0:0,0:0:0:0:
113,318,23270,1,2,1:2:0:0:
83,232,23441,1,8,0:0:0:0:
93,142,23611,6,0,B|101:83|101:83|80:15,1,120,2|2,1:2|1:2,0:0:0:0:
173,37,24123,1,0,0:0:0:0:
173,37,24293,2,0,L|244:36,1,60,2|0,1:2|3:0,0:0:0:0:
307,87,24634,2,0,L|378:86,1,60,2|0,1:2|3:0,0:0:0:0:
421,158,24975,6,0,B|433:195|433:195|424:290,1,120,2|0,1:2|1:0,0:0:0:0:
349,323,25486,2,0,B|337:286|337:286|346:191,1,120,0|2,0:0|0:0,0:0:0:0:
262,167,25998,1,2,1:2:0:0:
168,163,26168,1,10,0:0:0:0:
94,215,26339,6,0,L|101:354,2,120,2|0|2,1:0|1:0|1:0,0:0:0:0:
52,134,27191,1,8,0:0:0:0:
113,69,27361,2,0,L|192:65,1,60,8|0,0:3|3:0,0:0:0:0:
253,25,27702,6,0,B|268:68|254:105|254:105|254:164,1,120,6|0,1:2|1:0,0:0:0:0:
216,225,28214,1,0,0:0:0:0:
216,225,28384,2,0,L|292:222,1,60,2|0,1:2|0:0,0:0:0:0:
354,267,28725,2,0,L|430:264,1,60,2|8,1:2|0:0,0:0:0:0:
463,189,29066,6,0,B|467:150|477:128|477:128|465:104|457:54,2,120,2|2|2,1:2|1:2|1:2,0:0:0:0:
413,264,29918,1,0,3:0:0:0:
368,342,30089,2,0,L|307:346,1,60,2|0,1:2|3:0,0:0:0:0:
218,355,30430,6,0,B|227:307|227:307|213:223,1,120,2|0,1:0|1:0,0:0:0:0:
146,178,30941,1,0,0:0:0:0:
146,178,31111,2,0,P|140:146|144:111,1,60,0|0,1:0|0:0,0:0:0:0:
213,63,31452,1,2,1:2:0:0:
302,51,31623,1,8,0:0:0:0:
387,77,31793,6,0,L|390:217,2,120,2|2|2,1:2|1:2|1:2,0:0:0:0:
302,51,32645,1,0,3:0:0:0:
268,134,32816,2,0,L|269:213,1,60,2|0,1:2|3:0,0:0:0:0:
227,277,33157,6,0,P|170:291|90:272,1,120,2|0,1:0|1:0,0:0:0:0:
69,200,33668,1,2,0:0:0:0:
69,200,33839,2,0,L|68:259,2,60,2|0|2,1:2|0:0|1:2,0:0:0:0:
79,110,34350,1,8,0:0:0:0:
79,110,34520,6,0,L|200:104,1,120,2|2,1:2|1:2,0:0:0:0:
262,39,35032,1,0,0:0:0:0:
351,39,35202,1,2,1:2:0:0:
405,111,35373,1,8,0:0:0:0:
372,194,35543,2,0,L|372:255,1,60,2|8,1:2|0:3,0:0:0:0:
266,293,35884,6,0,B|275:218|275:218|265:131,1,150,6|2,1:2|1:2,0:0:0:0:
155,122,36395,2,0,B|146:195|146:195|155:270,1,150,2|2,0:0|0:0,0:0:0:0:
266,293,36907,1,2,1:2:0:0:
374,262,37077,1,8,0:0:0:0:
299,177,37248,6,0,L|292:96,2,75,6|8|2,1:2|0:0|1:2,0:0:0:0:
266,293,37759,1,8,0:3:0:0:
266,293,37930,2,0,P|226:301|188:296,1,75,2|8,1:2|0:3,0:0:0:0:
131,202,38270,2,0,P|168:198|204:206,1,75,2|0,1:2|3:0,0:0:0:0:
93,321,38611,6,0,L|94:180,1,120,6|0,1:2|0:0,0:0:0:0:
143,124,39123,1,0,1:0:0:0:
143,124,39293,2,0,L|145:59,1,60,2|0,0:0|0:0,0:0:0:0:
225,23,39634,2,0,L|226:82,1,60,2|0,3:2|0:0,0:0:0:0:
311,113,39975,6,0,P|361:125|444:103,2,120,2|2|2,1:2|0:0|0:0,0:0:0:0:
226,80,40827,1,8,0:0:0:0:
143,124,40998,1,2,3:2:0:0:
143,124,41339,6,0,L|145:263,1,120,2|2,1:2|0:0,0:0:0:0:
227,279,41850,1,0,1:0:0:0:
227,279,42020,2,0,P|263:280|292:274,1,60,2|0,0:0|0:0,0:0:0:0:
342,204,42361,2,0,P|378:203|407:209,1,60,8|0,0:3|3:0,0:0:0:0:
478,254,42702,6,0,B|478:225|485:196|485:196|475:171|473:123,1,120,2|0,1:0|0:0,0:0:0:0:
346,85,43214,1,0,1:0:0:0:
346,85,43384,2,0,B|344:120|334:145|334:145|341:174|341:203,1,120,2|8,0:1|0:0,0:0:0:0:
242,292,43895,1,2,0:0:0:0:
242,292,44066,6,0,L|118:294,1,120,6|0,1:2|0:0,0:0:0:0:
72,218,44577,1,0,1:0:0:0:
72,218,44748,2,0,L|71:150,1,60,2|0,0:0|0:0,0:0:0:0:
155,125,45089,2,0,L|154:57,1,60,2|0,3:2|0:0,0:0:0:0:
235,26,45430,6,0,B|272:13|308:31|308:31|371:31,2,120,2|2|2,1:2|0:0|0:0,0:0:0:0:
155,0,46282,1,8,0:0:0:0:
155,0,46452,1,2,3:2:0:0:
229,114,46793,6,0,L|233:246,1,120,2|2,1:2|0:0,0:0:0:0:
201,319,47305,1,0,1:0:0:0:
201,319,47475,2,0,P|240:324|274:315,1,60,2|0,0:0|0:0,0:0:0:0:
323,255,47816,2,0,P|362:250|396:259,1,60,2|0,3:2|0:0,0:0:0:0:
459,300,48157,6,0,B|474:259|464:223|464:223|466:155,1,120,2|2,1:0|0:0,0:0:0:0:
414,106,48668,1,0,1:0:0:0:
414,106,48839,2,0,B|353:92|353:92|273:99,1,120,2|10,1:1|0:0,0:0:0:0:
177,293,49520,6,0,L|176:164,1,120,6|0,1:2|0:0,0:0:0:0:
237,106,50032,1,0,1:0:0:0:
237,106,50202,2,0,P|284:96|306:98,1,60,2|0,0:0|0:0,0:0:0:0:
365,153,50543,2,0,P|412:163|434:161,1,60,2|0,3:2|0:0,0:0:0:0:
510,138,50884,6,0,L|510:270,2,120,2|2|2,1:2|0:0|0:0,0:0:0:0:
473,55,51736,1,8,0:0:0:0:
473,55,51907,1,10,0:0:0:0:
296,92,52248,6,0,P|281:147|294:212,1,120,2|2,1:2|0:0,0:0:0:0:
368,255,52759,1,0,0:0:0:0:
368,255,52930,2,0,L|424:257,5,40,10|8|8|8|0|0,0:0|0:0|0:0|0:3|3:0|3:0,0:0:0:0:
467,262,53611,5,6,1:2:0:0:
304,64,54293,1,6,1:2:0:0:
206,296,54975,1,2,0:0:0:0:
214,304,55998,5,2,0:0:0:0:
214,304,56339,2,0,L|208:161,2,134.999995880127,2|2|0,0:0|0:0|0:0,0:0:0:0:
297,95,57702,6,0,L|306:195,1,75,10|8,0:1|0:0,0:0:0:0:
405,217,58043,1,8,0:0:0:0:
493,146,58214,2,0,L|486:71,2,75,10|8|8,0:1|0:0|0:0,0:0:0:0:
405,217,58725,6,0,P|366:231|321:224,1,75,10|8,0:1|0:0,0:0:0:0:
241,161,59066,1,8,0:0:0:0:
147,99,59236,2,0,P|109:96|75:110,2,75,10|8|10,0:1|0:0|0:0,0:0:0:0:
241,161,59748,6,0,L|243:248,1,75,10|10,0:0|0:0,0:0:0:0:
323,314,60089,2,0,L|324:239,1,75,10|10,0:0|0:0,0:0:0:0:
387,145,60430,5,14,0:0:0:0:
492,106,60600,1,0,1:0:0:0:
404,36,60770,1,0,1:0:0:0:
383,149,60941,5,10,0:1:0:0:
497,106,61111,1,2,1:2:0:0:
402,30,61281,1,8,0:0:0:0:
285,66,61452,2,0,L|284:116,3,37.5,2|0|0|0,1:0|3:0|3:0|3:0,0:0:0:0:
264,153,61793,5,6,1:2:0:0:
264,153,63157,6,0,B|237:199|252:239|252:239|271:267|246:317,2,165.000005035401,6|8|0,1:2|0:0|1:0,0:0:0:0:
350,104,64009,1,0,1:0:0:0:
429,162,64180,2,0,P|437:211|430:252,1,82.5000025177003,10|0,0:0|0:0,0:0:0:0:
384,329,64520,6,0,B|299:343|250:311|250:311|236:267,1,165.000005035401,2|10,1:2|0:0,0:0:0:0:
207,192,65032,2,0,B|126:173|126:173|43:200,1,165.000005035401,2|2,0:0|1:2,0:0:0:0:
73,102,65543,2,0,L|73:0,1,82.5000025177003,10|0,0:0|0:0,0:0:0:0:
165,55,65884,6,0,B|243:72|243:72|339:43,2,165.000005035401,6|8|0,1:2|0:0|1:0,0:0:0:0:
73,102,66736,1,0,1:0:0:0:
155,156,66907,2,0,B|150:156|193:150|236:164,1,82.5000025177003,10|0,0:0|0:0,0:0:0:0:
319,217,67248,6,0,B|326:173|326:173|314:30,1,165.000005035401,2|8,1:2|0:0,0:0:0:0:
413,36,67759,2,0,B|408:80|431:116|431:116|413:162|419:195,1,165.000005035401,2|2,0:0|1:2,0:0:0:0:
475,277,68270,2,0,P|433:289|358:274,1,82.5000025177003,10|0,0:0|0:0,0:0:0:0:
319,217,68611,6,0,B|270:188|221:216|221:216|124:223,2,165.000005035401,6|8|0,1:2|0:0|1:0,0:0:0:0:
413,185,69464,1,0,1:0:0:0:
429,87,69634,2,0,L|317:79,1,82.5000025177003,10|0,0:0|0:0,0:0:0:0:
248,69,69975,6,0,B|200:77|168:56|168:56|135:82|70:63,1,165.000005035401,6|10,1:2|0:0,0:0:0:0:
54,160,70486,1,0,0:0:0:0:
90,252,70657,2,0,B|135:237|168:263|168:263|200:242|248:250,1,165.000005035401,2|10,1:2|0:0,0:0:0:0:
345,76,71339,6,0,B|361:142|361:142|347:245,1,165.000005035401,6|10,1:2|0:0,0:0:0:0:
422,303,71850,1,0,0:0:0:0:
422,303,72020,2,0,L|435:211,1,82.5000025177003,2|0,1:2|1:0,0:0:0:0:
491,153,72361,1,10,0:0:0:0:
447,63,72532,1,0,1:0:0:0:
325,92,72702,6,0,L|228:89,1,82.5000025177003,14|0,0:1|1:0,0:0:0:0:
152,182,73043,2,0,L|249:179,1,82.5000025177003,10|0,0:1|1:0,0:0:0:0:
328,298,73384,5,10,0:1:0:0:
216,275,73555,1,8,0:0:0:0:
321,217,73725,2,0,L|320:175,3,41.2500012588501,10|8|8|8,0:1|0:0|0:0|0:0,0:0:0:0:
306,158,74066,6,0,P|344:167|395:156,2,82.5000025177003,6|2|10,1:2|1:2|0:0,0:0:0:0:
218,100,74577,1,2,0:0:0:0:
135,44,74748,2,0,P|97:35|46:46,1,82.5000025177003,2|2,1:2|1:2,0:0:0:0:
30,138,75089,1,10,0:0:0:0:
73,226,75259,1,2,0:0:0:0:
73,226,75430,6,0,L|194:219,1,82.5000025177003,2|0,1:0|1:0,0:0:0:0:
234,280,75770,1,8,0:0:0:0:
234,280,75941,2,0,B|313:294|313:294|408:266,1,165.000005035401,2|2,0:0|1:2,0:0:0:0:
407,171,76452,1,8,0:0:0:0:
388,73,76623,1,2,0:0:0:0:
298,30,76793,6,0,P|237:26|198:35,2,82.5000025177003,6|2|10,1:2|1:2|0:0,0:0:0:0:
388,73,77305,1,0,0:0:0:0:
315,140,77475,2,0,P|308:192|322:232,1,82.5000025177003,2|0,1:2|1:0,0:0:0:0:
400,272,77816,2,0,P|407:324|393:364,1,82.5000025177003,10|2,0:0|0:0,0:0:0:0:
299,351,78157,5,2,1:0:0:0:
299,351,78327,1,2,1:2:0:0:
200,340,78498,2,0,L|190:247,1,82.5000025177003,10|2,0:0|0:0,0:0:0:0:
129,180,78839,2,0,L|139:87,1,82.5000025177003,2|2,1:0|1:2,0:0:0:0:
204,24,79180,2,0,P|254:37|300:27,1,82.5000025177003,8|10,0:1|0:0,0:0:0:0:
378,6,79520,6,0,B|398:91|398:91|384:194,2,165.000005035401,6|8|2,1:2|0:0|1:2,0:0:0:0:
283,32,80373,1,0,1:0:0:0:
283,32,80543,1,8,0:0:0:0:
179,187,80884,2,0,B|134:211|97:180|97:180|54:162|14:182,2,165.000005035401,6|8|2,1:2|0:0|1:2,0:0:0:0:
264,136,81736,1,0,1:0:0:0:
264,136,81907,1,8,0:0:0:0:
420,256,82248,6,0,L|421:58,1,165.000005035401,6|8,1:2|0:0,0:0:0:0:
329,52,82759,1,0,0:0:0:0:
329,52,82930,2,0,B|265:40|265:40|146:58,1,165.000005035401,2|8,1:2|0:0,0:0:0:0:
154,153,83441,1,8,0:0:0:0:
154,153,83611,6,0,L|156:256,1,82.5000025177003,6|0,1:2|1:0,0:0:0:0:
107,322,83952,2,0,P|66:327|25:323,1,82.5000025177003,8|0,0:0|0:0,0:0:0:0:
0,218,84293,1,2,1:2:0:0:
0,218,84464,1,0,1:0:0:0:
54,135,84634,2,0,L|51:18,1,82.5000025177003,8|8,0:0|0:0,0:0:0:0:
150,41,84975,6,0,P|210:31|254:47,1,82.5000025177003,6|8,1:2|0:0,0:0:0:0:
286,127,85316,2,0,P|326:132|366:121,1,82.5000025177003,10|8,0:0|0:0,0:0:0:0:
448,51,85657,1,10,0:0:0:0:
448,51,85827,1,8,0:0:0:0:
454,183,85998,1,10,0:0:0:0:
454,183,86168,1,10,0:0:0:0:
454,315,86339,5,10,0:0:0:0:
256,192,87702,12,0,88895,0:0:0:0:
