osu file format v14

[General]
AudioFilename: audio.mp3
AudioLeadIn: 0
PreviewTime: 62219
Countdown: 0
SampleSet: Soft
StackLeniency: 0.4
Mode: 0
LetterboxInBreaks: 0
WidescreenStoryboard: 0

[Editor]
DistanceSpacing: 1
BeatDivisor: 4
GridSize: 4
TimelineZoom: 1

[Metadata]
Title:SHIORI (TV Size)
TitleUnicode:SHIORI (TV Size)
Artist:ClariS
ArtistUnicode:ClariS
Creator:lit120
Version:Easy
Source:終物語
Tags:ending ed owarimonogatari anime jpop j-pop j pop japanese -Hakurei- Lasse Alphabet [_L_u_k_a_s_] Lukas Nevo Venax Nao Tomori Naotoshi Xexxar
BeatmapID:1820882
BeatmapSetID:871481

[Difficulty]
HPDrainRate:3
CircleSize:3
OverallDifficulty:3
ApproachRate:3
SliderMultiplier:0.899999999999999
SliderTickRate:1

[Events]
//Background and Video events
0,0,"bg.jpg",0,0
Video,0,"video.avi"
//Break Periods
//Storyboard Layer 0 (Background)
//Storyboard Layer 1 (Fail)
//Storyboard Layer 2 (Pass)
//Storyboard Layer 3 (Foreground)
//Storyboard Sound Samples

[TimingPoints]
430,340.909090909091,4,2,2,35,1,0
430,-111.111111111111,4,2,2,35,0,0
5884,-100,4,2,1,40,0,0
7248,-100,4,2,1,40,0,0
8611,-100,4,2,1,40,0,0
9975,-100,4,2,1,40,0,0
11339,-100,4,2,1,40,0,0
11680,-100,4,2,1,30,0,0
12020,-100,4,2,1,40,0,0
12361,-100,4,2,1,45,0,0
12702,-100,4,2,1,55,0,0
13725,-100,4,2,1,50,0,0
54975,-100,4,2,2,30,0,0
57702,-100,4,2,1,20,0,0
58214,-100,4,2,1,30,0,0
58725,-100,4,2,1,35,0,0
59236,-100,4,2,1,40,0,0
59748,-100,4,2,1,50,0,0
63157,-100,4,2,1,60,0,1
84975,-100,4,2,1,40,0,1
85316,-100,4,2,1,45,0,1
85657,-100,4,2,1,55,0,1
85998,-100,4,2,1,60,0,1
86339,-100,4,2,1,60,0,0
87702,-100,4,2,1,50,0,0
88895,-100,4,2,1,5,0,0

[Colours]
Combo1 : 207,175,114
Combo2 : 71,198,249
Combo3 : 160,51,202
Combo4 : 232,46,51

[HitObjects]
417,267,430,6,0,P|265:285|183:154,1,323.999990112305,4|2,0:0|0:0,0:0:0:0:
256,31,2475,1,2,0:0:0:0:
328,155,3157,2,0,P|246:285|94:267,1,323.999990112305,4|2,0:0|0:0,0:0:0:0:
41,133,5202,1,2,0:0:0:0:
130,20,5884,6,0,L|308:40,1,180,4|0,3:2|0:0,0:0:0:0:
466,127,7248,2,0,L|287:147,1,180,4|0,3:2|0:0,0:0:0:0:
130,235,8611,2,0,L|308:255,1,180,4|0,3:2|0:0,0:0:0:0:
466,342,9975,2,0,L|287:362,1,180,4|0,3:2|0:0,0:0:0:0:
107,353,11339,6,0,B|173:265|99:192|99:192|173:119|107:31,1,360,4|8,3:2|0:0,0:0:0:0:
466,34,14066,6,0,L|478:176,1,135,14|14,0:0|0:0,0:0:0:0:
376,258,15089,2,0,L|364:116,1,135,14|10,0:2|0:0,0:0:0:0:
253,47,16111,2,0,L|263:173,1,89.9999999999999,10|10,0:0|0:0,0:0:0:0:
207,209,16793,6,0,P|146:173|25:207,1,180,6|0,3:2|3:2,0:0:0:0:
11,276,17816,1,0,3:2:0:0:
96,308,18157,2,0,L|202:294,1,89.9999999999999,2|0,3:2|3:2,0:0:0:0:
272,271,18839,2,0,L|378:285,1,89.9999999999999,2|0,3:2|3:2,0:0:0:0:
426,344,19520,6,0,P|406:242|430:129,1,180,2|0,3:2|3:2,0:0:0:0:
472,97,20543,1,0,3:2:0:0:
383,84,20884,2,0,L|271:86,1,89.9999999999999,2|0,3:2|3:2,0:0:0:0:
218,135,21566,2,0,P|169:133|110:112,1,89.9999999999999,2|0,3:2|3:2,0:0:0:0:
69,54,22248,6,0,L|73:250,1,180,2|0,3:2|3:2,0:0:0:0:
110,315,23270,1,0,3:2:0:0:
161,242,23611,2,0,P|237:235|276:253,1,89.9999999999999,2|0,3:2|3:2,0:0:0:0:
333,273,24293,2,0,L|326:149,1,89.9999999999999,2|2,3:2|3:2,0:0:0:0:
377,107,24975,6,0,P|282:99|322:56,1,180,2|0,3:2|3:2,0:0:0:0:
366,17,25998,1,0,3:2:0:0:
450,53,26339,2,0,P|465:94|461:139,1,89.9999999999999,2|0,3:2|3:2,0:0:0:0:
412,214,27020,2,0,P|401:257|411:300,1,89.9999999999999,2|4,3:2|0:3,0:0:0:0:
372,380,27702,6,0,P|299:331|211:338,1,180,6|0,3:2|3:2,0:0:0:0:
129,377,28725,1,0,3:2:0:0:
90,294,29066,2,0,L|95:198,1,89.9999999999999,2|0,3:2|3:2,0:0:0:0:
177,169,29748,2,0,L|172:72,1,89.9999999999999,0|0,3:2|3:2,0:0:0:0:
105,18,30430,6,0,P|187:55|292:26,1,180,2|0,3:2|3:2,0:0:0:0:
357,7,31452,1,0,3:2:0:0:
388,91,31793,2,0,L|382:193,1,89.9999999999999,2|0,3:2|3:2,0:0:0:0:
303,224,32475,2,0,P|231:230|195:213,1,89.9999999999999,0|0,3:2|3:2,0:0:0:0:
146,166,33157,6,0,P|158:252|132:358,1,180,2|0,3:2|3:2,0:0:0:0:
53,370,34180,1,0,3:2:0:0:
26,285,34520,2,0,L|25:175,1,89.9999999999999,2|0,3:2|3:2,0:0:0:0:
43,106,35202,2,0,P|97:84|144:86,1,89.9999999999999,0|0,3:2|3:2,0:0:0:0:
204,128,35884,6,0,P|266:151|328:127,2,135,6|2|2,3:2|0:0|3:2,0:0:0:0:
265,62,37248,2,0,P|305:40|349:39,1,89.9999999999999,6|2,3:2|3:2,0:0:0:0:
413,102,37930,2,0,P|412:146|393:186,1,89.9999999999999,2|2,3:2|3:2,0:0:0:0:
309,213,38611,6,0,L|459:283,2,135,6|2|4,3:2|3:2|0:3,0:0:0:0:
220,224,39975,2,0,L|70:154,2,135,2|0|4,3:2|3:2|0:3,0:0:0:0:
273,296,41339,2,0,L|422:365,2,135,2|2|4,3:2|3:2|0:3,0:0:0:0:
184,307,42702,2,0,L|-4:219,1,180,2|2,3:2|0:0,0:0:0:0:
11,141,43725,1,8,0:0:0:0:
75,78,44066,6,0,P|141:87|183:138,2,135,4|2|4,3:2|3:2|0:3,0:0:0:0:
98,167,45430,2,0,L|28:316,2,135,2|0|4,3:2|3:2|0:3,0:0:0:0:
183,138,46793,2,0,L|252:-11,2,135,2|2|4,3:2|3:2|0:3,0:0:0:0:
245,201,48157,2,0,P|162:224|98:167,1,180,2|2,3:2|3:2,0:0:0:0:
115,78,49180,1,8,0:0:0:0:
183,138,49520,6,0,P|179:203|130:251,2,135,6|2|4,3:2|3:2|0:3,0:0:0:0:
98,167,50884,2,0,P|43:131|26:64,2,135,2|0|4,3:2|3:2|0:3,0:0:0:0:
115,78,52248,2,0,P|204:50|267:108,1,180,2|10,3:2|0:0,0:0:0:0:
321,171,53270,1,8,0:3:0:0:
391,115,53611,2,0,P|366:206|396:313,2,180,6|6|4,3:2|3:2|0:0,0:0:0:0:
42,23,56339,5,2,0:0:0:0:
136,371,57702,6,0,L|140:228,1,135,10|10,0:0|0:0,0:0:0:0:
260,176,58725,2,0,L|256:319,1,135,10|10,0:0|0:0,0:0:0:0:
381,362,59748,2,0,L|384:236,1,89.9999999999999,10|8,0:0|0:0,0:0:0:0:
347,189,60430,6,0,P|426:223|478:136,1,180,14|0,0:0|3:2,0:0:0:0:
486,71,61452,1,2,3:2:0:0:
400,41,61793,2,0,L|216:54,1,180,6|0,3:2|0:0,0:0:0:0:
75,161,63157,6,0,P|148:139|216:231,1,180,6|0,3:2|3:2,0:0:0:0:
237,293,64180,1,10,0:0:0:0:
159,337,64520,2,0,L|15:330,2,135,2|2|10,3:2|0:0|0:0,0:0:0:0:
237,293,65884,6,0,P|324:282|416:349,1,180,2|0,3:2|3:2,0:0:0:0:
475,377,66907,1,8,0:0:0:0:
481,287,67248,2,0,L|472:136,2,135,2|2|10,3:2|0:0|0:0,0:0:0:0:
401,327,68611,6,0,P|347:257|359:143,1,180,6|2,3:2|3:2,0:0:0:0:
398,92,69634,1,8,0:0:0:0:
307,88,69975,2,0,L|204:92,1,89.9999999999999,6|8,3:2|0:0,0:0:0:0:
148,149,70657,2,0,L|44:145,1,89.9999999999999,2|8,3:2|0:0,0:0:0:0:
43,56,71339,6,0,L|133:60,1,89.9999999999999,6|10,3:2|0:0,0:0:0:0:
217,91,72020,2,0,P|236:135|231:184,1,89.9999999999999,0|8,3:2|0:0,0:0:0:0:
165,236,72702,2,0,P|271:217|340:264,1,180,14|10,0:0|0:0,0:0:0:0:
384,324,73725,1,10,0:0:0:0:
419,242,74066,6,0,L|406:68,2,135,6|2|8,3:2|0:0|0:0,0:0:0:0:
383,324,75430,2,0,P|356:337|285:331,1,89.9999999999999,2|10,3:2|0:0,0:0:0:0:
225,281,76111,2,0,L|127:284,1,89.9999999999999,2|10,3:2|0:0,0:0:0:0:
62,230,76793,6,0,P|76:327|63:369,2,135,2|2|8,3:2|0:0|0:0,0:0:0:0:
12,154,78157,2,0,L|18:64,1,89.9999999999999,2|10,3:2|0:0,0:0:0:0:
109,59,78839,2,0,L|103:149,1,89.9999999999999,2|10,3:2|0:0,0:0:0:0:
152,223,79520,6,0,P|245:217|283:135,1,180,6|0,3:2|3:2,0:0:0:0:
241,68,80543,1,10,0:0:0:0:
194,144,80884,2,0,L|195:348,1,180,6|2,3:2|3:2,0:0:0:0:
269,375,81907,1,8,0:0:0:0:
321,301,82248,6,0,P|376:293|423:309,1,89.9999999999999,6|8,3:2|0:0,0:0:0:0:
481,354,82930,2,0,P|441:245|457:158,1,180,2|2,3:2|3:2,0:0:0:0:
486,102,83952,1,8,0:0:0:0:
397,110,84293,2,0,P|327:112|304:107,1,89.9999999999999,2|8,3:2|0:0,0:0:0:0:
240,48,84975,6,0,P|255:124|141:35,1,360,6|10,3:2|0:0,0:0:0:0:
405,276,87702,6,2,L|81:257,1,315,2|0,0:0|0:0,0:0:0:0:
