osu file format v14

[General]
AudioFilename: audio.mp3
AudioLeadIn: 0
PreviewTime: 62219
Countdown: 0
SampleSet: Soft
StackLeniency: 0.3
Mode: 0
LetterboxInBreaks: 0
WidescreenStoryboard: 0

[Editor]
DistanceSpacing: 1
BeatDivisor: 4
GridSize: 4
TimelineZoom: 1.8

[Metadata]
Title:SHIORI (TV Size)
TitleUnicode:SHIORI (TV Size)
Artist:ClariS
ArtistUnicode:ClariS
Creator:browiec
Version:Ougi
Source:終物語
Tags:ending ed owarimonogatari anime jpop j-pop j pop japanese oshino ougi torriru muya-
BeatmapID:3238820
BeatmapSetID:1585682

[Difficulty]
HPDrainRate:5.6
CircleSize:3.8
OverallDifficulty:9
ApproachRate:9.2
SliderMultiplier:1.8
SliderTickRate:1

[Events]
//Background and Video events
0,0,"cropped-1920-1080-866916.png",0,0
//Break Periods
//Storyboard Layer 0 (Background)
//Storyboard Layer 1 (Fail)
//Storyboard Layer 2 (Pass)
//Storyboard Layer 3 (Foreground)
//Storyboard Layer 4 (Overlay)
//Storyboard Sound Samples

[TimingPoints]
259,340.909090909091,4,2,1,50,1,0
259,-100,4,2,1,50,0,0
430,340.909090909091,4,2,1,50,1,0
430,-142.857142857143,4,2,1,50,0,0
5884,-142.857142857143,4,2,1,60,0,0
11680,-142.857142857143,4,2,1,50,0,0
12020,-142.857142857143,4,2,1,55,0,0
12361,-142.857142857143,4,2,1,60,0,0
12702,-142.857142857143,4,2,1,65,0,0
13725,-142.857142857143,4,2,1,50,0,0
14066,-105.263157894737,4,2,1,70,0,0
16793,-125,4,2,1,65,0,0
54975,-125,4,2,1,50,0,0
58214,-125,4,2,1,55,0,0
58725,-125,4,2,1,60,0,0
59236,-125,4,2,1,65,0,0
59748,-125,4,2,1,70,0,0
60089,-105.263157894737,4,2,1,70,0,0
60430,-105.263157894737,4,2,1,75,0,0
61793,-142.857142857143,4,2,1,75,0,0
62475,-142.857142857143,4,2,1,40,0,0
63157,-100,4,2,1,80,0,1
86339,-100,4,2,1,80,0,0
87702,-200,4,2,1,50,0,0
88895,-200,4,2,1,40,0,0

[Colours]
Combo1 : 158,24,216
Combo2 : 199,199,199
Combo3 : 221,133,239

[HitObjects]
56,136,259,5,0,0:2:0:0:
56,136,430,2,0,L|119:128,1,62.9999980773926,2|0,0:2|0:2,0:2:0:0:
168,56,770,2,0,L|231:63,1,62.9999980773926,2|0,0:2|0:2,0:2:0:0:
308,96,1111,2,0,P|314:65|308:34,2,62.9999980773926,2|0|2,0:2|0:2|0:2,0:2:0:0:
240,152,1623,1,0,0:2:0:0:
240,152,1793,6,0,L|247:215,1,62.9999980773926,2|0,0:2|0:2,0:2:0:0:
156,292,2134,2,0,B|220:268|216:316|280:292,1,125.999996154785,2|2,0:2|0:2,0:2:0:0:
356,324,2645,2,0,P|362:293|356:262,1,62.9999980773926,2|0,0:2|0:2,0:2:0:0:
288,208,2986,1,2,0:2:0:0:
404,184,3157,6,0,L|467:176,1,62.9999980773926,2|0,0:2|0:2,0:2:0:0:
456,88,3498,2,0,L|392:95,1,62.9999980773926,2|0,0:2|0:2,0:2:0:0:
312,128,3839,2,0,L|248:120,1,62.9999980773926,2|0,0:2|0:2,0:2:0:0:
260,32,4179,2,0,L|323:39,1,62.9999980773926,2|0,0:2|0:2,0:2:0:0:
180,68,4520,2,0,B|132:62|132:62|106:79|106:79|58:73,1,125.999996154785,2|2,0:2|0:2,0:2:0:0:
4,172,5032,2,0,L|67:164,1,62.9999980773926,2|0,0:2|0:2,0:2:0:0:
112,264,5373,1,2,0:2:0:0:
112,264,5543,2,0,L|48:256,1,62.9999980773926,0|0,0:2|0:2,0:2:0:0:
136,92,5884,6,0,B|205:58|267:104|267:104|304:80|304:80|378:128|444:86|444:86|383:100|345:59,1,440.999986541748,6|0,3:2|3:2,3:2:0:0:
312,184,7248,6,0,B|284:256|284:256|312:300,1,125.999996154785,4|0,3:2|0:2,0:2:0:0:
404,372,7759,2,0,L|397:308,1,62.9999980773926,8|2,0:2|0:2,0:2:0:0:
492,200,8100,1,0,3:2:0:0:
492,200,8270,2,0,P|469:220|440:231,1,62.9999980773926,0|0,3:2|0:2,0:2:0:0:
328,84,8611,6,0,B|244:52|184:120|184:120|132:52|36:80|36:80|112:84|148:144,1,440.999986541748,6|0,3:2|0:2,0:2:0:0:
248,192,9975,6,0,B|296:186|296:186|322:203|322:203|370:197,1,125.999996154785,6|0,3:2|0:2,0:2:0:0:
280,340,10486,2,0,L|273:276,1,62.9999980773926,0|2,3:2|0:2,0:2:0:0:
164,172,10827,1,0,3:2:0:0:
164,172,10998,2,0,L|157:236,1,62.9999980773926,0|0,3:2|0:2,0:2:0:0:
304,96,11339,6,0,P|273:90|242:96,1,62.9999980773926,6|0,3:2|0:2,0:2:0:0:
316,272,11680,1,8,0:2:0:0:
392,104,11850,1,8,0:2:0:0:
224,248,12020,1,8,0:2:0:0:
460,196,12191,1,8,0:2:0:0:
220,80,12361,1,8,0:2:0:0:
404,304,12532,1,8,0:2:0:0:
448,16,12702,1,8,0:2:0:0:
464,32,13725,6,0,L|467:63,3,31.4999990386963,2|2|2|2,0:2|0:2|0:2|0:2,0:2:0:0:
492,152,14066,6,0,L|404:141,1,85.4999977169037,14|0,0:2|3:2,0:2:0:0:
264,304,14407,1,0,3:2:0:0:
280,32,14577,2,0,P|326:46|354:78,1,85.4999977169037,14|0,3:2|3:2,3:2:0:0:
176,296,14918,1,0,3:2:0:0:
128,28,15089,5,14,0:2:0:0:
308,224,15259,1,0,3:2:0:0:
44,168,15430,1,0,3:2:0:0:
396,112,15600,5,10,0:2:0:0:
176,296,15770,1,8,0:2:0:0:
224,28,15941,1,0,3:2:0:0:
276,324,16111,5,10,0:2:0:0:
152,80,16282,1,8,0:2:0:0:
72,352,16452,2,0,L|77:308,1,42.7499988584519,10|0,0:2|0:2,0:2:0:0:
240,124,16623,1,8,0:2:0:0:
240,124,16708,1,8,0:2:0:0:
240,124,16793,6,0,B|316:96|308:152|380:128,1,144,4|0,3:2|3:2,0:2:0:0:
496,108,17305,1,0,0:2:0:0:
496,108,17475,2,0,P|467:142|460:181,1,72,2|0,3:2|0:2,0:2:0:0:
416,308,17816,1,2,3:2:0:0:
372,168,17986,1,8,0:2:0:0:
324,312,18157,6,0,L|252:303,1,72,2|0,3:2|0:2,0:2:0:0:
176,220,18498,2,0,L|247:211,1,72,2|0,3:2|0:2,0:2:0:0:
124,296,18839,2,0,P|95:261|88:222,1,72,2|0,3:2|0:2,0:2:0:0:
152,92,19180,2,0,P|136:134|105:159,1,72,2|0,3:2|0:2,0:2:0:0:
84,20,19520,6,0,B|168:-4|168:-4|220:32,1,144,2|0,3:2|3:2,0:2:0:0:
324,108,20032,1,0,0:2:0:0:
324,108,20202,2,0,B|268:101|268:101|237:121|237:121|186:115,1,144,2|0,3:2|3:2,0:2:0:0:
304,264,20714,1,8,0:2:0:0:
404,144,20884,6,0,P|411:109|404:74,1,72,2|0,3:2|0:2,0:2:0:0:
240,24,21225,2,0,P|232:58|239:93,1,72,2|0,3:2|0:2,0:2:0:0:
288,248,21566,1,2,3:2:0:0:
324,108,21736,1,0,0:2:0:0:
380,248,21907,2,0,P|387:282|380:317,1,72,2|0,3:2|0:2,0:2:0:0:
204,288,22248,6,0,B|300:280|300:280|277:291|261:324,1,144,0|0,3:2|3:2,0:2:0:0:
124,368,22759,1,0,0:2:0:0:
124,368,22930,2,0,L|115:297,1,72,2|0,3:2|0:2,0:2:0:0:
64,160,23270,1,2,3:2:0:0:
24,300,23441,1,8,0:2:0:0:
144,196,23611,6,0,P|151:161|143:126,1,72,2|0,3:2|0:2,0:2:0:0:
0,64,23952,2,0,L|71:73,1,72,2|0,3:2|0:2,0:2:0:0:
232,12,24293,2,0,L|223:83,1,72,2|0,3:2|0:2,0:2:0:0:
324,144,24634,2,0,L|315:73,1,72,2|0,3:2|0:2,0:2:0:0:
433,228,24975,6,0,B|361:200|369:252|293:232,1,144,2|0,3:2|3:2,0:2:0:0:
213,148,25486,2,0,L|204:219,1,72,0|0,0:2|3:2,0:2:0:0:
76,108,25827,1,2,0:2:0:0:
216,60,25998,1,2,3:2:0:0:
60,92,26168,1,10,0:2:0:0:
232,44,26339,6,0,B|282:12|326:52|326:52|298:85,1,144,2|0,3:2|3:2,0:2:0:0:
336,224,26850,1,0,0:2:0:0:
408,88,27020,1,2,3:2:0:0:
260,176,27191,1,8,0:2:0:0:
420,248,27361,1,0,3:2:0:0:
292,92,27532,1,0,3:2:0:0:
292,92,27617,1,0,3:2:0:0:
292,92,27702,6,0,B|236:85|236:85|205:105|205:105|154:99,1,144,6|0,3:2|3:2,0:2:0:0:
64,196,28214,1,0,0:2:0:0:
64,196,28384,2,0,L|135:187,1,72,2|0,3:2|0:2,0:2:0:0:
304,224,28725,1,2,3:2:0:0:
156,276,28895,1,8,0:2:0:0:
232,112,29066,6,0,L|223:183,1,72,2|0,3:2|0:2,0:2:0:0:
313,295,29407,2,0,L|304:224,1,72,2|0,3:2|0:2,0:2:0:0:
360,80,29748,2,0,P|394:72|429:80,1,72,2|0,3:2|0:2,0:2:0:0:
504,176,30089,2,0,P|469:168|434:176,1,72,2|0,3:2|0:2,0:2:0:0:
460,376,30430,6,0,B|504:336|504:336|473:257,1,144,2|0,3:2|3:2,0:2:0:0:
348,164,30941,1,0,0:2:0:0:
348,164,31111,2,0,L|339:235,1,72,0|0,3:2|0:2,0:2:0:0:
284,364,31452,1,2,3:2:0:0:
248,220,31623,1,8,0:2:0:0:
192,368,31793,6,0,P|157:375|122:367,1,72,2|0,3:2|0:2,0:2:0:0:
28,280,32134,2,0,P|62:287|97:279,1,72,2|0,3:2|0:2,0:2:0:0:
168,144,32475,2,0,L|159:215,1,72,2|0,3:2|0:2,0:2:0:0:
316,160,32816,1,2,3:2:0:0:
196,60,32986,1,0,0:2:0:0:
332,176,33157,6,0,B|408:148|396:200|472:180,1,144,2|0,3:2|3:2,0:2:0:0:
512,64,33668,1,2,0:2:0:0:
512,64,33839,2,0,L|441:55,1,72,2|0,3:2|0:2,0:2:0:0:
268,88,34180,1,2,3:2:0:0:
372,0,34350,1,8,0:2:0:0:
336,148,34520,6,0,P|328:181|335:217,1,72,2|0,3:2|0:2,0:2:0:0:
475,215,34861,2,0,P|449:191|415:181,1,72,2|0,3:2|0:2,0:2:0:0:
248,224,35202,1,2,3:2:0:0:
408,304,35373,1,8,0:2:0:0:
336,148,35543,1,2,3:2:0:0:
288,308,35714,1,0,0:2:0:0:
224,136,35884,6,0,B|168:129|168:129|137:149|137:149|86:143,1,144,6|0,3:2|3:2,0:2:0:0:
184,296,36395,2,0,L|193:225,1,72,2|0,0:2|3:2,0:2:0:0:
304,104,36736,1,0,0:2:0:0:
304,104,36907,2,0,P|311:137|304:173,1,72,2|8,3:2|0:2,0:2:0:0:
100,112,37248,5,6,3:2:0:0:
256,28,37418,1,8,0:2:0:0:
136,200,37589,1,2,3:2:0:0:
60,8,37759,1,0,3:2:0:0:
240,160,37930,1,2,3:2:0:0:
24,224,38100,1,0,3:2:0:0:
168,20,38270,2,0,L|159:91,1,72,2|0,3:2|3:2,0:2:0:0:
212,248,38611,6,0,B|247:270|247:270|287:226|255:176,1,144,4|0,3:2|0:2,0:2:0:0:
216,352,39123,1,0,3:2:0:0:
216,352,39294,2,0,P|249:359|285:352,1,72,2|0,0:2|0:2,0:2:0:0:
416,284,39634,2,0,P|383:291|347:284,1,72,2|0,3:2|0:2,0:2:0:0:
472,128,39975,6,0,L|463:199,1,72,2|0,3:2|0:2,0:2:0:0:
296,104,40316,2,0,L|287:33,1,72,2|0,3:2|0:2,0:2:0:0:
236,176,40657,1,2,0:2:0:0:
384,96,40827,1,8,0:2:0:0:
220,192,40998,2,0,L|229:263,1,72,2|0,3:2|0:2,0:2:0:0:
348,368,41339,6,0,B|297:335|297:335|217:359,1,144,2|2,3:2|0:2,0:2:0:0:
76,288,41850,1,0,3:2:0:0:
76,288,42020,2,0,L|147:297,1,72,2|0,0:2|0:2,0:2:0:0:
263,202,42361,2,0,P|240:227|228:261,1,72,2|0,3:2|0:2,0:2:0:0:
352,376,42702,6,0,B|359:320|359:320|339:289|339:289|345:238,1,144,2|0,3:2|0:2,0:2:0:0:
416,96,43214,1,0,3:2:0:0:
436,268,43384,1,2,0:2:0:0:
336,148,43555,1,0,3:2:0:0:
508,128,43725,2,0,L|499:199,1,72,8|0,0:2|0:2,0:2:0:0:
392,352,44066,6,0,P|348:316|260:336,1,144,6|0,3:2|0:2,0:2:0:0:
184,384,44577,1,0,3:2:0:0:
184,384,44747,2,0,L|175:313,1,72,2|0,0:2|0:2,0:2:0:0:
48,216,45089,2,0,P|73:239|107:251,1,72,2|0,3:2|0:2,0:2:0:0:
192,152,45430,6,0,L|121:161,1,72,2|0,3:2|0:2,0:2:0:0:
208,24,45770,2,0,L|279:33,1,72,2|0,0:2|3:2,0:2:0:0:
371,158,46111,1,2,0:2:0:0:
404,16,46282,1,8,0:2:0:0:
288,124,46452,2,0,P|281:157|288:193,1,72,2|0,3:2|0:2,0:2:0:0:
442,201,46793,6,0,B|464:166|464:166|420:126|370:158,1,144,2|2,3:2|0:2,0:2:0:0:
292,288,47305,1,0,3:2:0:0:
292,288,47475,2,0,L|363:297,1,72,2|0,0:2|0:2,0:2:0:0:
224,176,47816,2,0,L|153:185,1,72,2|0,3:2|0:2,0:2:0:0:
40,80,48157,6,0,B|84:120|84:120|53:199,1,144,2|2,3:2|0:2,0:2:0:0:
20,292,48668,1,0,3:2:0:0:
20,292,48839,2,0,L|91:283,1,72,2|0,3:2|0:2,0:2:0:0:
148,212,49180,1,10,0:2:0:0:
340,352,49520,6,0,B|396:345|396:345|427:365|427:365|478:359,1,144,4|0,3:2|0:2,0:2:0:0:
460,200,50032,1,0,3:2:0:0:
460,200,50203,2,0,L|451:271,1,72,2|0,0:2|0:2,0:2:0:0:
356,152,50543,2,0,L|365:223,1,72,2|0,3:2|0:2,0:2:0:0:
280,96,50884,6,0,P|306:72|340:60,1,72,2|0,3:2|0:2,0:2:0:0:
288,272,51225,2,0,L|217:263,1,72,2|0,0:2|3:2,0:2:0:0:
112,96,51566,1,2,0:2:0:0:
240,176,51736,1,8,0:2:0:0:
96,80,51907,2,0,L|25:89,1,72,10|0,0:2|0:2,0:2:0:0:
204,4,52248,6,0,B|196:100|196:100|212:72|240:56,1,144,2|2,3:2|0:2,0:2:0:0:
328,148,52759,1,0,3:2:0:0:
328,148,52930,2,0,L|280:142,2,48,10|8|8,0:2|0:2|0:2,0:2:0:0:
384,216,53270,2,0,L|431:210,2,48,2|0|0,3:2|3:2|3:2,0:2:0:0:
324,284,53611,6,0,B|272:252|204:280|240:304|172:328|120:300,1,216,6|0,3:2|0:2,0:2:0:0:
8,276,54293,6,0,B|-4:228|24:204|68:196|100:204|112:264|112:308|84:348|32:364,1,288,6|2,3:2|0:2,0:2:0:0:
35,362,56339,5,2,0:2:0:0:
52,348,57702,6,0,L|123:339,1,72,10|8,0:2|0:2,0:2:0:0:
276,268,58043,1,8,0:2:0:0:
108,180,58214,2,0,P|101:213|108:249,1,72,10|8,0:2|0:2,0:2:0:0:
232,384,58555,1,8,0:2:0:0:
268,176,58725,6,0,L|197:167,1,72,10|8,0:2|0:2,0:2:0:0:
52,348,59066,1,8,0:2:0:0:
276,268,59236,1,10,0:2:0:0:
40,164,59407,1,8,0:2:0:0:
196,312,59577,1,10,0:2:0:0:
168,72,59748,5,10,0:2:0:0:
20,260,59918,1,10,0:2:0:0:
184,56,60089,2,0,P|230:45|271:58,1,85.4999977169037,10|0,0:2|3:2,0:2:0:0:
324,384,60430,5,14,0:2:0:0:
376,100,60600,1,0,3:2:0:0:
196,312,60770,1,0,3:2:0:0:
308,36,60941,5,8,0:2:0:0:
420,332,61111,1,2,3:2:0:0:
512,36,61282,1,8,0:2:0:0:
340,296,61452,5,0,3:2:0:0:
224,24,61623,1,0,3:2:0:0:
224,24,61708,1,0,3:2:0:0:
224,24,61793,2,0,B|69:5|69:5|119:19|133:73,1,251.999992309571,14|0,0:2|0:2,0:2:0:0:
148,88,63157,6,0,L|136:179,1,90,6|0,3:2|3:2,0:2:0:0:
304,344,63498,2,0,L|292:252,1,90,8|0,0:2|0:2,0:2:0:0:
472,40,63839,1,0,3:2:0:0:
244,168,64009,1,0,3:2:0:0:
488,236,64180,2,0,P|500:192|484:140,1,90,10|0,0:2|0:2,0:2:0:0:
204,56,64520,6,0,B|296:24|284:100|376:68,1,180,2|10,3:2|0:2,0:2:0:0:
504,252,65032,2,0,L|412:240,1,90,2|0,0:2|3:2,0:2:0:0:
216,376,65373,1,2,3:2:0:0:
308,160,65543,2,0,L|319:251,1,90,10|0,0:2|0:2,0:2:0:0:
80,168,65884,5,2,3:2:0:0:
296,68,66055,1,0,3:2:0:0:
125,248,66225,2,0,P|81:260|29:244,1,90,8|0,0:2|0:2,0:2:0:0:
220,40,66566,1,0,3:2:0:0:
284,284,66736,1,0,3:2:0:0:
80,168,66907,2,0,L|91:76,1,90,10|0,0:2|0:2,0:2:0:0:
384,188,67248,5,2,3:2:0:0:
125,248,67418,1,0,3:2:0:0:
336,112,67589,1,10,0:2:0:0:
236,348,67759,1,2,0:2:0:0:
128,128,67930,1,0,3:2:0:0:
128,128,68015,1,0,3:2:0:0:
128,128,68100,1,2,3:2:0:0:
328,320,68270,2,0,B|372:332|372:332|416:320,1,90,10|0,0:2|0:2,0:2:0:0:
288,32,68611,6,0,B|248:12|248:12|188:64|236:132,2,180,6|8|0,3:2|0:2|3:2,0:2:0:0:
372,236,69464,1,0,3:2:0:0:
468,24,69634,2,0,L|457:113,1,90,10|0,0:2|0:2,0:2:0:0:
508,352,69975,6,0,P|475:319|422:307,1,90,6|0,3:2|3:2,3:2:0:0:
200,348,70316,2,0,P|244:336|281:296,1,90,10|0,0:2|3:2,3:2:0:0:
368,80,70657,1,2,3:2:0:0:
196,256,70827,1,0,3:2:0:0:
448,128,70998,2,0,B|460:84|460:84|448:40,1,90,10|0,0:2|3:2,0:2:0:0:
152,168,71339,5,6,3:2:0:0:
412,276,71509,1,0,3:2:0:0:
252,52,71680,2,0,L|241:141,1,90,10|0,0:2|0:2,0:2:0:0:
128,380,72020,1,2,3:2:0:0:
68,128,72191,1,0,3:2:0:0:
288,304,72361,2,0,P|300:260|284:208,1,90,10|0,0:2|3:2,0:2:0:0:
240,141,72617,1,0,3:2:0:0:
240,141,72702,5,14,0:2:0:0:
128,380,72873,1,0,3:2:0:0:
184,72,73043,5,14,0:2:0:0:
304,320,73214,1,0,3:2:0:0:
332,24,73384,5,14,0:2:0:0:
212,280,73555,1,8,0:2:0:0:
212,280,73640,1,8,0:2:0:0:
212,280,73725,2,0,L|206:236,1,45,8|8,0:2|0:2,0:2:0:0:
108,0,73895,2,0,L|102:43,1,45,10|8,0:2|0:2,0:2:0:0:
320,228,74066,5,6,3:2:0:0:
52,160,74236,2,0,L|141:149,1,90,2|8,3:2|0:2,0:2:0:0:
448,160,74577,1,2,0:2:0:0:
200,32,74748,1,2,3:2:0:0:
464,144,74918,1,2,3:2:0:0:
204,216,75089,1,10,0:2:0:0:
320,0,75259,1,2,0:2:0:0:
412,268,75430,6,0,P|368:280|312:264,1,90,2|0,3:2|3:2,0:2:0:0:
104,168,75770,1,10,0:2:0:0:
377,99,75941,2,0,L|367:189,1,90,2|0,0:2|3:2,0:2:0:0:
256,384,76282,1,2,3:2:0:0:
196,132,76452,2,0,P|240:120|296:136,1,90,8|2,0:2|0:2,0:2:0:0:
444,360,76793,5,2,3:2:0:0:
244,212,76964,1,2,3:2:0:0:
460,376,77134,2,0,L|470:286,1,90,10|0,0:2|0:2,0:2:0:0:
312,76,77475,2,0,L|322:165,1,90,2|0,3:2|3:2,0:2:0:0:
224,372,77816,1,10,0:2:0:0:
132,128,77986,1,2,0:2:0:0:
368,340,78157,5,2,3:2:0:0:
104,228,78327,1,2,3:2:0:0:
372,144,78498,1,10,0:2:0:0:
140,324,78668,1,2,0:2:0:0:
296,88,78839,2,0,L|301:44,2,45,0|0|2,3:2|3:2|3:2,0:2:0:0:
352,356,79180,1,8,0:2:0:0:
183,122,79350,1,10,0:2:0:0:
183,122,79435,1,8,0:2:0:0:
183,122,79520,6,0,P|139:110|83:126,1,90,6|0,3:2|3:2,0:2:0:0:
4,348,79861,2,0,P|48:360|104:344,1,90,8|0,0:2|0:2,0:2:0:0:
292,164,80202,1,2,3:2:0:0:
48,268,80373,1,0,3:2:0:0:
300,356,80543,2,0,B|312:312|312:312|300:268,1,90,8|0,0:2|0:2,0:2:0:0:
136,20,80884,6,0,L|146:109,1,90,6|0,3:2|3:2,0:2:0:0:
384,216,81225,2,0,L|394:126,1,90,8|0,0:2|0:2,0:2:0:0:
168,332,81566,1,2,3:2:0:0:
272,96,81736,1,0,3:2:0:0:
364,344,81907,2,0,P|408:356|464:340,1,90,8|0,0:2|0:2,0:2:0:0:
376,48,82248,5,6,3:2:0:0:
288,292,82418,1,0,3:2:0:0:
180,32,82589,2,0,L|269:42,1,90,8|0,0:2|0:2,0:2:0:0:
496,184,82930,1,2,3:2:0:0:
228,228,83100,1,0,3:2:0:0:
476,92,83270,1,8,0:2:0:0:
328,344,83441,1,0,3:2:0:0:
328,344,83526,1,0,3:2:0:0:
328,344,83611,6,0,L|317:254,1,90,6|0,3:2|3:2,0:2:0:0:
140,28,83952,2,0,L|129:117,1,90,8|0,0:2|0:2,0:2:0:0:
104,156,84208,1,0,3:2:0:0:
104,156,84293,2,0,L|109:199,2,45,2|0|0,3:2|3:2|3:2,0:2:0:0:
320,104,84634,1,8,0:2:0:0:
64,280,84805,1,8,0:2:0:0:
64,280,84890,1,8,0:2:0:0:
64,280,84975,6,0,B|108:292|108:292|152:280,1,90,6|0,3:2|3:2,0:2:0:0:
320,104,85316,1,2,3:2:0:0:
232,344,85486,1,0,3:2:0:0:
164,80,85657,1,2,3:2:0:0:
332,328,85827,1,8,0:2:0:0:
332,328,85912,1,8,0:2:0:0:
332,328,85998,2,0,L|326:284,1,45,10|8,0:2|0:2,0:2:0:0:
416,16,86168,2,0,L|410:59,1,45,10|8,0:2|0:2,0:2:0:0:
172,268,86339,5,10,0:2:0:0:
172,268,87702,6,0,P|108:204|84:348,1,315
